#TITLE:Save Me;
#SUBTITLE:;
#ARTIST:Portwave;
#TITLETRANSLIT:;
#SUBTITLETRANSLIT:;
#ARTISTTRANSLIT:;
#GENRE:;
#CREDIT:;
#MUSIC:Save Me.ogg;
#BANNER:Save Me.png;
#BACKGROUND:Save Me-bg.png;
#CDTITLE:;
#SAMPLESTART:13.752;
#SAMPLELENGTH:15.000;
#SELECTABLE:YES;
#OFFSET:-0.038;
#BPMS:0.000=140.000;
#STOPS:;
#BGSTAGE:14;
#BGCHANGES:;
#FGCHANGES:;

//--------------- dance-single - XLev450X-CSP ----------------
#NOTES:
     dance-single:
     XLev450X:
     Challenge:
     16:
     0,0,0,0,0:
0000
0000
0000
0000
,
0000
0000
0000
0000
,
0000
0000
0000
0000
,
0000
0000
0000
0000
,
0000
0000
0000
0000
,
0000
0000
0000
0000
,
0000
0000
0000
0000
,
0000
0000
0000
0000
,
0001
0010
0100
1000
0010
1000
0010
0100
,
0000
0100
0001
1000
0100
1000
0001
0000
,
0001
0000
0100
0000
0010
0000
1000
0000
0100
0000
0000
0010
0000
0000
1000
0000
,
0010
0000
0100
0000
0001
0000
0100
0000
0001
0000
0000
1000
0000
0000
0010
0000
,
0100
1000
0001
1000
0001
0100
0010
1000
,
0000
1000
0010
0100
0001
0100
0010
0000
,
0001
0000
0010
0000
0001
0000
0010
0000
0100
0000
0000
1000
0000
0000
1000
0000
,
0100
0000
0010
0000
0100
0000
0010
0000
0001
0000
0000
1000
0000
0000
0010
0000
,
0001
0000
0100
0000
0001
0000
0010
0000
0100
0000
0010
0000
0010
0100
0010
1000
,
0001
0000
0100
0000
0010
0000
0100
0000
0001
0000
1000
0000
0100
0010
0100
0010
,
0001
0000
1000
0000
0100
0000
1000
0000
0100
0000
0000
1000
0000
0000
0100
0000
,
0010
0000
0100
0000
0001
0000
0100
0000
0001
0000
0000
1000
0000
0000
1000
0000
,
0010
0000
1000
0000
0001
0000
0010
0000
0001
0000
0100
0000
0010
0100
0010
0100
,
0010
0000
0010
0000
0001
0000
1000
0000
0100
0000
0010
0000
0100
0010
0001
0010
,
0100
0000
0010
0000
0001
0000
0100
0000
0010
0000
0000
0100
0000
0000
0010
0000
,
0101
0000
1001
0000
,
0001
0100
0010
0100
0001
0100
0010
1000
0001
0100
0001
0100
0010
0100
0010
1000
,
0001
0100
0001
1000
0100
0010
0001
0100
0001
0010
0001
0100
0010
0100
0001
0100
,
0001
0010
0100
0010
0001
1000
0001
0010
0100
1000
0100
0010
0001
1000
0010
0100
,
0001
1000
0100
0010
0001
0010
0100
0010
0100
1000
0001
0100
0010
1000
0001
0100
,
0010
1000
0001
1000
0010
1000
0010
0100
0010
1000
0001
0010
0100
1000
0001
0100
,
0010
1000
0010
0100
0001
0100
0010
0100
0001
1000
0100
1000
0001
1000
0100
0010
,
0100
0010
0001
1000
0010
0100
0001
0010
0001
0010
0100
1000
0001
0010
0001
0100
,
0010
0100
0001
1000
0010
0100
0001
1000
0010
1000
0001
1000
0100
0010
0001
1000
,
0001
0100
0001
0100
0010
1000
0010
1000
0010
0100
0001
1000
0100
0010
0100
1000
,
0010
0100
0001
1000
0010
0100
0010
0100
0001
0010
0100
0010
0001
0100
0010
1000
,
0100
0010
0100
0010
0001
0100
0001
1000
0100
0010
0001
1000
0010
1000
0010
1000
,
0001
0010
0001
1000
0100
0010
0100
1000
0100
1000
0010
1000
0001
0010
0001
1000
,
0100
0010
0001
0100
0001
0100
0001
0010
0100
1000
0001
0010
0100
0010
0001
0100
,
0010
1000
0010
1000
0100
0010
0100
0010
0100
1000
0001
0010
0001
0010
0100
0010
,
0001
1000
0010
0100
0001
0010
0001
1000
0001
1000
0010
0100
0001
0010
0100
0010
,
0100
0010
0001
1000
0100
0010
0100
1000
0001
0100
0001
0100
0001
1000
0010
0100
,
0010
0000
0000
0000
;
