#TITLE:Saturday Night (RGR-Special);
#ARTIST:Ozomatli;
#BANNER:Saturday Night (RGR-Special).png;
#BACKGROUND:Saturday Night (RGR-Special)-bg.png;
#CDTITLE:./CDTITLES/DanceDanceRevolution UNIVERSE.png;
#MUSIC:Saturday Night (RGR-Special).ogg;
#SAMPLESTART:13.658;
#SAMPLELENGTH:15;
#DISPLAYBPM:101;
#BPMS:0=101.04;
#BGSTAGE:4;

//--------------- dance-single - XLev450X ----------------
#NOTES:
     dance-single:
     XLev450X:
     Challenge:
     13:
     0,0,0,0,0:
0000
0000
0000
0000
,
0000
0000
0000
0000
,
1001
0000
0010
0000
0001
0010
1000
0100
,
1000
0000
0000
0000
0001
0000
0010
0000
0001
0000
0000
0000
1000
0000
0010
0000
0000
0000
0100
0000
0000
0000
1000
0100
0001
0000
1000
0000
0001
0000
0000
0000
,
0100
0000
0001
0010
0001
0000
2002
0000
0000
0000
0000
0000
0000
0000
0000
0000
,
3003
0000
0000
0000
0000
0000
0000
0000
0000
0000
0010
0000
0220
0330
0001
0000
,
1000
0000
0001
0010
0001
0000
1000
0010
1000
0000
0100
0000
1000
0000
0001
0000
,
0010
0000
0000
0000
0001
0000
1000
0000
0010
0000
0000
0000
0100
0000
0001
0000
0000
0000
1000
0000
0000
0000
0001
0100
1000
0000
0010
0000
0100
0000
0000
0000
,
1000
0000
0010
1000
0010
0000
0001
0000
0010
0001
0010
0000
0001
1000
0010
0000
,
0100
0000
1000
0001
1000
0010
1000
0001
0100
0010
1000
0001
0010
1000
0001
0000
,
1000
0000
0001
0000
1000
0000
0010
0000
0001
0010
0001
0000
1000
0000
0100
0000
,
1000
0000
0000
0000
0001
0000
1000
0000
0010
0000
0000
0000
1000
0000
0001
0000
0000
0000
0100
0000
0000
0000
1000
0100
0001
0000
0010
0000
1000
0000
0000
0000
,
0001
0000
1000
0000
0001
0000
1000
0100
0001
0000
0010
0000
0001
0000
1000
0000
,
0010
0001
0100
1000
0010
1000
0001
0100
0010
1000
0001
0010
2001
0000
0000
3000
,
0001
0000
1000
0010
1000
0001
0010
0100
1000
1000
0100
0001
0010
1000
0020
0000
,
1000
0000
0030
0000
1000
0000
0010
0000
1000
0000
0100
0000
0001
0000
0010
0100
0000
0000
1000
0000
0100
0000
0001
0000
0010
0000
0100
0000
1000
0000
0200
0000
,
0300
0000
0000
0000
0000
0000
0000
0000
0000
0000
0000
0000
0001
0000
0000
0000
0000
0000
0100
0000
0000
0000
0000
0000
0010
0000
0000
0000
0000
0000
1000
0000
0000
0000
0000
0000
0001
0000
0000
0000
0000
0000
1000
0000
0000
0000
0000
0000
0001
0000
0000
0000
0000
0000
0100
0000
0000
0000
0000
0000
0010
0000
0000
0000
0000
0000
0100
0000
0000
0000
0000
0000
0001
0000
0000
0000
0000
0000
0000
0000
0000
0000
0000
0000
0002
0000
0000
0000
0000
0000
0000
0000
0000
0000
0000
0000
,
0103
0000
0000
0000
0000
0000
0000
0000
0000
0000
0000
0000
0010
0000
0000
0000
0000
0000
0100
0000
0000
0000
0000
0000
0001
0000
0000
0000
0000
0000
0010
0000
0000
0000
0000
0000
0000
0000
0000
0000
0000
0000
0100
0000
0000
0000
0000
0000
0001
0000
0000
0000
0000
0000
0010
0000
0000
0000
0000
0000
0100
0000
0000
0000
0000
0000
0010
0000
0000
0000
0000
0000
0001
0000
0000
0000
0000
0000
0100
0000
0000
0000
0000
0000
0010
0000
0000
0000
0000
0000
0100
0000
0000
0000
0000
0000
,
0000
0000
0000
0000
0000
0000
0100
0000
0000
0000
0000
0000
0010
0000
0000
0000
0000
0000
0001
0000
0000
0000
0000
0000
0100
0000
0000
0000
0000
0000
0010
0000
0000
0000
0000
0000
0100
0000
0000
0000
0000
0000
0000
0000
0000
0000
0000
0000
1001
0000
0000
0000
0000
0000
0000
0000
0000
0000
0000
0000
0100
0000
0000
0000
0000
0000
0001
0000
0000
0000
0000
0000
0100
0000
0000
0000
0000
0000
0010
0000
0000
0000
0000
0000
1000
0000
0000
0000
0000
0000
0001
0000
0000
0000
0000
0000
,
0010
0000
0000
0000
0000
0000
0000
0000
0000
0000
0000
0000
0010
0000
0000
0000
0000
0000
0100
0000
0000
0000
0000
0000
1000
0000
0000
0000
0000
0000
0000
0000
0000
0000
0000
0000
0100
0000
0000
0000
0000
0000
0001
0000
0000
0000
0000
0000
0100
0000
0000
0000
0000
0000
0000
0000
0000
0000
0000
0000
1000
0000
0000
0000
0000
0000
0010
0000
0000
0000
0000
0000
1000
0000
0000
0000
0000
0000
0001
0000
0000
0000
0000
0000
0020
0000
0000
0000
0000
0000
0000
0000
0000
0000
0000
0000
,
0130
0000
0001
0000
1000
0000
0010
1000
0010
0000
0001
0100
1000
0000
0200
0000
,
0310
0000
0000
0000
0001
0010
0100
0000
1000
0000
0001
0000
1000
0000
0010
0000
0000
0000
1000
0000
0001
0000
0000
0000
2000
0000
0000
0000
3010
0000
0000
0000
,
0200
0300
0001
1000
0020
0000
0130
0000
0100
1000
0001
0100
1000
0100
0001
0000
,
0020
0000
0130
0000
0010
0000
1000
0001
0010
0000
1000
0001
0100
0000
1000
0000
,
0200
0000
0301
0000
1000
0000
0010
0001
1000
0000
0010
1000
0001
0000
1000
0000
,
0200
0000
0310
0000
0100
1000
0010
2000
3001
0000
0000
0000
0020
0030
1000
0001
,
0020
0000
0130
0000
0001
0000
1000
0010
1000
0000
0001
0000
0100
0000
1000
0000
,
0200
0000
0000
0000
0000
0000
0000
0000
0000
0000
0000
0000
0301
0000
0000
0000
0000
0000
0000
0000
0000
0000
0000
0000
0100
0000
0000
0000
0000
0000
0010
0000
0000
0000
0000
0000
0100
0000
0000
0000
0000
0000
0010
0000
0000
0000
0000
0000
0100
0000
0000
0000
0000
0000
0000
0000
0000
0000
0000
0000
0010
0000
0000
0000
0000
0000
0000
0000
0000
0000
0000
0000
0010
0000
0000
0000
0000
0000
0100
0000
0000
0000
0000
0000
0001
0000
0000
0000
0000
0000
0010
0000
0000
0000
0000
0000
,
2002
0000
0000
0000
0000
0000
3003
0000
0000
0000
0000
0000
0000
0000
0000
0000
0000
0000
0100
0000
0000
0000
0000
0000
0010
0000
0000
0000
0000
0000
0100
0000
0000
0000
0000
0000
1000
0000
0000
0000
0000
0000
0001
0000
0000
0000
0000
0000
0000
0000
0000
0000
0000
0000
0010
0000
0000
0000
0000
0000
1000
0000
0000
0000
0000
0000
0001
0000
0000
0000
0000
0000
0010
0000
0000
0000
0000
0000
0000
0000
0000
0000
0000
0000
1000
0000
0000
0000
0000
0000
0001
0000
0000
0000
0000
0000
,
0100
0000
0000
0000
0000
0000
0001
0000
0000
0000
0000
0000
1000
0000
0000
0000
0000
0000
0100
0000
0000
0001
0000
0000
0010
0000
0000
0000
0000
0000
0100
0000
0000
0000
0000
0000
1000
0000
0000
0000
0000
0000
0001
0000
0000
1000
0000
0000
0000
0000
0000
0000
0000
0000
0100
0000
0000
0000
0000
0000
1000
0000
0000
0000
0000
0000
0001
0000
0000
0000
0000
0000
0100
0000
0000
0000
0000
0000
0010
0000
0000
0000
0000
0000
0100
0000
0000
0000
0000
0000
0000
0000
0000
0000
0000
0000
,
0011
0000
0000
0000
1100
0000
0000
0000
0010
0000
1000
0001
0000
0000
0100
0000
,
0010
0000
1000
0000
0001
0000
0100
0000
0010
0000
0100
0000
1000
0000
0002
0000
0000
0000
0000
0000
0000
0003
1000
0001
1000
0000
0000
0000
1000
0000
0000
0000
,
0001
0000
1000
0100
1000
0000
0001
0100
0001
0000
0010
0000
0001
0000
1000
0000
,
0100
0000
0000
0000
1000
0000
0001
0000
0100
0000
0000
0000
0010
0000
1000
0000
0000
0000
0001
0000
0000
0000
1000
0010
0001
0000
0100
0000
0010
0000
0000
0000
,
0001
0000
0100
0001
0100
0000
1000
0000
0100
1000
0100
0000
1000
0001
0100
0000
,
0010
0000
0001
1000
0001
0100
0001
1000
0010
0100
0001
1000
0100
0001
1000
0000
,
0001
0000
1000
0000
0001
0000
0100
0000
1000
0100
1000
0000
0001
0000
0010
0000
,
1000
0001
0100
0010
1000
0001
0100
1000
0010
0100
0000
0000
0001
0010
0000
0000
,
1001
0000
0000
0000
0000
0000
0000
0000
0001
0000
0000
0000
1000
0000
0000
0000
0010
0000
0000
0000
0000
0000
0000
0000
0202
0000
0000
0000
0000
0000
0000
0000
0000
0000
0000
0303
0000
0000
0000
0000
1000
0000
0000
0000
0000
0000
0000
0000
0010
0000
0000
0000
0100
0000
0000
0000
1000
0000
0000
0000
0100
0000
0000
0000
,
0002
0000
0000
0000
0000
0000
0003
0000
0100
0000
0000
0000
1000
0000
0001
0000
0020
0000
0000
0000
0000
0000
0030
0000
0100
0000
0000
0001
0000
0000
0100
0000
,
2002
0000
0000
0000
,
0000
0000
0000
0000
,
0000
0000
0000
0000
0000
0000
0000
0000
0000
0000
0000
0000
3003
0000
0021
0030
,
2100
3000
0000
0000
0000
0000
0000
0000
;
