#TITLE:Same Girl;
#ARTIST:Jennifer Lopez;
#GENRE:POP;
#MUSIC:Same Girl.ogg;
#BANNER:Same Girl.png;
#BACKGROUND:Same Girl-bg.png;
#SAMPLESTART:59.157;
#SAMPLELENGTH:15;
#OFFSET:-0.315;
#BPMS:0=160.088;
#DISPLAYBPM:160;
#BGSTAGE:4;

//--------------- dance-single - XLev450X-bSP ----------------
#NOTES:
     dance-single:
     XLev450X:
     Beginner:
     3:
     0,0,0,0,0:
0000
0000
0000
0000
,
0000
0000
0000
0000
,
0000
0000
0000
0000
,
0000
0000
0000
0000
,
0000
0000
0000
0000
,
0000
0000
0000
0000
,
0000
0000
0000
0000
,
0000
0000
0000
0000
,
0001
0000
0001
0000
,
1000
0000
0000
0000
,
0010
0000
0010
0000
,
0100
0000
0000
0000
,
1000
0000
1000
0000
,
0001
0000
0000
0000
,
0100
0000
0100
0000
,
0010
0000
0000
0000
,
0001
0000
0000
0000
,
0001
0000
0000
0000
,
0001
0000
0000
0000
,
0000
0000
0000
0000
,
1000
0000
0000
0000
,
1000
0000
0000
0000
,
1000
0000
0000
0000
,
0000
0000
0000
0000
,
0010
0000
0000
0000
,
0010
0000
0000
0000
,
0010
0000
0000
0000
,
0000
0000
0000
0000
,
0100
0000
0000
0000
,
0100
0000
0000
0000
,
0100
0000
0000
0000
,
0000
0000
0000
0000
,
1001
0000
0000
0000
,
0000
0000
0000
0000
,
1001
0000
0000
0000
,
0000
0000
0000
0000
,
1001
0000
0000
0000
,
0000
0000
0000
0000
,
1001
0000
0000
0000
,
0000
0000
0000
0000
,
0001
0000
0001
0000
,
0010
0000
0000
0000
,
0100
0000
0100
0000
,
1000
0000
0000
0000
,
1000
0000
1000
0000
,
0001
0000
0000
0000
,
0001
0000
0001
0000
,
1000
0000
0000
0000
,
0001
0000
0000
0000
,
1000
0000
0000
0000
,
0001
0000
0000
0000
,
0000
0000
0000
0000
,
1000
0000
0000
0000
,
0001
0000
0000
0000
,
1000
0000
0000
0000
,
0000
0000
0000
0000
,
0001
0000
0000
0000
,
0001
0000
0000
0000
,
0001
0000
0000
0000
,
0000
0000
0000
0000
,
1000
0000
0000
0000
,
1000
0000
0000
0000
,
1000
0000
0000
0000
,
0000
0000
0000
0000
,
1001
0000
0000
0000
,
0000
0000
0000
0000
,
0000
0000
0000
0000
,
0000
0000
0000
0000
,
1001
0000
0000
0000
,
0000
0000
0000
0000
,
0000
0000
0000
0000
,
0000
0000
0000
0000
,
0001
1000
0001
0000
,
1000
0001
1000
0000
,
0001
1000
0001
0000
,
0100
0010
0100
0000
,
0001
0001
0100
0000
,
1000
1000
0100
0000
,
0010
0100
0010
0000
,
0001
1000
0001
0000
,
1001
0000
0000
0000
;

//--------------- dance-single - XLev450X-BSP ----------------
#NOTES:
     dance-single:
     XLev450X:
     Easy:
     6:
     0,0,0,0,0:
0000
0000
0000
0000
,
0000
0000
0000
0000
,
0000
0000
0000
0000
,
0000
0000
0000
0000
,
0000
0000
0000
0000
,
0000
0000
0000
0000
,
0000
0000
0000
0000
,
0000
0000
0000
0000
,
0010
0000
1000
0000
,
0001
1000
0001
0000
,
0010
1000
0010
0100
,
0010
0001
0010
0000
,
0001
0000
1000
0000
,
0010
0001
0010
0000
,
0100
1000
0100
0010
,
0001
0010
1000
0000
,
0010
0010
1000
0100
,
0001
0000
0001
0000
,
1000
0010
1000
0100
,
0010
0000
0001
1000
,
0001
0000
0010
1000
,
0100
0000
0010
0010
,
0100
0000
0001
0000
1000
0000
0001
1000
,
0001
0010
1000
0100
,
0010
0000
0001
0010
0001
0000
0100
1000
,
0100
0001
1000
0010
,
1000
0000
0010
1000
0010
0000
0010
0100
,
0010
0001
0010
0000
,
0001
0000
1000
0000
0001
0000
1000
0001
,
1000
0010
1000
0100
,
0010
0100
0010
0000
0001
0010
0001
0000
,
0100
1000
0001
0000
,
2001
0000
0000
0000
,
0001
0001
3001
0000
,
1002
0000
0000
0000
,
1000
1000
1003
0000
,
2001
0000
0000
0000
,
0001
0001
3001
0000
,
2002
0000
0000
0000
,
0000
0000
0000
3003
,
0001
1000
0001
0010
,
1000
0100
0010
0000
,
0001
0010
0100
1000
,
0001
1000
0000
0001
0000
0100
0000
0000
,
1000
0010
1000
0100
,
0010
0001
0010
0000
,
1000
0000
0000
0001
0000
0000
0100
0000
,
0000
0010
0000
0000
1000
0000
0001
0000
,
2000
3002
0023
0032
,
0203
2300
3200
0320
,
0032
0000
0023
0000
0230
0000
0010
0310
,
0000
0001
1000
0001
,
0002
2003
3200
2300
,
3020
0032
0023
0230
,
2300
0000
3200
0000
0320
0000
0100
0130
,
0000
0001
1000
0001
,
0010
1000
0010
0100
,
0000
0001
1000
0000
,
0010
1000
0100
0010
,
0001
0010
0100
0000
,
0010
0010
0100
0000
,
0001
1000
0001
0000
,
0010
1000
0010
0000
,
0100
0010
0100
0000
,
2002
0000
0000
0000
,
0000
0000
0000
0000
,
0000
0000
0000
0000
,
3003
0000
0000
0000
,
0001
0000
0000
1000
0000
0000
0001
0000
,
0000
0100
0000
0000
0010
0000
0000
0000
,
1000
0000
0000
0010
0000
0000
0100
0000
,
0000
0001
0000
0000
1000
0000
0000
0000
,
0001
0010
1000
0100
,
0010
0001
0001
0000
,
1000
0010
1000
0000
,
0010
0100
0010
0000
,
0001
0010
0001
1000
,
0001
1000
0001
0000
0010
0000
0000
0000
,
1000
0100
0010
0001
,
0010
0000
0100
0010
0100
0000
0000
0000
,
2002
0000
0000
0000
,
0000
3003
0000
0000
;

//--------------- dance-single - XLev450X-DSP ----------------
#NOTES:
     dance-single:
     XLev450X:
     Medium:
     10:
     0,0,0,0,0:
0000
0000
0000
0000
,
0000
0000
0000
0000
,
0000
0000
0000
0000
,
0000
0000
0000
0000
,
0000
0000
0000
0000
,
0000
0000
0000
0000
,
0000
0000
0000
0000
,
0000
0000
0000
0000
,
0001
1000
0010
1000
,
0100
0010
0001
0000
,
0100
1000
0001
1000
,
0010
1000
0100
0000
,
0010
0001
0010
1000
,
0100
0010
0001
0000
,
0001
0100
0001
0000
0010
0000
1000
0010
,
1000
0000
0010
0100
0010
0000
0001
0000
,
1000
0001
1000
0000
,
0010
1000
0100
0000
,
0010
0010
0100
0001
,
1000
0001
1000
0000
,
0001
0001
1000
0000
,
0010
0010
0100
0000
,
1000
0100
0010
0001
,
0010
0100
1000
0001
,
0000
1000
0001
0000
0010
0000
1000
0000
,
0100
0010
0002
0000
,
1003
0000
0001
1000
0001
0000
0010
0000
,
1000
0020
0002
0033
,
0001
0010
1000
0100
,
0010
0001
2020
3030
,
0010
0000
1000
0000
0100
0000
0010
0100
,
0000
0001
0010
0100
2002
0000
3003
0000
,
0001
1000
0010
1000
,
0100
0010
0001
0000
,
0001
0000
0010
0000
1000
0000
0001
1000
,
0001
0010
1000
0000
,
0010
1000
0010
0000
0100
0000
0010
0000
,
0001
0010
1000
0000
,
0001
0000
0000
1000
0000
0000
0010
0000
0100
0000
0000
0001
0000
0000
1000
0000
,
0001
0000
0000
0100
0000
0000
0010
0000
1000
0000
0000
0001
0000
0000
0010
0000
,
1000
0001
0010
1000
,
0100
0010
0100
0000
0001
0000
0000
0000
,
1000
0001
1000
0000
0010
1000
0010
0000
,
0010
0100
0010
0000
0001
0000
1000
0000
,
0001
1000
1001
0000
,
0010
1000
1010
0000
,
0010
0000
1000
0000
0100
0000
0010
0100
,
0010
0000
0001
1000
0010
0001
0100
0010
,
2000
3200
0320
0032
,
2003
3200
0320
0032
,
2003
0000
3200
0000
0320
0000
0001
0002
,
0033
0000
1000
0100
0001
0100
1000
0000
,
0002
0023
0230
2300
,
3002
0023
0230
2300
,
3002
0000
0023
0000
0230
0000
1000
2000
,
3300
0000
0001
1000
0001
0000
0010
0000
,
1000
0100
0010
0000
,
0001
0010
1000
0100
,
0001
0010
0100
0000
,
0010
0010
0001
1000
,
0001
0000
1000
0000
0001
0000
0000
1000
,
0000
0010
0100
0000
0001
0000
0010
0000
,
0100
0000
1000
0000
0001
0000
0000
0010
,
0000
1000
0010
0000
0100
0000
0010
0000
,
0002
0000
1000
0000
1000
1000
2000
0000
,
3003
0000
0001
1000
0000
0010
1000
0000
,
0000
0000
0010
0100
0000
0010
0001
0000
,
0001
1000
0000
0001
0000
2002
3003
0000
,
0010
0000
0100
0000
1000
0000
0000
0001
,
0000
1000
0001
0000
0010
0000
1000
0010
,
0100
0000
0010
0000
0001
0000
0000
0100
,
0000
0001
1000
0000
2002
0000
3003
0000
,
0010
1000
0100
0010
,
0001
0000
0010
0001
0010
0000
0100
0000
,
1000
0000
0010
1000
0010
0000
0100
0000
,
0010
1000
0001
0000
,
0001
1000
0100
0001
,
0010
0000
1000
0010
1000
0000
0010
0000
,
0100
0000
0010
0100
0010
0000
0001
0000
,
0010
0100
1000
0000
,
2002
0000
0000
0000
,
0000
3003
0000
0000
;

//--------------- dance-single - XLev450X-CSP ----------------
#NOTES:
     dance-single:
     XLev450X:
     Hard:
     13:
     0,0,0,0,0:
0000
0000
0000
0000
,
0000
0000
0000
0000
,
0000
0000
0000
0000
,
0000
0000
0000
0000
,
0000
0000
0000
0000
,
0000
0000
0000
0000
,
0000
0000
0000
0000
,
0000
0000
0000
0000
,
0001
0000
1000
0000
0010
0000
1000
0010
,
0000
0001
0010
0100
1000
0000
0001
0000
,
1000
0000
0010
1000
0010
0000
0010
0001
,
0000
0001
0100
1000
0001
0000
1000
0000
,
0001
1000
0001
1000
0000
0010
1000
0010
,
0000
0010
0100
0010
0000
0001
0010
0100
,
1000
0000
0001
1000
0000
0010
1000
0000
,
0100
0010
0000
0001
0010
0100
1000
0001
,
1000
0001
1000
0100
,
0001
0000
0100
0001
0100
0000
1000
0000
,
0010
0000
1000
0010
1000
0100
0010
0001
,
0000
0000
0100
0000
1000
0001
0000
1000
,
0010
0000
1000
0100
0010
0001
0010
0000
,
0100
0000
1000
0001
1000
0010
1000
0000
,
0001
2002
0000
0000
3003
0000
0001
1000
,
0010
0000
1000
0000
0100
0000
0010
1000
,
0000
0010
1000
0100
0010
0001
1000
0010
,
2000
0000
0002
3000
1000
0000
1003
0000
,
0010
0000
1000
0100
0010
0001
0010
0100
,
2000
0000
0001
0000
0002
3003
1000
0001
,
1000
0000
0010
0000
1000
0100
0000
0010
,
0001
0000
0010
1000
0010
0000
0001
0010
,
0100
1000
0001
1000
0001
0000
0010
1000
,
0100
0000
0010
0000
0001
1000
0001
0000
,
0001
0000
0000
1000
0000
0000
0010
0000
0100
0000
0000
0000
0001
0000
0010
0000
,
0100
0000
1000
0000
0001
0000
1000
0001
1000
0000
0001
0000
1000
0000
0001
0000
,
0010
0000
0000
0100
0000
0000
0001
0000
0010
0000
1000
0000
0001
0000
0000
0000
,
0010
0000
1000
0000
0100
0000
0001
0010
0001
0000
0010
0000
1000
0000
0100
0000
,
0001
0000
0000
1000
0000
0000
0001
0000
0100
0000
0010
0000
1000
0000
0010
0000
,
0000
0000
1000
0000
0001
0000
1000
0001
1000
0000
0001
0000
1000
0000
0001
0000
,
0010
0000
0000
0100
0000
0000
0001
0000
0010
0000
0000
0100
0000
0000
1000
0000
,
0001
0000
0000
1000
0000
0000
0001
0000
0100
0000
0000
0001
0000
0000
0100
0000
,
0001
1000
0010
0000
0010
1000
0100
0000
,
0010
0001
0010
0100
0000
0001
1000
0000
,
0001
1000
0100
0001
0010
1000
0001
0000
,
0010
1000
0000
0010
0000
1000
0100
0000
,
0010
0001
0010
0000
1000
0000
0010
0000
,
1000
0100
0010
1000
0000
0001
0010
0000
,
0001
1000
0001
1000
0000
0010
1000
0010
,
0100
0000
0001
0010
0100
0000
1000
0010
,
2000
3002
0203
0320
,
2030
3002
0203
0320
,
2030
0000
3002
0000
0203
0000
0010
0020
,
0000
0330
0001
1000
0001
0000
0010
1000
,
0002
2003
3020
0230
,
0302
2003
3020
0230
,
0302
0000
2003
0000
3020
0000
0100
0200
,
0330
0001
1000
0001
0000
1000
0010
1000
,
0100
0000
0010
0000
0001
0000
0010
0100
,
0000
1000
0001
1000
0010
0000
1000
0000
,
0100
0000
0010
0100
0010
0000
0001
0000
,
0001
1000
0001
0000
,
0001
0000
1000
0001
1000
0000
0000
0010
,
1000
0000
0010
0000
0101
0000
1000
0001
,
1000
0000
0010
0000
0000
1000
0010
0100
,
0010
0000
0000
0000
0001
0100
1000
0000
0010
0000
1000
0000
0100
0000
0010
0000
,
2002
0000
0000
0000
,
3003
0000
0001
1000
0000
0001
1000
0000
,
2002
3003
0100
1000
0000
0001
0100
0000
,
0010
0100
0000
1000
0000
2002
0000
3003
,
0010
0000
0000
0000
1000
0000
0000
0000
0001
0000
0000
1000
0000
0000
0100
0000
,
0000
0001
1000
0000
0010
0000
1000
0001
,
1000
0000
0010
0100
0000
0010
0001
0000
,
1000
0001
1000
0000
,
0010
1000
0100
0010
0000
0001
0010
0100
,
0000
0001
1000
0000
0001
0000
1000
0000
,
0100
0010
0100
0010
0000
0001
0010
0000
,
0100
0001
0000
1000
0001
0100
0000
0000
,
1001
0000
0001
1000
0100
0000
0010
0000
,
1000
0010
1000
0000
0010
0100
0010
0000
,
0001
0010
1000
0100
,
0001
0100
0001
1000
0010
1000
0010
0100
,
2002
0000
0000
0000
,
0000
3003
0000
0000
;
