#TITLE:Sakura Reflection (STARDOM Remix);
#ARTIST:かめりあ;
#ARTISTTRANSLIT:Camellia;
#MUSIC:Sakura Reflection (STARDOM Remix).ogg;
#BANNER:Sakura Reflection (STARDOM Remix).png;
#BACKGROUND:Sakura Reflection (STARDOM Remix)-bg.png;
#CDTITLE:./CDTitles/DANCERUSH STARDOM.png;
#SAMPLESTART:85.192;
#SAMPLELENGTH:15;
#OFFSET:-0.005;
#BPMS:0=134;
#BGSTAGE:16;

//--------------- dance-single - XLev450X☆-bSP ----------------
#NOTES:
     dance-single:
     XLev450X☆:
     Beginner:
     3:
     0,0,0,0,0:
0000
0000
0000
0000
,
0000
0000
0000
0000
,
0000
0000
0000
0000
,
0000
0000
0000
0000
,
0000
0000
0000
0000
,
0000
0000
0000
0000
,
1000
0000
0001
0000
,
0100
0010
0100
0000
,
0001
0000
1000
0000
,
0010
0001
0010
0000
,
1000
0000
0001
0000
,
0100
0000
0010
0000
,
1000
0000
0001
0000
,
0200
0000
0300
1001
,
0010
0100
0010
0000
,
1000
0010
1000
0000
,
0001
0100
0001
0000
,
0010
1000
0010
0000
,
0001
1000
0001
0000
,
0100
0001
0100
0000
,
0010
1000
0010
0000
,
0220
0000
0000
0330
,
0001
1000
0001
0000
,
0100
0001
0010
0000
,
1000
0000
0001
0000
,
0100
0010
1000
0000
,
0001
0000
1000
0000
,
0001
0100
0010
0000
,
1000
0000
0001
0000
,
2002
0000
0000
3003
,
0220
0000
0000
0000
,
0000
0000
0000
0330
,
1000
0000
0001
0000
,
1000
0000
0000
0000
,
0010
0000
0100
0000
,
0010
0000
0000
0000
,
0001
0000
0010
0000
,
0001
0000
0000
0000
,
1000
0000
0100
0000
,
1000
0000
0000
0000
,
0010
0000
0100
0000
,
0010
0000
0001
0000
,
1000
0000
0010
0000
,
0100
0000
0000
0000
,
0001
0000
1000
0000
,
0010
0000
1000
0000
,
0100
0000
0010
0000
,
1000
0000
0000
0000
,
0001
0000
1000
0000
,
0010
0000
0100
0000
,
0001
0000
1000
0000
,
0010
0000
0000
0000
,
0100
0000
0001
0000
,
1000
0000
0010
0000
,
0100
0000
0001
0000
,
1000
0000
0000
0000
,
0010
0010
0010
0000
,
0100
0000
0000
0000
,
0001
0001
0001
0000
,
1000
0000
0000
0000
,
0100
0100
0010
0000
,
0100
0000
0001
0000
,
1000
0001
1000
0000
,
0110
0000
0000
0000
;

//--------------- dance-single - XLev450X☆-BSP ----------------
#NOTES:
     dance-single:
     XLev450X☆:
     Easy:
     7:
     0,0,0,0,0:
0000
0000
0000
0000
,
0000
0000
0000
0000
,
0000
0000
0000
0000
,
0000
0000
0000
0000
,
0000
0000
0000
0000
,
0000
0000
0000
0000
,
1000
0001
0010
0100
,
1000
0000
0001
0000
0100
0010
0100
0000
,
0001
0100
0010
1000
,
0010
0001
0010
0000
2002
0000
3003
0000
,
0100
0000
0010
0100
,
0010
0000
1000
0001
,
0100
0010
1000
0100
,
2002
0000
0000
0000
3003
0000
0220
0330
,
0001
1000
0010
0100
,
0010
0001
0010
0000
1000
0100
1000
0000
,
0010
0100
0010
0000
,
0100
0001
0100
0000
,
1000
0001
0100
0010
,
1000
0000
0001
0000
,
0100
0010
1000
0010
,
0200
0000
0000
0300
,
0001
1000
0001
0000
,
1000
0010
1000
0000
,
0010
0100
0010
0000
,
0010
0001
0010
0000
,
1000
0001
0100
0000
,
0010
0100
0010
0000
,
0001
1000
0010
0100
,
0001
1000
0001
0000
0100
0000
0010
0000
,
2002
0000
0000
0000
,
0000
0000
0000
3003
,
1000
0001
0100
0000
,
1000
0010
1000
0000
,
0100
0001
0100
0000
,
0010
1000
0010
0000
,
0100
0000
0001
0000
0010
0001
0010
0000
,
1000
0010
0100
0000
,
1000
0000
0010
0000
0100
0010
0100
0000
,
0020
0000
0000
0030
,
1000
0001
0100
0000
,
0010
1000
0010
0000
,
0100
0001
0100
0000
,
0010
0000
0100
0000
0010
0001
0010
0000
,
1000
0010
0100
0000
,
1000
0001
0100
0000
,
0010
1000
0010
0000
0100
0001
0100
0000
,
2002
0000
0000
3003
,
1000
0001
0100
0010
,
0100
0000
0001
0000
1000
0010
1000
0000
,
0001
0100
0010
0000
,
0100
0000
0001
0000
0100
0001
0100
0000
,
1000
0001
0100
0000
,
0010
1000
0010
0000
,
0100
0000
0001
0000
1000
0001
1000
0000
,
0200
0000
0000
0300
,
0010
0000
0100
0000
0001
1000
0001
0000
,
0020
0000
0000
0030
2000
0000
0000
3000
,
0100
0000
0001
0000
0100
0001
0100
0000
,
0020
0000
0000
0030
0002
0000
0000
0003
,
1000
0000
0010
0000
1000
0010
1000
0000
,
0100
0001
1000
0000
,
0010
0000
0100
0000
0001
1000
0010
0000
,
2002
0000
0000
0000
3003
0000
0000
0110
0000
0000
0000
0000
0000
0000
0000
0000
;

//--------------- dance-single - XLev450X☆-DSP ----------------
#NOTES:
     dance-single:
     XLev450X☆:
     Medium:
     10:
     0,0,0,0,0:
0000
0000
0000
0000
,
0000
0000
0000
0000
,
0000
0000
0000
0000
,
0000
0000
0000
0000
,
0000
0000
0000
0000
,
0000
0000
0000
0000
,
1000
0000
0000
0000
0001
0000
0000
0000
0100
0000
0000
0010
0000
1000
0000
0001
,
0000
0100
0000
0010
0000
1000
0000
0000
0010
0000
0001
0000
0100
0000
0010
0000
,
1000
0000
0000
0000
0001
0000
0000
0000
0100
0000
0000
0010
0000
1000
0000
0001
,
0000
0100
0000
0010
0000
1000
0000
0001
0100
0000
1000
0000
0010
0000
0100
0000
,
0011
0000
1010
0000
0010
0100
0010
0000
,
1100
0000
1010
0000
0100
1000
0100
0000
,
0001
0010
0001
0000
0010
0100
0010
0000
,
2002
0000
0000
0000
3003
0110
1001
0000
,
0010
0000
0000
0000
1000
0000
0000
0000
0010
0000
0000
0100
0000
0001
0000
1000
,
0000
0010
0000
0100
0000
1000
0000
0000
0010
0000
0000
0101
0000
0000
1010
0000
,
0010
0000
1000
0000
0010
1000
0010
0000
,
0100
0000
0010
0000
1000
0000
0010
0000
0100
0000
0000
0001
0000
0000
1000
0000
,
0010
0000
0100
0000
0001
1000
0010
0000
,
1000
0000
0100
0000
1000
0000
0100
0000
0001
0000
0000
0100
0000
0000
0001
0000
,
1000
0000
0010
0000
0100
1000
0010
0100
,
2002
0000
0000
3003
,
1000
0000
0001
0000
0100
0010
1000
0000
,
0100
0010
0001
0000
0010
0001
0010
0000
,
1000
0000
0010
0000
1000
0100
1000
0000
,
0010
0100
0001
1000
0010
0000
0100
0000
,
0010
0000
0000
1000
0000
0100
0001
0000
,
0100
0000
0010
0000
1000
0001
0010
0000
,
1000
0000
0000
0001
0000
0000
0100
0000
0000
0010
0000
0000
1000
0000
0000
0000
,
0020
0000
0000
0030
,
1001
0000
0000
0000
,
0000
0000
0000
0000
,
0010
1000
0001
0100
,
0010
0000
0001
0000
1000
0000
0000
0100
0000
0000
0000
0000
1000
0000
0000
0000
,
0001
0000
1000
0000
0010
0001
0010
0000
,
1000
0000
0000
0000
0100
0000
0000
0010
0000
0000
0000
0000
0010
0000
0000
0000
,
1000
0100
0001
0000
0010
0000
0100
0000
,
1000
0000
0001
0000
0100
0000
0000
1000
0000
0000
0000
0000
0010
0000
0000
0000
,
1000
0100
0001
1000
0100
0001
0100
0000
,
0020
0000
0000
0030
,
0001
1000
0010
0000
1000
0000
0100
0000
,
0010
0001
0010
0100
1000
0000
0001
0000
,
1000
0000
0001
0000
0100
0010
0100
1000
,
0010
0100
1000
0000
,
0001
0000
1000
0000
0100
1000
0100
0000
,
0010
0000
0100
0000
0000
0001
0100
0000
,
0010
0001
0010
0000
1000
0100
0010
0000
,
1001
0000
0000
0000
0000
0110
1001
0000
,
0100
0000
0010
0000
1000
0100
1000
0010
,
0100
0000
0001
0000
0100
0010
1000
0000
,
0001
0000
0100
0000
0001
0010
1000
0001
,
0100
1000
0001
0000
,
1000
0000
0010
0000
1000
0100
1000
0000
,
0010
0000
0100
0000
0001
0000
0100
0010
,
1000
0000
0100
0000
0010
1000
0001
0100
,
0020
0000
0000
0030
,
1000
0000
0100
0000
0001
0010
0100
0000
,
1000
0000
0000
0001
0000
0000
0100
0000
0000
0000
0010
0000
1000
0000
0000
0000
,
1000
0000
0001
0000
0100
0010
1000
0000
,
0100
0000
0000
0001
0010
0000
1000
0000
0000
0100
0000
0000
0010
0000
0000
0000
,
0001
0000
1000
0000
0010
1000
0010
0000
,
0100
0001
1000
0000
0010
0000
0100
0000
,
0001
0000
0100
1000
0100
0000
0100
0000
1000
0000
0100
0010
0001
0000
0100
0000
,
0010
0000
0100
0000
1000
0100
0000
0002
0000
0000
0000
0000
0003
0000
0000
0000
;

//--------------- dance-single - XLev450X☆-ESP ----------------
#NOTES:
     dance-single:
     XLev450X☆:
     Hard:
     14:
     0,0,0,0,0:
0000
0000
0000
0000
,
0000
0000
0000
0000
,
0000
0000
0000
0000
,
0000
0000
0000
0000
,
0000
0000
0000
0000
,
0000
0000
0000
0000
,
0001
0000
1000
0000
0010
0000
0000
0000
0100
0000
0000
0001
0000
1000
0000
0010
,
0000
0100
0000
0001
0000
1000
0000
0000
0010
0000
0100
0010
0000
1000
0001
0000
,
0100
0000
0000
0000
0001
0000
0000
0000
1000
0000
0000
0010
0000
0100
0000
0001
,
0000
1000
0000
0010
0000
0100
0000
0001
1000
0000
0010
0000
0100
0001
0000
0000
,
0010
0000
0000
0000
1000
0000
0000
0000
0010
0001
0010
0000
1000
0000
0000
0000
,
0010
0000
0000
0000
0100
0000
0000
0000
1000
0010
1000
0000
0100
0000
0000
0000
,
0001
1000
0010
0100
0001
1000
0010
0100
0001
1000
0010
0100
0001
0100
1000
0000
,
0100
0010
0001
0100
0010
1000
0100
0010
0100
1000
0011
0000
0110
0000
0000
0000
,
1000
0000
0000
0000
0001
0000
0000
0000
0100
0000
0000
0010
0000
1000
0000
0001
,
0000
0100
0000
0010
0000
0001
0000
0000
0010
0000
0001
0010
0000
1000
0100
0010
,
0001
0000
0000
0000
0100
0000
0000
0000
0010
0000
0000
1000
0000
0001
0000
0100
,
0000
0010
0000
1000
0000
0010
0000
0000
0001
0000
0010
0001
0010
0001
1000
0000
,
0010
0000
0000
0000
0100
0000
0000
0000
1000
0000
0000
0001
0000
0100
0000
0010
,
0000
1000
0000
0001
0000
0100
0000
0000
0010
0000
1000
0001
0000
0100
0010
0000
,
1000
0000
0000
0000
0010
0000
0000
0000
0001
0000
0000
1000
0000
0010
0000
0100
,
0020
0100
0100
0100
0100
0100
0130
0000
,
1000
0000
0010
0000
0100
0001
0010
0001
,
1000
0000
0000
0000
0010
0000
0000
0000
1000
0000
0010
1000
0010
0000
0100
0000
,
0001
0000
1000
0000
0001
0100
0010
0000
,
1000
0000
0010
0000
0100
0001
1000
0000
,
0010
0000
0000
1000
0000
0000
0001
0000
0000
0100
0000
0000
0010
0000
0000
0000
,
1000
0000
0010
0100
0001
1000
0010
0000
,
0100
0000
0000
0001
0000
0000
1000
0000
0000
0010
0000
0000
0100
0000
0000
0000
,
0001
0100
1000
0100
0010
0100
0001
1000
,
0020
0000
0000
0000
,
0030
0000
0000
0000
,
0010
0100
1100
0000
,
0010
0100
0101
0000
,
1000
0010
1010
0000
,
0001
0010
0011
0000
,
1000
0000
0001
0010
0100
0000
1000
0000
,
0001
0100
0110
0000
,
1000
0000
0001
0100
0010
0000
1000
0000
,
0100
0010
0001
0010
0100
0000
0000
0000
,
0010
0000
1000
0001
0100
0000
0010
0000
,
0010
0001
1000
0000
0100
1000
0100
0000
,
0010
0000
0100
0000
0001
0010
0001
0000
,
1000
0000
0010
0100
0000
0000
0010
0000
,
1000
0000
0000
0000
0001
0100
0000
0010
0000
1000
0000
0000
0010
0000
0100
0000
,
0010
0001
0010
0000
1000
0000
0000
0010
0000
0000
0100
0000
0100
0000
0010
0000
,
1000
0001
0100
0010
1000
0001
0100
0010
0100
1000
0001
0100
0010
1000
0001
0100
,
0020
0000
0000
0000
0030
1001
0110
0000
,
0010
0000
0000
0000
1000
0000
0000
0100
0000
0001
0010
0000
1000
0000
0010
0000
,
0100
0000
0010
0000
0001
0010
0001
0000
1000
0000
0100
0000
0010
0000
0000
0000
,
0100
0000
0000
0000
1000
0001
0000
0010
0000
1000
0010
0000
1000
0000
0001
0000
,
0100
0000
0000
1000
0100
0010
0001
1000
0100
0000
0100
0000
0010
0000
0100
0000
,
0010
0000
1000
0000
0001
1000
0000
0010
0000
0001
0100
0000
1000
0000
0010
0000
,
0001
0000
0010
0001
0010
0000
0000
1000
0000
0000
0010
0000
0100
0001
0000
0000
,
1000
0000
0000
0000
0010
0000
0000
0100
0000
1000
0100
0001
0010
0000
1000
0000
,
0020
1000
1000
1000
1000
1000
1030
0000
,
0010
0000
0000
0000
1000
0000
0000
0010
0000
0001
0010
0100
1000
0000
0100
0000
,
0100
0000
0000
0010
0000
0000
1000
0000
0000
0100
0010
0000
0001
0000
0000
0000
,
1000
0000
0000
0000
0010
0000
0000
1000
0000
0010
0001
0000
1000
0000
0010
0000
,
0100
0000
0000
1000
0100
0000
0001
0100
0000
0000
0010
0100
1000
0001
0000
0000
,
0010
0000
0000
0000
1000
0000
0000
0000
0010
0001
0010
0000
1000
0000
0010
0000
,
0100
1000
0100
0000
0010
0000
0000
0100
0010
0000
1000
0000
0001
0000
0000
0000
,
0100
0010
0001
0100
0010
1000
0100
0010
0100
1000
0010
0100
0001
0010
0001
0010
,
1000
0000
0010
0000
1000
0010
0000
0200
0000
0000
0000
0000
0300
0000
0000
0000
;

//--------------- dance-single - XLev450X☆-CSP ----------------
#NOTES:
     dance-single:
     XLev450X☆:
     Challenge:
     9:
     0,0,0,0,0:
0000
0000
0000
0000
,
0000
0000
0000
0000
,
0000
0000
0000
0000
,
0000
0000
0000
0000
,
0000
0000
0000
0000
,
0000
0000
0000
0000
,
0002
0010
0100
0010
,
0100
0010
0100
0013
,
2000
0010
0001
0010
,
0001
0010
0001
3010
,
0020
0000
0001
0000
0100
0000
0001
0030
,
0200
0000
1000
0000
0010
0000
1000
0300
,
0002
0013
2000
3100
2000
0000
3002
0003
,
MMMM
MMMM
MMMM
MMMM
,
2000
3100
0200
1000
2300
3100
0200
1300
,
2000
0000
0100
0000
0010
3000
MMMM
0000
,
0002
0013
0020
0001
0032
0013
0020
0031
,
0002
0000
0010
0000
0100
0003
MMMM
0000
,
2000
0000
0100
0000
0010
0000
0001
3000
,
0002
0000
0010
0000
0100
0003
MMMM
0000
,
0002
0000
0010
0000
0100
0000
1000
0003
,
2000
0100
0010
3001
,
2000
3100
0200
1300
2000
3100
2000
3100
,
0200
1300
2000
3100
1000
0100
0010
0001
,
0002
0013
0020
0031
0002
0013
0002
0013
,
0020
0031
0002
0013
0001
0010
0100
1000
,
MMMM
0000
0000
MMMM
0000
1000
0001
0000
,
0000
MMMM
0000
0000
,
0001
0000
0000
1000
0000
0001
MMMM
0000
,
0000
0001
0000
0001
0000
0001
0000
0001
,
MMMM
0000
0000
0000
,
0000
0000
0000
0000
,
0002
1000
0010
1003
,
2000
0001
0100
3001
,
0002
1000
0010
1003
,
2000
0001
0100
3001
,
0002
0000
1000
0003
2000
0000
0001
3000
,
0001
1000
0001
0000
,
2000
0000
0001
3000
0002
0000
1000
0003
,
0002
0013
2000
3100
,
0001
0000
1000
0000
0001
0100
0001
0000
,
0010
0000
0001
0000
1000
0100
1000
0000
,
0001
0000
1000
0000
0001
0100
0001
0000
,
0010
0000
0001
0000
1000
0100
1000
0000
,
0002
0000
0100
0003
1000
0100
1000
0000
,
0200
0000
1000
0300
0010
0001
0010
0000
,
0002
0013
2000
3100
0002
0013
2000
3100
,
MMMM
0000
0000
MMMM
,
0002
0000
0010
0000
0100
0000
0010
0003
,
2000
0010
0001
0100
,
0010
0000
0001
0000
0010
0000
0100
3000
,
0002
0000
0010
0000
0100
0000
1000
0003
,
0002
0013
0020
0031
0002
0013
0002
0013
,
0020
0031
0002
0013
0020
0031
0002
0013
,
0002
0000
0010
0000
0100
0000
1000
0003
,
MMMM
0000
MMMM
0000
,
0101
0000
2000
0000
0100
0000
0010
3000
,
0001
1000
0010
0100
1000
0001
0100
0010
,
0002
0013
0020
0031
0002
0013
0002
0013
,
0001
1000
0010
0100
,
2000
3100
0200
1300
2000
3100
2000
3100
,
0200
1300
2000
3100
0200
1300
2000
3100
,
0001
1000
0010
0000
0100
0001
0010
0000
,
0101
0220
0000
0000
,
0330
0000
0000
0000
;
