#TITLE:Sakura Reflection (P*Light Slayer Remix);
#ARTIST:P*Light;
#MUSIC:Sakura Reflection (P_Light Slayer Remix).ogg;
#BANNER:Sakura Reflection (P_Light Slayer Remix).png;
#BACKGROUND:Sakura Reflection (P_Light Slayer Remix)-bg.png;
#CDTITLE:./CDTitles/SDVX II -infinite infection-.png;
#SAMPLESTART:14.186;
#SAMPLELENGTH:15;
#OFFSET:-0.006;
#BPMS:0=186;
#STOPS:8=0.985
,241=2.4;
#BGSTAGE:15;

//--------------- dance-single - XLev450X☆-bSP ----------------
#NOTES:
     dance-single:
     XLev450X☆:
     Beginner:
     4:
     0,0,0,0,0:
0000
0000
0000
0000
,
0000
0000
0000
0000
,
0000
0010
0010
0010
,
0000
0000
0000
0000
,
0000
0001
0001
0001
,
0000
0000
0000
0000
,
0000
1000
0001
1000
,
0000
0000
0000
0000
,
0000
0010
1000
0010
,
0000
0000
0000
0000
,
0000
0001
1000
0001
,
0000
0010
0000
0100
,
0000
1000
0100
1000
,
0000
0001
0000
0010
,
0000
0100
0010
0100
,
0000
0001
0000
1000
,
0000
0001
0010
0100
,
0000
1001
0000
0000
,
0000
1000
0001
0010
,
0000
0100
0000
1000
,
0000
0010
0001
0010
,
0000
0100
0000
1000
,
0000
0010
0100
0010
,
0000
0110
0000
0000
,
0000
0010
0001
0010
,
0000
1001
0000
0000
,
0000
1001
0000
0000
,
0000
0000
0000
0000
,
0000
0010
0000
0001
,
0000
1000
0000
0000
,
0000
0010
0000
1000
,
0000
0100
0000
0000
,
0000
0010
0000
0100
,
0000
0010
0000
0000
,
0000
0001
0000
0010
,
0000
0001
0000
0000
,
0000
1010
0000
0000
,
0000
0000
0000
0000
,
0000
0000
0000
0000
,
0000
0000
0000
0000
,
0000
1000
0000
0001
,
0000
0010
0000
0000
,
0000
1000
0000
0100
,
0000
0001
0000
0000
,
0000
1000
0000
0010
,
0000
0100
0000
0010
,
0000
0001
0000
0010
,
0000
1000
0000
0000
,
0000
0100
0000
0001
,
0000
1000
0000
0000
,
0000
0010
0000
0100
,
0000
0010
0000
0000
,
0000
1000
0000
0100
,
0000
0001
0000
0000
,
0000
0010
0000
1000
,
0000
0100
0000
0000
,
0000
0110
0000
0000
,
0000
1001
0000
0000
,
0000
0001
0000
1000
,
0000
0001
0000
0000
,
0000
0000
0000
0001
0000
0001
0000
0001
,
0000
0000
0000
0000
,
0000
0000
0000
1000
0000
1000
0000
1000
,
0000
0000
0000
0000
,
0000
0000
0000
0010
0000
0010
0000
0010
,
0000
0000
0000
0000
,
0000
0000
0000
0100
0000
0100
0000
0100
,
0000
0000
0000
0000
,
0000
0000
0000
0001
0000
0000
0000
1000
,
0000
0000
0000
0010
0000
0000
0000
0000
,
0000
0000
0000
0100
0000
0000
0000
1000
,
0000
0000
0000
0100
0000
0000
0000
0000
,
0000
0000
0000
0101
0000
0000
0000
0000
,
0000
0000
0000
0001
0000
0000
0000
0010
,
0000
0000
0000
0100
0000
0000
0000
0000
,
0000
0000
0000
1000
0000
0000
0000
0100
,
0000
0000
0000
0010
0000
0000
0000
0000
,
0000
0000
0000
0001
0000
0000
0000
1000
,
0000
0000
0000
0010
0000
0000
0000
0000
,
0000
0000
0000
0100
0000
0000
0000
0010
,
0000
0000
0000
0100
0000
0000
0000
0000
,
0000
0000
0000
0001
0000
0000
0000
1000
,
0000
0001
0000
0010
0000
0000
0000
1000
,
0000
0000
0000
0100
0000
0000
0000
0010
,
0000
0000
0000
0001
0000
0000
0000
0000
,
0000
0000
0000
1000
0000
0000
0000
0100
,
0000
0000
0000
0101
0000
0000
0000
0000
,
0000
0000
0000
0010
0000
0000
0000
0100
,
0000
0000
0000
0010
0000
0000
0000
0000
;

//--------------- dance-single - XLev450X☆-BSP ----------------
#NOTES:
     dance-single:
     XLev450X☆:
     Easy:
     7:
     0,0,0,0,0:
0000
0000
0000
0000
,
0000
0000
0000
0000
,
0000
0001
1000
0001
,
0000
0010
1000
0010
,
0000
0010
0100
0010
,
0000
0001
0010
0001
,
0000
1000
0001
0100
,
1000
0001
0010
1000
,
0000
0010
0001
1000
,
0010
2002
0000
0000
,
3003
1000
0001
0010
,
0100
0000
0001
0000
1000
0000
0001
0010
,
0001
1000
0100
1000
,
0010
0100
1000
0001
,
0000
1000
0010
0100
,
0001
0000
0010
0001
0010
0000
0010
0100
,
0010
1000
0001
1000
,
0010
0110
0000
0000
,
0000
0010
1000
0010
,
0100
0001
0010
0001
,
0000
1000
0100
0001
,
0010
0000
1000
0010
1000
0000
0001
0010
,
0001
1000
0100
0001
,
0010
0000
2000
0000
0000
0002
0000
0000
,
3003
0001
0010
0100
,
1000
0002
0000
0000
,
1003
0000
0001
0000
1000
0010
0000
0100
,
0000
0001
0000
1000
0000
0001
1000
0000
,
0010
0001
1000
0010
,
0100
1000
0001
0001
,
0000
1000
0010
0100
,
1000
0010
0100
0001
,
0000
0001
0100
0001
,
1000
0000
0100
0000
1000
0000
0001
0010
,
0001
1000
0000
0001
,
0000
0000
1000
0000
0010
0000
1000
0100
,
0010
0001
2000
0000
0000
0000
0000
0000
,
3000
0002
0000
0000
,
0003
2000
0000
0000
,
3000
0002
0000
0000
,
0003
0100
1000
0001
,
0010
0000
0100
1000
,
0001
0000
0010
0001
0010
0000
0010
0100
,
0010
2002
0000
0000
,
3003
1000
0100
0001
,
0010
0100
1000
0001
,
0000
0010
1000
0100
,
0010
0001
0010
0100
,
0000
1000
0100
0010
,
1000
0000
0010
1000
0010
0000
0001
0000
,
0000
0100
1000
0001
,
0010
0001
0000
1000
,
0000
0010
1000
0100
,
0010
0001
1000
0010
,
0000
1000
0100
0001
,
0010
0001
0010
1000
,
0000
0000
0001
0000
0000
1000
0000
0000
,
0010
0000
0100
0000
0000
0001
0000
0000
,
1000
0001
0010
1000
,
0000
0001
0100
1000
,
0010
0000
0000
0100
0000
0000
0000
0010
,
0000
0000
0000
1000
0000
1000
0000
1000
,
0000
0000
0000
0010
0000
0000
0000
0100
,
0000
0000
0000
0001
0000
0001
0000
0001
,
0000
0000
0000
1000
0000
0000
0000
0100
,
0000
0000
0000
0010
0000
0010
0000
0010
,
0000
0000
0000
0001
0000
0000
0000
0100
,
0000
0000
0000
0010
0000
0001
0000
0010
,
0000
0000
0000
0001
0000
1000
0000
0001
,
0000
0000
0000
0010
0000
1000
0000
0010
,
0000
0000
0000
0100
0000
0001
0000
0010
,
0000
0100
0000
0000
0001
0000
1000
0000
,
0000
1001
0000
0000
0001
0000
0000
1000
,
0000
0000
0000
0001
0000
1000
0000
0010
,
0000
0100
0000
0001
0000
0010
0000
1000
,
0000
0000
0000
1000
0000
0100
0000
0010
,
0000
1000
0000
0001
0010
0001
0000
0010
,
1000
0010
0000
0001
0000
0100
0000
1000
,
0000
0001
0000
0010
0000
0100
0000
0001
,
0000
0000
0000
1000
0000
0100
0000
0001
,
0000
1000
0000
0000
0001
0000
1000
0000
,
0000
0000
0000
0010
0000
0100
0000
1000
,
0000
0010
0000
0100
0000
0001
0000
0010
,
0000
0000
0000
1000
0000
0100
0000
1000
,
0000
0010
0000
0100
0000
0001
0000
0010
,
0000
0000
0000
1000
0000
0100
0000
0010
,
0000
1000
0000
0101
0000
0000
1010
0000
,
0000
0000
0000
0010
0000
1000
0000
0100
,
0000
0001
0000
0000
1000
0000
0001
0000
,
0000
2002
3003
0000
0000
0000
0000
0000
;

//--------------- dance-single - XLev450X☆-DSP ----------------
#NOTES:
     dance-single:
     XLev450X☆:
     Medium:
     10:
     0,0,0,0,0:
0000
0000
0000
0000
,
0000
0000
0000
0000
,
0000
0001
1000
0010
,
0000
0100
0001
0010
,
1000
0001
1000
0010
,
0000
0100
0001
0010
,
1000
0001
1000
0010
,
0001
0010
0001
0000
1000
0000
0100
0000
,
1000
0010
1000
0000
0010
0100
0010
0000
,
1000
0100
0000
0001
1000
0001
1000
0000
,
0000
0000
0001
0000
1000
0000
0010
0001
,
0010
0000
1000
0000
0100
0000
1000
0010
,
1000
0000
0010
0100
0010
0000
0001
0000
,
1000
0001
1000
0010
,
1000
0010
1000
0000
0010
0000
0100
0000
,
0001
1000
0001
1000
,
0001
1000
0001
0000
0010
0000
0001
0000
,
1000
0000
0000
0000
0000
0000
0001
0000
1000
0000
0000
0010
0000
0000
0000
0000
,
0100
1000
0001
1000
,
0010
1000
0010
0000
0001
0000
0100
0000
,
1000
0001
1000
0000
0010
0001
0010
0000
,
1000
0100
1000
0001
,
0010
0100
1000
0001
,
0010
0001
0010
0000
0000
0100
0000
0000
,
0010
0000
0001
0000
1000
0000
0001
1000
,
0001
1000
0000
0010
0001
1000
0000
0000
,
1001
0000
0001
0000
1000
0010
0000
0100
,
0000
0001
0000
1000
0000
0010
0100
0000
,
0001
0000
1000
0000
0001
1000
0000
0010
,
0000
1000
0000
0001
0000
0100
1000
0000
,
0001
0000
0010
0000
0100
0001
0000
1000
,
0000
0010
0000
0100
0000
0001
1000
0000
,
0010
0000
1000
0000
0001
1000
0000
0100
,
0000
1000
0000
0001
0100
0010
1000
0000
,
0010
0000
1000
0000
0001
1000
0000
0100
,
0000
1000
0000
0001
0010
0001
1000
0100
,
0010
0001
0200
0000
0000
0000
0000
0000
,
0000
0320
0000
0000
,
0000
2030
0000
0000
,
0000
3002
0000
0000
,
0000
1003
0001
0100
,
0010
0001
0010
0000
1000
0000
0100
0000
,
0010
0100
0010
0000
1000
0010
1000
0000
,
0001
1000
0000
0001
0000
1000
0000
0010
,
0100
0001
1000
0010
,
0100
1000
0010
0001
,
0000
0001
1000
0010
,
0100
0000
1000
0000
0001
0010
0001
0000
,
1000
0100
1000
0010
,
1000
0001
0100
1000
,
0000
0001
1000
0010
,
1000
0010
0100
0000
0001
0010
0001
0000
,
0000
1000
0001
1000
,
0010
0100
1000
0001
,
1000
0010
1000
0000
0010
0000
0100
0000
,
0001
0000
0010
0001
0010
0000
1000
0010
,
1000
0000
0000
0000
0001
0000
0000
1000
0000
0000
0010
0000
0000
0100
0000
0000
,
0001
0000
0000
0000
1000
0000
0000
0010
0000
0000
0100
0000
0000
1000
0000
0000
,
0001
0010
0100
1000
,
0001
0000
0010
0001
0010
0000
1000
0010
,
1000
0000
0000
1000
0000
0010
0000
1000
,
0000
0000
0000
0000
,
0000
0000
0000
0001
0000
0010
0000
0001
,
0000
0000
0000
0000
,
0000
0000
0000
1000
0000
0100
0000
1000
,
0000
0000
0000
0000
,
0000
0000
0000
0001
0000
0100
0000
0001
,
0000
0000
0000
0000
,
0000
0000
0000
0001
0000
1000
0000
0010
,
0000
0000
0000
0100
0000
1000
0000
0010
,
0000
0000
0000
0001
0000
1000
0000
0010
,
0000
0100
0000
0000
0001
0000
1000
0000
,
0000
0000
0000
0000
0001
0000
1000
0010
,
0000
0000
0000
0100
0000
0001
0000
0010
,
0000
1000
0000
0100
0000
0001
0000
0101
,
0000
0000
0000
0010
0000
1000
0000
0100
,
0000
1000
0000
0010
0000
0100
0000
0010
,
0000
0000
0000
0001
0000
0010
0000
0001
,
0000
1000
0000
0010
1000
0010
0000
0001
,
0100
0001
0000
0010
0000
1000
0000
0001
,
0000
1000
0010
0000
0001
0000
1000
0000
,
0000
0010
0000
0100
0000
0001
0000
0010
,
0000
1000
0000
0010
0000
0001
0000
0001
,
0000
0000
0000
1000
0000
0010
0000
0100
,
0000
1000
0000
0010
1000
0010
0000
0001
,
0010
0001
0000
1000
0000
0100
0000
1000
,
0000
0001
0000
0010
0000
0000
0100
0000
,
0000
0001
0000
0001
0000
1000
0000
0010
,
0000
1000
0010
0001
0010
0100
1000
0000
,
0000
2002
3003
0000
0000
0000
0000
0000
;

//--------------- dance-single - XLev450X☆-ESP ----------------
#NOTES:
     dance-single:
     XLev450X☆:
     Hard:
     14:
     0,0,0,0,0:
0000
0000
0000
0000
,
0000
0000
0000
0000
,
0000
0001
1000
0010
,
0000
0001
1000
0001
,
0010
0001
1000
0010
,
0000
0000
0100
0000
1000
0001
0010
0000
,
1000
0001
0100
1000
,
0010
1000
0001
0010
,
0100
0000
1000
0000
0001
0000
1000
0001
,
1000
0001
0000
1000
0010
1000
0010
0000
,
0110
0001
0010
1000
,
0001
0000
0010
0001
0010
0000
0010
1000
,
0010
0100
1000
0001
,
0100
0000
0010
0100
0010
1000
0001
1000
,
0010
1000
0100
1000
,
0001
0000
0010
0001
0010
0000
1000
0010
,
1000
0100
1000
0001
,
0100
0000
0000
0000
0000
0000
1000
0000
0001
0000
0000
0100
0000
0000
0000
0000
,
1000
0010
1000
0001
,
0010
0000
1000
0010
1000
0001
0100
1000
,
0001
1000
0010
0000
1000
0000
0001
0000
,
0010
0000
0001
0010
0001
0100
1000
0001
,
0010
1000
0001
0100
,
0010
0000
1000
0000
0000
0100
0000
0010
,
0001
0000
1000
0000
0001
0000
0010
0001
,
0010
0100
0000
1000
0001
0100
0000
0000
,
1001
0000
0001
0000
1000
0010
0000
0100
,
0000
0001
0000
1000
0100
0001
1000
0100
,
0001
0000
0010
0000
1000
0010
0000
0001
,
0000
0010
0000
1000
0001
0100
1000
0000
,
1001
0000
0010
0000
1000
0001
0000
0100
,
0000
1000
0000
0001
1000
0010
0100
1000
,
0001
0010
1000
0000
0001
0010
0000
0001
,
0000
1000
0000
0001
1000
0010
0100
0000
,
1000
0001
1000
0000
0010
0100
0000
1000
,
0000
0001
0000
0001
1000
0010
1000
0001
,
0100
1000
0001
0000
0000
1000
0000
0001
,
0000
0100
0000
0001
0000
1000
0000
0010
,
0000
1000
0010
0100
0000
0001
0000
1000
,
0000
0100
0000
1000
0000
0001
0000
1000
,
0010
1000
0010
1000
0000
0001
0000
0100
,
0000
1000
0001
1000
0000
0010
0000
0001
,
0000
0010
0001
0010
0000
1000
0010
1000
,
0000
0010
0000
0100
0001
1000
0010
0000
,
1000
0000
0001
0000
0010
0000
0001
0010
,
0001
0000
1000
0010
1000
0100
1000
0001
,
0010
0000
1000
0000
0001
0000
0100
1000
,
0001
0000
0010
1000
0100
0001
1000
0010
,
1000
0000
0001
0000
0010
0000
1000
0010
,
1000
0000
0001
0100
0001
1000
0010
0100
,
0001
0000
0001
1000
0001
0000
0010
1000
,
0010
0000
0100
0001
0100
0000
1001
0000
,
0000
0000
0000
1000
0010
1000
0001
0000
,
0001
0000
1000
0010
1000
0000
0010
0000
,
0001
0000
1000
0001
1000
0000
0010
0100
,
0010
0000
0001
1000
0010
1000
0001
1000
,
0010
0000
0000
0000
0001
0000
0000
1000
0000
0000
0010
0000
0000
0100
0000
0000
,
0001
0000
0010
1000
0010
0000
0000
0100
0000
0000
0001
0000
0000
1000
0000
0000
,
0001
0000
0001
1000
0001
0000
1000
0000
0001
0000
0010
0000
0100
0000
1000
0000
,
0001
0000
1000
0000
0001
0010
0001
0000
0100
1000
0100
0000
0001
0010
0100
1000
,
0001
0010
0100
1000
0000
0000
0100
0000
0000
0000
0010
0000
0000
0000
0011
0000
,
0000
0000
0000
0100
0000
0010
0000
1010
,
0000
0000
0000
0001
0000
0100
0000
0101
,
0000
0000
0000
1000
0000
0100
0000
1100
,
0000
0000
0000
0001
0000
1000
0100
0010
,
0000
0001
0000
1000
0000
0010
0000
0110
,
0000
0000
0000
0001
0000
1000
0010
0100
,
0000
0001
0000
0010
0100
1000
0100
0011
,
0000
0000
0000
0010
0000
1000
0000
0100
,
0000
0001
0010
0001
0000
1000
0000
0010
,
0000
1000
0010
1000
0000
0100
0000
0001
,
0000
1000
0000
0000
0001
1000
0010
0100
,
0000
1001
0000
0000
1000
0001
1000
0010
,
0000
1001
0000
0001
0000
1000
0000
0010
,
0000
0100
0000
1000
0000
0001
0000
0010
,
0001
0010
1000
0001
0000
0100
0000
1000
,
0000
0001
0000
1000
0010
1000
0000
0010
,
0100
0010
0000
0001
0000
1000
0000
0100
,
0000
0010
0000
1000
0000
0001
0000
0100
,
0001
0100
1000
0010
0000
0001
0000
1000
,
0100
0000
0001
0000
0100
0000
0000
0000
1000
0000
0001
0000
0000
0100
0000
0000
,
0010
0010
0000
0001
0000
1000
0000
0010
,
1000
0010
0000
0001
0000
0100
0000
0101
,
0000
0000
0000
0010
0000
1000
0000
0100
,
0000
0000
0000
1000
0000
0100
0000
0001
,
0000
1000
0000
0001
1000
0001
0000
0010
,
1000
0010
0000
1001
0000
0000
0110
0000
,
0000
1001
0000
0001
0000
1000
0000
0001
,
1000
0000
0001
0000
0000
0000
1000
0000
0100
0001
0000
0100
0000
0020
0000
0000
,
0030
2002
3003
0000
0000
0000
0000
0000
;

//--------------- dance-single - XLev450X☆-CSP ----------------
#NOTES:
     dance-single:
     XLev450X☆:
     Challenge:
     16:
     0,0,0,0,0:
0000
0000
0000
0000
,
0000
0000
0000
0000
,
0000
0000
0000
0000
0001
0000
0000
0000
1000
0000
0000
0000
0010
0000
1000
0010
,
0001
0001
0010
1000
0001
1000
0010
0000
,
0001
0000
0010
0000
1000
0000
0000
0000
0001
0000
0000
0000
0010
0000
0001
0010
,
0001
0000
1000
0000
0010
0000
0100
0000
1000
0100
0001
1000
0010
0000
0000
0000
,
0100
0000
1000
0000
0001
0000
0000
0000
0010
0000
0000
0000
0001
0000
1000
0010
,
1000
0010
1000
0001
0010
1000
0001
0000
,
0010
0000
1000
0000
0001
0000
1000
0000
0010
0000
1000
0000
0001
0100
1000
0001
,
0010
1000
0001
0100
0000
0000
0001
0000
1000
0000
0010
0000
1000
0000
0000
0000
,
1001
0000
0000
0000
0100
0000
0010
1000
0000
0010
0000
0100
0000
0001
1000
0000
,
0100
0000
0000
0000
0010
0000
0001
1000
0000
0010
0000
0100
0000
0001
1000
0000
,
0200
0000
0000
0000
0310
0000
0100
1000
0000
0001
0000
0100
0000
0010
1000
0000
,
0001
0000
0010
0000
0100
1000
0100
1000
0100
0000
0010
0001
0010
0001
0010
0000
,
0100
0000
1000
0000
0001
0000
0100
0010
0000
1000
0000
0001
0000
0010
0001
0000
,
1000
0000
0000
0000
0010
0000
0100
0001
0000
1000
0000
0100
0000
0010
0001
0000
,
0200
0000
0000
0000
0310
0000
1000
0000
0100
0000
1000
0000
0001
0100
0001
0000
,
1000
0100
1000
0000
0000
0000
0010
0000
0100
0001
0000
1000
0000
0000
0100
0000
,
0100
0000
0000
0000
0010
0000
0001
1000
0000
0010
0000
0100
0000
0001
1000
0000
,
0100
0000
0010
0000
0001
0000
1000
0010
0000
0100
0000
0001
0000
1000
0100
0000
,
0020
0000
0001
0000
0130
0000
0010
0001
0000
1000
0000
0001
0000
0100
0010
0000
,
1000
0000
0100
0000
1000
0010
1000
0010
1000
0000
0001
0100
0001
0100
0001
0000
,
1000
0000
0100
0010
0001
0000
1000
0010
0000
1000
0000
0100
0000
0010
0001
0000
,
1000
0010
0110
0000
0100
1001
0000
0001
,
0010
0000
0100
1000
0001
0000
0100
0000
0001
0000
0010
0000
0100
1000
0100
0000
,
1000
0010
1000
0000
0100
0000
0010
0000
0001
1000
0000
0020
0000
0000
0000
0000
,
0130
0000
0000
0000
0001
0000
1000
0000
0010
0000
0001
1000
0010
0000
1000
0000
,
0001
0200
0000
0010
0010
0010
0010
0010
,
0310
0000
0010
1000
0010
1000
0000
0001
,
0000
0100
0000
1000
0001
0010
1000
0000
,
0110
0000
0001
0010
1000
0001
0000
0100
,
0000
0000
1001
0000
0000
0000
0001
0100
1000
0000
0010
0000
1000
0000
0001
0000
,
1000
0100
0110
0000
0001
1000
0000
0100
,
0010
0001
0000
0100
0010
0100
0001
1000
,
0110
0000
1001
0000
1010
0100
0000
0101
,
0010
1000
0000
0110
0001
1000
0100
0010
,
0001
0100
0010
0020
0000
1000
0030
0101
,
0000
1100
0000
0001
0100
1000
0000
0001
,
0010
1000
0010
0020
0000
1000
0030
0011
,
0000
1010
0000
0001
0010
1000
0000
0001
,
0100
1000
0010
0000
0001
0010
1000
0000
,
1000
0100
0001
0000
1000
0010
0001
0000
,
0001
0100
1000
0000
0001
0010
1000
0100
,
0010
0001
0000
0100
0110
0010
0110
0000
,
1001
0000
0001
1000
0010
0000
0010
1000
,
0010
0000
0001
0010
1000
0001
0100
1000
,
0001
0000
0001
1000
0010
0000
0001
0010
,
0001
0000
1000
0010
1000
0100
1000
0001
,
0010
0000
1000
0010
1000
0000
0010
0010
,
0010
0000
0001
1000
0001
0100
1000
0001
,
0010
0000
0001
1000
0001
1000
0010
1000
,
0010
0000
0100
0000
0001
0000
1000
0000
0010
0000
0100
0000
0001
0010
0100
1000
,
0100
0001
1000
0100
0001
0000
1000
0000
0010
0000
0001
0000
1000
0000
0001
0000
,
0010
0000
0000
0000
0010
0000
0100
0000
1000
0000
0001
0000
0010
0000
0100
0001
,
1000
0100
0001
1000
0010
1000
0010
0100
,
1000
0001
0010
0100
1000
0001
0010
1000
,
0100
0001
0100
0001
0100
0000
0000
1000
0000
0000
0001
0000
0000
0010
0000
0000
,
1000
0001
1000
0001
1000
0000
0000
0001
0000
0000
0100
0000
0000
0010
0000
0000
,
1000
0100
0001
0100
1000
0000
0010
0000
1000
0000
0010
0001
0100
0000
1000
0000
,
0001
0000
0010
1000
0001
0010
0100
1000
0001
0010
0100
1000
0001
0010
0100
1000
,
0001
0010
0100
1000
0000
0000
0010
0000
0000
0000
0100
0000
0000
0000
1100
0000
,
0000
0000
0000
0010
0000
0100
0000
0101
,
0000
0000
0000
1000
0000
0010
0000
1010
,
0000
0000
0000
0001
0000
0010
0000
0011
,
0000
0000
0000
1000
0000
0001
0010
0100
,
0000
1000
0000
0001
0000
0100
0000
0110
,
0000
0000
0000
1000
0000
0001
0100
0010
,
0000
1000
0000
0100
0010
0001
0010
0100
,
0000
0110
0000
1001
0000
0010
1000
0010
,
0000
0001
0010
0001
0000
0100
1000
0001
,
0000
0000
0010
0000
1000
0000
0001
0000
0100
0001
0010
0000
1000
0100
0001
0000
,
0010
1000
0100
0010
0001
0010
0000
0000
1000
0000
0001
0000
1000
0000
0010
0000
,
0001
0110
0000
0000
0001
1000
0010
0100
,
0010
0000
1001
0000
0000
0000
1000
0000
0010
0100
0000
0001
0000
1000
0000
0100
,
0010
0000
0001
0000
0100
0000
0010
0000
1000
0001
0000
0010
0000
0100
0000
1000
,
0001
0000
0100
0010
0100
0000
0001
0000
0100
0010
0000
1000
0000
0001
0000
0010
,
0100
0000
1000
0000
0001
0000
1000
0010
0100
0001
1000
0000
1000
0010
0100
0001
,
1000
0000
0100
0000
0010
0000
0100
0000
1000
0001
0000
0100
0000
0010
0000
1000
,
0001
0000
0010
0000
0100
0000
1000
0000
0001
0100
0000
0010
0000
1000
0000
0001
,
0010
0000
0100
1000
0100
0000
0010
0000
0010
0000
0001
0000
0001
0000
1000
0010
,
1000
0000
0001
0100
0001
1000
0000
0000
0110
0000
0010
0100
0000
2002
0000
0000
,
0000
0000
3003
0000
0000
0000
0001
0000
0010
0100
0000
0010
0000
0001
0000
1000
,
0010
0000
0100
0000
0001
0000
1000
0000
0100
0010
0000
0100
0000
1000
0000
0001
,
0100
0000
0010
1000
0010
0000
0100
0000
0001
1000
0000
0100
0000
0010
0000
0100
,
1000
0000
0001
0000
0100
0000
0001
0010
0100
1000
0001
0000
0001
0010
0100
1000
,
0001
0000
0100
0000
0010
1000
0010
0000
0100
0001
0000
1000
0000
0100
0000
0010
,
0001
0000
1001
0000
0000
0000
1000
0100
0010
0001
0100
0000
0001
0100
0010
1000
,
0100
0000
0110
0000
0000
0000
0010
0000
0001
1000
0010
0000
1000
0001
0010
0000
,
0100
1000
0001
1000
0010
0000
0100
0000
0001
0000
1000
0100
0000
0020
0000
0000
,
0030
2002
3003
0000
0000
0000
0000
0000
;
