#TITLE:Safety Dance (RGR-Special);
#ARTIST:Men Without Hats;
#MUSIC:Safety Dance (RGR-Special).ogg;
#BANNER:Safety Dance (RGR-Special).png;
#BACKGROUND:Safety Dance (RGR-Special)-bg.png;
#CDTITLE:./CDTITLES/DanceDanceRevolution UNIVERSE2.png;
#SAMPLESTART:11.803;
#SAMPLELENGTH:15;
#SELECTABLE:YES;
#OFFSET:0.000;
#BPMS:0.000=101.670;
#DISPLAYBPM:101;
#BGCHANGES:0.000=Safety Dance (RGR-Special)-bg.png=1.000=0=0=1,
3.000=Safety Dance (RGR-Special).avi=1.000=0=0=0=StretchNoLoop====;

//--------------- dance-single - XLev450X ----------------
#NOTES:
     dance-single:
     XLev450X:
     Challenge:
     12:
     0,0,0,0,0:
0000
0000
0000
0000
,
0000
0000
0000
0000
,
0000
0000
0000
0000
,
0001
0000
1000
0000
0010
0000
0100
0000
0001
1000
0000
0010
0100
0000
0001
1000
,
0010
0000
0000
0000
0000
0000
0001
0000
0000
0000
0000
0000
1000
0000
0000
0000
0000
0000
0010
0000
0000
0000
0000
0000
0100
0000
0000
0001
0000
0000
0000
0000
0000
1000
0000
0000
0010
0000
0000
0000
0000
0000
0010
0000
0000
0001
0100
0000
,
1000
0000
1000
0001
0100
0000
0001
0100
1000
0010
1000
0000
0001
0000
1000
0010
,
0100
0000
0001
0000
1000
0000
0001
0100
0000
0000
0000
0000
0000
0000
0001
1000
,
0010
0000
0100
0000
0001
0000
1000
0010
0000
0100
0001
0000
0010
0000
1000
0001
,
0000
0000
0100
0000
0010
0000
1000
0001
0000
0000
0000
0000
0000
0000
1001
0000
,
0000
0000
0010
1000
0010
0000
0001
0100
1000
0010
0100
0000
0000
0000
0001
0010
,
0001
0000
1000
0000
0010
0000
0100
0001
0000
0000
0000
0000
0000
0001
1000
0010
,
0100
0000
0001
0100
1000
0000
0001
0100
0000
0010
0001
0000
1000
0000
0010
0100
,
0001
0010
1000
0000
0010
0000
0100
0001
0000
0000
0000
0000
0000
0000
1000
0100
,
0001
0100
0010
0000
1000
0001
0100
0010
,
0001
1000
0001
0000
1000
0001
0100
0010
,
1000
0000
0001
0100
0010
0000
0000
0000
0001
0000
0010
0001
0010
0000
0000
0000
,
1000
0000
0010
0100
0010
0000
0000
0000
1000
0000
0001
0000
0100
0000
0010
0000
,
1000
0000
0000
0000
0001
0000
1000
0000
0010
0100
0010
0000
0000
0000
0001
1000
,
0010
0000
0100
0000
0001
0000
1000
0100
0000
0000
0000
0000
0000
1000
0001
0010
,
0001
0000
1000
0000
0010
0000
0100
0001
1000
0000
0001
1000
0010
0000
0001
1000
,
0010
0001
0100
1000
0001
0000
1000
0010
0000
0000
0000
0000
0000
0000
0110
0000
,
0000
0000
0001
1000
0001
0000
0100
1000
0001
1000
0010
0000
0000
0000
0001
1000
,
0010
0000
0100
0000
0001
0000
1000
0010
0000
0000
0000
0000
0000
0001
0100
0010
,
1000
0000
0001
0100
0010
0000
1000
0001
0100
0001
0010
1000
0001
0010
0100
1000
,
0010
0000
1000
0001
0100
0000
0010
0100
0000
0000
0000
0000
0000
0000
1001
0000
,
0000
0000
0010
0001
0010
0000
0000
0000
0000
0000
1000
0010
0100
0000
0000
0000
,
0001
0000
1000
0000
0010
0000
0100
0001
0000
0000
0000
0000
0000
0000
0000
0000
,
0000
0000
0010
0100
0010
0000
0000
0000
0000
0000
1000
0010
1000
0000
0000
0000
,
0001
0100
0010
1000
0001
0000
0100
0000
0010
0000
0000
0000
0000
0000
0000
0000
,
0000
0000
0001
1000
0001
0000
0000
0000
0000
0000
0010
0100
0010
0000
0000
0000
,
1000
0000
0001
0000
0100
0000
0001
1000
0000
0000
0000
0000
0000
0000
0000
0000
,
0000
0000
0010
0001
0010
0000
0000
0000
0000
0000
1000
0010
1000
0000
0000
0000
,
0010
0100
0001
1000
0010
0000
0100
0001
0000
0000
0000
0000
1000
0000
0001
0000
,
0100
0000
0000
0000
0010
0000
0000
0000
0001
0000
1000
0000
0010
0001
0010
0000
,
1000
0000
0010
0000
0100
0000
0000
0000
1000
0000
0010
0000
1000
0010
1000
0000
,
0100
0000
0001
0000
0100
0000
0001
0000
1000
0000
0001
0000
0010
0001
0010
0000
,
1000
0010
1000
0000
0100
0010
0100
0000
0001
0000
1000
0000
0001
0000
0000
0000
,
0010
0000
0001
0000
1000
0000
0001
0000
0100
0001
0000
1000
0010
0000
0100
0000
,
0001
0000
1000
0000
0010
0000
0100
0000
0001
0100
0000
1000
0010
0000
0100
0000
,
0001
0000
1000
0000
0001
0000
0100
0000
0010
0001
0000
1000
0010
0000
0100
0000
,
0001
0000
1000
0000
0010
0000
0100
0000
0001
1000
0000
0010
1000
0000
0010
0000
,
0001
1000
0010
0100
1001
0000
0000
0000
0000
0000
0000
0000
0000
0000
0000
0000
;
