#TITLE:STREAM RIDING;
#ARTIST:BEMANI Sound Team;
#GENRE:THEME SONG;
#MUSIC:STREAM RIDING.ogg;
#BANNER:STREAM RIDING.png;
#BACKGROUND:STREAM RIDING-bg.png;
#CDTITLE:./CDTitles/bm IIDX 29 CastHour.png;
#SAMPLESTART:41.474;
#SAMPLELENGTH:15;
#OFFSET:-0.129;
#BPMS:0=145.121;
#DISPLAYBPM:145;
#BGSTAGE:14;

//--------------- dance-single - XLev450X-bSP ----------------
#NOTES:
     dance-single:
     XLev450X:
     Beginner:
     4:
     0,0,0,0,0:
0000
0000
0000
0000
,
0000
0000
0000
0000
,
0000
0000
0000
0000
,
0000
0000
0000
0000
,
0000
0000
0000
0000
,
0000
0000
0000
0000
,
0000
0000
0000
0000
,
0000
0000
0000
0000
,
0000
0000
0000
0000
,
0001
0000
1000
0000
,
0001
0000
0010
0000
,
1000
0010
1000
0000
,
0001
0100
0010
0000
,
0001
0000
1000
0000
,
0010
0000
0100
0000
,
0001
0000
1000
0000
,
0010
1000
0001
0000
,
0001
0001
0001
0000
,
1000
0010
1000
0000
,
0100
0010
0100
0000
,
0001
1000
0001
0000
,
0010
1000
0010
0100
,
0001
1000
0010
1000
,
0001
0100
0010
1000
,
0001
0100
0010
0000
,
0001
0001
1000
0010
,
0100
0010
1000
0000
,
1000
0010
1000
0001
,
0100
0010
1000
0000
,
0001
1000
0001
0100
,
0001
1000
0010
0000
,
1000
0001
1000
0001
,
0100
0010
1000
0000
,
0001
0000
1000
0000
,
0010
1000
0010
0000
,
0100
0000
0001
0000
,
1000
0001
0100
0000
,
0010
0000
0100
0000
,
1000
0001
1000
0000
,
0010
0000
1000
0000
,
0010
1000
0010
0100
,
0001
1000
0001
0000
,
1000
0010
0100
0000
,
1000
0010
0100
0001
,
1000
0010
1000
0000
,
0001
0000
1000
0000
,
0001
1000
0010
0000
,
1000
0010
0100
0001
,
1000
0010
0100
0000
,
0010
0010
1000
0001
,
1000
0010
0100
0000
,
0001
0000
1000
0000
,
0010
1000
0010
0000
,
0100
0000
0001
0000
,
1000
0000
0001
0000
,
0100
0010
1000
0000
,
0001
0010
0100
0000
,
0001
1000
0010
0000
,
1000
0001
0100
0010
,
1000
0001
0010
0000
,
1000
0000
0001
0000
,
0100
0010
1000
0000
,
0001
1000
0001
0000
,
0010
0000
1000
0000
,
0001
0000
1000
0000
,
0001
0000
1000
0000
,
0001
0000
1000
0010
,
1000
0000
0100
0000
,
0010
0000
0001
1000
,
0001
0000
1000
0000
,
0001
0000
1000
0010
,
0100
0000
1000
0000
,
0010
0000
0100
0000
,
0001
0001
0001
0000
,
1000
0010
1000
0100
,
0001
1000
0010
0000
,
0100
1000
0001
0100
,
1000
0010
1000
0000
,
0100
0010
1000
0001
,
0010
1000
0010
0000
,
1000
0001
0100
0010
,
2002
0000
0000
0000
,
0000
0000
0000
0000
,
3003
0000
0000
0000
;

//--------------- dance-single - XLev450X-BSP ----------------
#NOTES:
     dance-single:
     XLev450X:
     Easy:
     8:
     0,0,0,0,0:
0000
0000
0000
0000
,
0000
0000
0000
0000
,
0000
0000
0000
0000
,
0000
0000
0000
0000
,
0000
0000
0000
0000
,
0000
0000
0000
0000
,
0000
0000
0000
0000
,
0000
0000
0000
0000
,
0000
0000
0000
0000
,
0001
0000
1000
0000
,
0010
1000
0001
0000
,
0100
0010
1000
0000
,
0001
0010
1000
0000
,
0010
0000
0100
0000
0000
0001
0000
0000
,
1000
0010
0100
0000
,
0010
0001
0010
0000
1000
0000
0010
0000
,
0100
0001
1000
0000
,
0001
1000
0010
0000
,
1000
0010
0100
0000
,
0001
0010
1000
0001
,
0100
0000
0001
0000
0010
0001
0010
0000
,
1000
0010
0100
0000
,
1000
0001
1000
0000
,
0010
0100
0001
0000
,
1000
0010
1000
0001
,
0010
1000
0001
0000
0100
0000
0001
0000
,
1000
0000
0001
0000
,
0010
0100
0001
1000
,
0010
0001
0010
0000
1000
0000
0001
0000
,
1000
0010
0100
0001
,
0001
0000
1000
0000
0010
0000
0000
0000
0100
0000
0000
0001
0000
0000
1000
0000
,
0010
0000
0001
0000
1000
0000
0010
0100
,
0001
0000
0010
0000
0001
0000
1000
0001
,
0100
0000
0010
0000
0001
0010
0001
1000
,
0010
0000
1000
0000
0010
1000
0010
0000
,
0100
0001
1000
0001
,
0100
0000
0010
0000
0001
1000
0001
1000
,
0010
0001
1000
0001
,
0100
0010
1000
0000
,
0010
1000
0010
0100
,
0001
0000
0010
0000
1000
0001
1000
0001
,
0000
1000
0010
1000
,
0000
0001
0100
0001
,
1000
0000
0001
0000
1000
0000
0001
1000
,
0001
1000
0010
0000
,
0010
1000
0010
0100
,
0001
1000
0001
0000
,
1000
0010
1000
0010
,
0100
0000
0001
0000
1000
0000
0001
0010
,
0001
0000
0000
0000
1000
0000
0000
0000
0001
0000
0000
1000
0000
0000
0001
0000
,
0000
0100
0000
0000
0010
0000
1000
0000
0001
0000
0000
0000
0000
0000
0000
0000
,
0010
0001
1000
0000
,
0010
0000
0000
0000
1000
0000
0000
0000
0010
0000
0000
0100
0000
0000
0001
0000
,
1000
0000
0000
0000
0001
0000
0000
0000
1000
0000
0000
0010
0000
0000
0100
0000
,
0000
0001
0000
0000
1000
0000
0000
0000
0010
0000
0000
0000
0000
0000
0000
0000
,
0001
0000
1000
0000
0001
0100
0010
0000
,
0001
0000
1000
0000
0010
0000
0100
0001
,
1000
0010
0010
1000
,
0001
0000
0010
0000
0001
0010
0001
0000
,
1000
0000
0000
0001
0000
0000
0100
0000
0010
0000
0000
1000
0000
0000
0010
0000
,
0001
0000
1000
0000
0010
0001
0010
0000
,
1000
0001
0100
0010
,
1000
0010
0000
0000
1000
0000
0001
0000
,
1000
0000
0000
0001
0000
0000
0100
0000
0010
0000
0000
1000
0000
0000
0010
0000
,
0001
0000
1000
0000
0010
1000
0010
0000
,
0001
1000
0010
0000
,
0100
0000
0000
0001
0000
0000
1000
0000
0010
0000
0000
0000
0000
0000
0000
0000
,
0001
1000
0010
0000
,
0100
0000
0000
0001
0000
0000
1000
0000
0010
0000
0000
0000
0000
0000
0000
0000
,
1000
0010
0100
0000
,
0001
0000
0000
1000
0000
0000
0001
0000
0100
0000
0000
0000
0000
0000
0000
0000
,
0010
0001
1000
0000
,
0010
0000
0000
0100
0000
0000
0001
0000
1000
0000
0000
0000
0000
0000
0000
0000
,
0001
0000
1000
0000
0010
1000
0010
0000
,
0010
0000
0100
0000
0010
0001
0010
0000
,
1000
0000
0001
0000
0100
0001
0100
0000
,
0010
1000
0001
0000
,
1000
0001
1000
0001
,
0010
0001
0010
0000
1000
0010
1000
0000
,
0010
0100
0001
1000
,
1000
0001
0100
0000
0010
1000
0010
0000
,
2002
0000
0000
0000
,
0000
0000
0000
0000
,
3003
0000
0000
0000
;

//--------------- dance-single - XLev450X-DSP ----------------
#NOTES:
     dance-single:
     XLev450X:
     Medium:
     11:
     0,0,0,0,0:
0000
0000
0000
0000
,
0000
0000
0000
0000
,
0000
0000
0000
0000
,
0000
0000
0000
0000
,
0000
0000
0000
0000
,
0000
0000
0000
0000
,
0000
0000
0000
0000
,
0000
0000
0000
0000
,
0000
0000
0000
0000
,
1000
0001
1000
0010
,
0001
0010
0001
0000
1000
0000
0001
0000
,
0100
0000
0000
0001
0000
0000
1000
0000
0010
0000
0000
0100
0000
0000
1000
0000
,
0001
0000
1000
0000
0010
0000
1000
0010
,
0100
0001
0010
1000
,
0001
0000
0100
0000
0010
0001
0010
0000
,
1000
0010
0100
0001
,
1000
0100
0001
0000
0100
0000
0010
1000
,
0001
0000
0000
0000
0100
0000
0000
0000
0010
0000
0000
1000
0000
0000
0001
0000
,
0000
0000
0100
0000
0010
0000
0000
0000
1000
0000
0000
0001
0000
0000
0100
0000
,
0010
0000
0000
0000
1000
0000
0000
0000
0001
0000
0000
0100
0000
0000
0010
0000
,
0000
0000
1000
0000
0001
0000
0000
0000
0100
0000
0000
0010
0000
0000
1000
0000
,
0001
0000
0000
0000
0010
0000
0000
0000
0100
0000
0000
0001
0000
0000
1000
0000
,
0000
0010
0000
0100
0000
0010
1000
0000
0001
0000
0000
1000
0000
0000
0001
0000
,
0100
0000
0000
0000
0010
0000
0000
0000
1000
0000
0000
0001
0000
0000
0100
0000
,
0000
0010
0000
1000
0000
0100
0010
0001
0100
0000
0000
0100
0000
0000
0010
0000
,
0001
0000
0000
0000
1000
0000
0000
0000
0010
0000
0000
0100
0000
0000
0001
0000
,
0000
1000
0000
0100
0000
0001
1000
0000
0001
0000
0000
0010
0000
0000
1000
0000
,
0001
0000
0000
0000
0100
0000
0000
0000
0010
0000
0000
1000
0000
0000
0001
0000
,
0000
0000
0100
0000
0010
0000
0000
0000
1000
0000
0000
0001
0000
0000
0100
0000
,
0010
0000
0000
0000
1000
0000
0000
0000
0001
0000
0000
0100
0000
0000
0001
0000
,
0000
1000
0000
0001
0000
0100
0001
0000
1000
0000
0000
0010
0000
0000
0100
0000
,
0001
0000
0000
0000
1000
0000
0000
0000
0010
0000
0000
1000
0000
0000
0001
0000
,
0000
0100
0010
0000
1000
0000
0001
0100
,
0010
0001
1000
0010
,
0100
1000
0001
0010
,
1000
0001
0100
0000
0001
0010
0001
0000
,
1000
0010
1000
0000
0010
0000
0100
0000
,
0001
1000
0001
0000
0100
0000
0010
0000
,
1000
0010
1000
0000
0010
0000
0101
0000
,
0010
1000
0001
1000
,
0010
1000
0010
0000
0100
0000
1001
0000
,
0010
1000
1000
0001
,
0100
0000
0010
0000
1000
0010
1000
0000
,
0100
0001
1000
0001
,
0010
0001
0010
0000
1000
0010
0100
0000
,
0001
1000
0010
0100
,
0001
0000
0000
0000
1000
0000
0000
0000
0001
1000
0001
0000
0100
0000
0000
0000
,
0010
0000
0000
0000
1000
0000
0000
0000
0010
0000
0000
0001
1000
0000
0100
0000
,
0001
0010
0001
0000
1000
0010
1000
0000
0010
0000
0000
0000
0100
0000
0000
0000
,
0001
0000
0000
0000
1000
0000
0000
0000
0010
0000
0000
0100
0000
0000
0001
0000
,
0000
1000
0000
0000
0010
0000
0100
0000
0001
0000
0000
1000
0000
0000
0010
0000
,
0100
0000
0000
0001
0000
0000
1000
0000
0010
0000
0000
0100
0000
0000
0001
0000
,
1000
0000
0010
0000
0001
0000
1000
0001
,
1000
0000
0000
0000
0010
0000
0000
0000
1000
0000
0000
0001
0000
0000
0100
0000
,
0000
0010
0000
0000
1000
0000
0001
0000
0100
0000
0000
0010
0000
0000
1000
0000
,
0001
0000
0000
0010
0000
0000
1000
0000
0001
0000
0000
0100
0000
0000
0010
0000
,
0001
0000
1000
0000
0010
0000
1000
0010
,
0100
0000
0000
0000
0001
0000
1000
0000
0010
0000
0000
0100
0000
0000
0001
0000
,
0000
1000
0000
0000
0001
0000
0100
0000
0010
0000
0000
1000
0000
0000
0001
0000
,
0100
0000
0000
0010
0000
0000
1000
0000
0001
0000
0000
0100
0000
0000
0010
0000
,
0001
0000
1000
0000
0010
0000
1000
0001
,
0100
0000
0000
0000
1000
0000
0010
0000
1000
0000
0000
0001
0000
0000
0100
0000
,
0000
0001
0000
0000
1000
0000
0010
0000
0100
0000
0000
0001
0000
0000
1000
0000
,
0010
0000
0000
1000
0000
0000
0001
0000
0010
0000
0000
1000
0000
0000
0001
0000
,
0100
0000
0001
0000
1000
0000
0010
0100
,
0001
0000
1000
0000
0010
0000
0100
0001
,
0010
0000
0000
1000
0000
0000
0001
0000
0100
0000
0000
0000
0010
0000
0000
0000
,
1000
0000
0001
0010
0001
0000
1000
0010
,
0100
0000
0000
0001
0000
0000
1000
0000
0010
0000
0001
0010
0001
0000
1000
0000
,
0010
0000
0100
0000
1000
0000
0001
0100
,
0010
0000
0000
1000
0000
0000
0001
0000
0100
0000
0000
0000
0010
0000
0000
0000
,
1000
0000
0001
0010
0001
0000
1000
0010
,
0100
0000
0000
0001
0000
0000
1000
0000
0010
0000
0100
0000
0001
0000
1000
0000
,
0010
1000
0010
1000
,
0010
0001
0010
1000
0000
0001
0100
0001
,
1000
0000
0010
0000
1000
0000
0010
0001
,
1000
0001
0100
0000
0010
0000
1000
0001
,
0100
0000
0001
0000
1000
0010
0100
0000
,
0001
0000
1000
0000
0010
0100
0001
0000
,
1000
0000
0001
0000
0100
0000
0000
0000
0001
0000
0000
1000
0000
0000
0010
0000
,
0000
0100
0000
0001
0000
1000
0001
0000
0010
0000
1000
0000
0100
0000
0010
0000
,
2002
0000
0000
0000
,
0000
0000
0000
0000
,
3003
0000
0000
0000
;

//--------------- dance-single - XLev450X-ESP ----------------
#NOTES:
     dance-single:
     XLev450X:
     Hard:
     15:
     0,0,0,0,0:
0000
0000
0000
0000
,
0000
0000
0000
0000
,
0000
0000
0000
0000
,
0000
0000
0000
0000
,
0000
0000
0000
0000
,
0000
0000
0000
0000
,
0000
0000
0000
0000
,
0000
0000
0000
0000
,
0000
0000
0000
0000
,
0001
0000
0000
0000
1000
0000
0000
0000
0010
0000
0000
1000
0000
0000
0010
0000
,
0100
0000
0001
0000
0010
0000
0001
0000
1000
0000
0000
0001
0000
0000
0100
0000
,
0010
0000
0000
0001
0000
0000
1000
0000
0010
0000
0000
1000
0000
0000
0010
0000
,
0001
0010
0000
0000
1000
0010
0000
0000
0010
0100
0000
0000
0001
0000
1000
0000
,
0001
0000
0000
0000
0100
0000
0000
0000
0001
0000
0000
1000
0000
0000
0010
0000
,
1000
0000
0010
1000
0010
0000
0100
0000
0001
0000
0000
0100
0000
0000
0001
0000
,
1000
0000
0000
0001
0000
0000
0100
0000
0010
0000
0000
1000
0000
0000
0001
0000
,
0100
0000
0010
0001
0010
0000
1000
0010
1000
0000
0010
0000
0100
0000
0001
1000
,
0100
0000
0000
0000
0001
0000
0000
0000
0100
0000
0000
0001
0000
0000
1000
0000
,
0000
0010
0000
1000
0000
0100
0001
0000
0100
0000
0000
0001
0000
0000
1000
0000
,
0010
0000
0000
0000
0100
0000
0000
0000
0001
0000
0000
1000
0000
0000
0001
0000
,
0000
1000
0000
0001
0000
0010
1000
0000
0010
0000
0000
0100
0000
0000
0001
0000
,
1000
0000
0000
0000
0010
0000
0000
0000
0100
0000
0000
0001
0000
0000
1000
0000
,
0000
0001
0000
0100
0000
0001
0010
0000
1000
0000
0000
0010
0000
0000
0100
0000
,
0001
0000
0000
0000
1000
0000
0000
0000
0001
0000
0000
1000
0000
0000
0010
0000
,
0000
0001
1000
0100
0001
0000
0100
0000
0010
0000
0000
1000
0000
0000
0010
0000
,
0001
0010
0001
0000
1000
0010
1000
0000
0010
0000
0000
0100
0000
0000
0001
0000
,
0000
1000
0000
0001
0000
0100
1000
0000
0010
0000
0000
1000
0000
0000
0001
0000
,
0010
0000
0000
0000
1000
0000
0000
0000
0001
0000
0000
0100
0000
0000
0010
0000
,
0000
0001
0010
0001
0010
0000
1000
0000
0010
0000
0000
0100
0000
0000
0001
0000
,
1000
0000
0010
0000
1000
0000
0001
0000
0100
0000
0000
0010
0000
0000
1000
0000
,
0000
0001
0100
0001
0010
0100
1000
0000
0010
0000
0000
0100
0000
0000
0001
0000
,
1000
0000
0000
0000
0001
0000
0000
0000
0100
0000
0000
0010
0000
0000
1000
0000
,
0000
0001
0010
0100
1000
0100
0010
0001
0100
0000
0001
0000
1010
0000
0101
0000
,
0010
1000
0001
0100
0010
0001
1000
0001
,
1000
0000
0010
0000
1000
0000
0010
0000
1000
0000
0010
1000
0010
0000
0100
0000
,
0001
1000
0001
0000
0001
0100
0001
0010
,
0000
0000
0001
0000
1000
0000
0010
0000
0100
0000
0010
1000
0010
0000
0100
0000
,
0001
0000
0010
0001
0010
0000
1000
0000
0010
0000
0000
0010
0100
0000
0001
0000
,
1000
0001
1000
0000
0100
0000
0001
0000
1000
0000
0001
0000
1000
0000
0000
0000
,
0010
0000
0001
0010
0001
1000
0000
0010
1000
0000
0010
0100
0000
0001
0100
0000
,
1000
0000
0100
0000
0001
1000
0001
1000
0100
0000
0010
0000
1000
0000
0001
0000
,
0010
0000
0001
0010
0001
0000
1000
0010
1000
0010
0000
0100
0000
0001
0100
1000
,
0010
0100
0001
1000
0010
1000
0100
0010
0001
0000
0100
0000
0010
0000
0100
0000
,
1000
0000
0001
0000
0100
0000
0001
0000
1000
0000
0000
0010
0000
0000
0100
0000
,
0000
0001
0000
1000
0000
0100
0010
0000
0100
0000
0001
0000
0100
1000
0100
0010
,
0001
1000
0001
0010
1000
0100
0001
0010
,
0000
1000
0000
0100
0000
0001
0000
0100
1000
0000
0010
0000
0001
0000
1000
0000
,
0010
0001
0010
0000
1000
0010
1000
0000
,
0001
0000
0100
0000
0010
0000
1000
0000
0001
0000
0010
0001
0010
0000
1000
0000
,
0010
0000
0100
0000
0001
0000
0100
0000
1000
0000
0000
0001
0000
0000
1000
0000
,
0000
0010
0000
0000
1000
0000
0001
0000
0100
0000
0000
0001
0000
0000
1000
0000
,
0001
0000
1000
0001
0100
0000
0010
0000
0001
0000
0010
0001
0010
0000
1000
0000
,
1010
0000
0000
0000
0101
0000
0000
0000
1000
0000
0001
0100
0000
1000
0001
0000
,
1000
0000
0000
0000
0010
0000
0000
0000
0001
0000
0000
1000
0000
0000
0010
0000
,
0000
0001
0000
0000
1000
0000
0010
0000
1000
0000
0000
0001
0000
0000
0010
0000
,
0001
0000
0001
1000
0001
0000
0100
0000
0010
0000
0010
0001
0010
0000
1000
0000
,
0110
0000
1100
0000
0101
0000
1010
0010
,
1000
0000
0000
0000
0001
0000
0010
0000
0001
0000
0000
1000
0000
0000
0010
0000
,
0000
1000
0000
0000
0001
0000
0010
0000
0001
0000
0000
1000
0000
0000
0001
0000
,
0010
0000
0001
1000
0001
0000
0010
0000
1000
0000
0010
1000
0010
0000
0001
0000
,
0101
0000
1010
0000
1001
0000
1100
0001
,
1000
0000
0000
0000
0010
0000
0001
0000
1000
0000
0000
0001
0000
0000
0100
0000
,
0000
0010
0000
0000
1000
0000
0001
0000
1000
0000
0000
0010
0000
0000
1000
0000
,
0001
0000
0010
0100
0010
0000
0001
0000
1000
0000
0100
0010
0100
0000
1000
0000
,
0101
0000
0000
0000
0011
0000
0000
0000
1001
0000
1000
0010
1000
0000
0010
0000
,
0101
0000
1000
0000
0010
1000
0001
0000
,
0010
0000
0000
1000
0000
0000
0001
0000
0100
0000
0010
0000
0001
0000
1000
0000
,
0010
0000
0000
0000
1000
0000
0000
0000
0001
0000
0000
0100
0000
0000
0010
0000
,
1000
0000
0000
0001
0000
0000
0100
0000
0010
0000
1000
0000
0001
0000
0010
0001
,
0010
0000
1000
0000
0001
0000
0100
0010
,
1000
0000
0000
0001
0000
0000
0100
0000
0010
0000
1000
0100
0001
0000
0001
0100
,
1000
0000
0000
0000
0010
0000
0000
0000
1000
0000
0000
0001
0000
0000
0100
0000
,
0010
0000
0001
0010
0001
0000
1000
0000
0010
0000
1000
0000
0010
0000
1000
0001
,
0100
0000
0000
0000
0010
0000
0000
0000
1000
0000
0000
0001
0000
0000
1000
0000
,
0010
0000
1000
0000
0010
0000
1000
0000
0001
0000
0100
0000
0001
1000
0001
0000
,
0010
0000
0000
0000
0001
0000
0000
0000
0010
0000
0000
0001
1000
0000
0010
0000
,
0100
0000
0001
0000
0010
0000
0001
0000
0010
0000
0001
0010
0001
0000
1000
0010
,
1000
0000
0001
0000
1000
0000
0001
0000
1000
0000
0000
0100
0001
0000
0100
0000
,
0001
0010
0000
0100
1000
0000
0100
0001
0010
0000
1000
0000
0001
0000
1000
0000
,
0010
0000
0001
0000
1000
0000
0001
0000
0100
0000
0000
0010
0000
0000
0001
0000
,
1000
0000
0010
0000
1000
0000
0010
0000
0100
0000
0001
1000
0010
0000
0100
0000
,
2002
0000
0000
0000
,
0000
0000
0000
0000
,
3003
0000
0000
0000
;
