#TITLE:STAND PROUD;
#SUBTITLE:;
#ARTIST:橋本仁;
#TITLETRANSLIT:;
#SUBTITLETRANSLIT:;
#ARTISTTRANSLIT:Jin Hashimoto;
#GENRE:ANIME;
#CREDIT:;
#MUSIC:STAND PROUD.ogg;
#BANNER:STAND PROUD.png;
#BACKGROUND:STAND PROUD-bg.png;
#CDTITLE:;
#SAMPLESTART:53.274;
#SAMPLELENGTH:15.000;
#SELECTABLE:YES;
#OFFSET:0.193;
#BPMS:0.000=165.158;
#STOPS:;
#DISPLAYBPM:165;
#BGCHANGES:1.500=STAND PROUD.avi=1.000=0=0=0=StretchNoLoop====,
99999.000=-nosongbg-=1.000=0=0=0=StretchNoLoop====
;
#FGCHANGES:;

//--------------- dance-single - XLev450X-bSP ----------------
#NOTES:
     dance-single:
     XLev450X:
     Beginner:
     5:
     0,0,0,0,0:
0000
0000
0000
0000
,
0000
0000
0000
0000
,
0000
0000
0000
0000
,
0000
0000
0000
0000
,
0000
0000
0000
0000
,
0000
0000
0000
0000
0000
0000
0000
0001
,
0000
1000
0000
0010
0000
0000
0000
0100
,
0000
0001
0000
0000
1000
0000
0000
0000
,
0010
1000
0001
1000
,
0010
0100
0001
1000
,
2002
0000
0000
0000
,
0000
0000
0000
3003
,
0000
0001
1000
0010
,
0100
0001
1000
0000
,
0010
0100
0001
0000
,
1000
0010
0100
0000
,
0000
0001
1000
0010
,
1000
0000
0001
0000
,
0010
0001
0010
0000
,
1000
0010
0100
0001
,
0000
1000
0010
0100
,
0000
0001
0010
0100
,
0000
0001
0000
1000
,
0000
0010
0100
0001
,
1000
0000
0010
0000
,
0100
0001
1000
0010
,
0100
0000
0001
0000
,
1000
0000
0010
0000
,
0001
1000
0010
0000
,
0100
0001
0010
0000
,
1000
0001
0010
0100
,
0001
0000
1000
0000
,
0010
0100
0001
1000
,
0010
0000
0100
0000
,
0001
0010
0001
1000
,
0010
0000
0100
0000
0001
0000
0010
1001
,
0000
0000
0000
0000
,
0001
0001
0001
0000
,
1000
1000
1000
0000
,
0010
0010
0010
0000
,
0100
0100
0100
0000
,
0001
1000
0010
0000
,
0100
0001
0010
0000
,
1000
0010
0100
0000
,
0001
0000
1000
0000
,
0001
1000
0010
0000
,
0100
0001
0010
0000
,
1000
0100
0001
0000
,
0010
0100
0001
0000
,
1000
0001
0010
0100
,
2002
0000
0000
3003
,
0010
0000
0000
0000
0100
0000
0000
0001
,
0000
0000
0000
0000
,
0000
0000
0000
0000
1000
0000
0000
0001
,
0000
0000
0000
0000
,
0000
0000
0000
0000
0000
0000
0000
0010
,
0000
1000
0000
0001
0000
0000
0000
0100
,
0000
0010
0000
1000
0000
0000
0000
0000
,
0001
1000
0010
0100
,
0001
0000
0010
0000
1000
0000
0010
2002
,
0000
0000
0000
0000
,
0000
0000
0000
0000
,
3003
0000
0000
0000
;

//--------------- dance-single - XLev450X-BSP ----------------
#NOTES:
     dance-single:
     XLev450X:
     Easy:
     9:
     0,0,0,0,0:
0000
0000
0000
0000
,
0000
0000
0000
0000
,
0000
0000
0000
0000
,
0000
0000
0000
0000
,
0000
0000
0000
0000
,
0000
0000
0000
0000
0000
0000
0000
0001
,
0000
0001
0000
0001
0000
0000
0000
1000
,
0000
0010
0000
0100
0010
0000
0001
0000
,
0001
1000
0010
0100
,
0001
0000
0010
0000
1000
0001
0100
0010
,
2002
0000
0000
0000
,
0000
0000
0000
0000
0000
3003
0000
0100
,
0000
0001
0000
1000
0000
0010
0100
0000
,
0001
0010
1000
0000
0010
0100
0001
0000
,
0010
0001
1000
0010
0100
0001
1000
0010
,
0100
0001
0010
0001
2000
0000
0000
3000
,
0000
0001
0100
0000
0010
0000
1000
0000
,
0001
0010
0001
0000
1000
0010
0100
0000
,
0001
0010
1000
0010
,
0100
0000
0001
0000
0020
0000
0000
0030
,
0000
1000
0001
0000
0010
0100
0001
0000
,
0010
1000
0010
0000
0100
0001
0010
0000
,
1000
0001
0100
0010
,
0001
0010
1000
0000
0001
0010
0000
0100
,
0000
0001
1000
0000
0010
0100
0001
0000
,
1000
0010
0100
0000
0001
0010
0100
0000
,
2002
3003
0220
0330
,
2200
3300
0022
0033
0220
0330
2002
3003
,
0010
0100
0000
0001
1000
0000
0010
0100
,
0000
0001
0000
1000
0020
0000
0030
0000
,
0100
0001
0000
1000
0010
0000
0100
0001
,
0000
1000
0000
0010
0200
0000
0000
0300
,
0001
1000
0010
0100
,
0001
1000
0010
0100
,
0010
0000
0001
1000
0010
0000
0100
0001
,
1000
0000
0010
0100
0001
0000
1000
0020
,
0000
0030
0000
0010
0100
0001
0000
0000
,
1000
0001
0010
0000
,
0100
0001
0010
0000
,
1000
0001
0010
0100
,
0001
0000
0010
0000
0001
1000
0010
0000
,
0100
0001
0010
0000
,
1000
0000
0001
0000
0100
0000
0010
0001
,
0010
0000
1000
0000
0010
0000
0000
0100
,
0001
0100
0000
1000
0010
0000
0100
0001
,
0000
0010
0000
1000
0001
0100
0000
0010
,
0001
1000
0000
0010
0000
0100
0000
0001
,
0010
0001
0000
1000
0000
0010
0100
0001
,
0000
0010
0000
1000
0000
0001
0000
0010
,
0001
1000
0000
0010
0100
0001
0010
1000
,
0002
0000
0000
0003
,
0001
1000
0000
0010
0100
0000
0001
1000
,
0000
0000
0000
0010
0000
0000
0100
0000
,
0001
0000
0000
1000
0010
0100
0000
0001
,
0000
0000
0000
1000
0000
0000
0010
0000
,
0100
0000
0000
0001
1000
0100
0000
0001
,
0000
0001
0000
0001
0000
0000
0000
1000
,
0000
0010
0000
0100
0010
0000
0001
0000
,
0001
1000
0010
0100
,
0001
0000
0010
0000
1000
0001
0100
0022
,
0000
0000
0000
0000
,
0000
0000
0000
0000
,
0033
0000
0000
0000
;

//--------------- dance-single - XLev450X-DSP ----------------
#NOTES:
     dance-single:
     XLev450X:
     Medium:
     12:
     0,0,0,0,0:
0000
0000
0000
0000
,
0000
0000
0000
0000
,
0000
0000
0000
0000
,
0000
0000
0000
0000
,
0000
0000
0000
0000
,
0000
0000
0000
0000
0000
0000
0000
0001
,
0000
1000
0000
0010
0000
0100
0000
0001
,
1000
0010
0100
0001
,
0010
0001
0010
0000
1000
0010
0100
0000
,
0001
0010
1000
0000
0001
0010
0100
0000
,
2002
0000
0000
0000
,
0000
0000
0000
0000
0000
0000
0000
0000
0000
0000
0000
3003
0000
0000
0001
0000
,
0000
1000
0010
0000
0100
0001
0010
0000
,
1000
0000
0001
0000
0100
0000
0000
0000
0010
0000
0000
0001
0000
0000
1000
0000
,
0010
0000
0100
0000
0001
0010
1000
0000
,
0001
0000
0010
0000
0100
0000
0001
0000
1000
0000
0000
0010
0000
0000
0100
0000
,
0000
0001
1000
0010
,
0001
0010
0001
0000
1000
0010
0100
0000
,
0001
0000
1000
0000
0010
0100
0001
0000
,
1000
0000
0001
0000
0100
0000
0010
0000
1000
0000
0000
0000
0001
1000
0100
0000
,
0000
0010
0001
0000
0010
0001
1000
0000
,
0010
0100
0001
1000
0010
0000
0100
0000
,
0001
0010
0001
0000
1000
0010
0100
0000
,
0001
0010
1000
0001
0100
0010
1000
0001
,
0010
0000
0001
0000
0010
0001
0010
0000
,
1000
0000
0000
0000
0010
0000
0000
0000
0100
0000
0001
0000
1000
0001
0010
0000
,
1000
0000
0000
0000
0010
0000
0000
0000
1000
0000
0000
0010
0000
0000
0100
0000
,
0001
0000
0000
1000
0001
0000
0000
0100
1000
0000
0000
1000
0010
0000
0000
0100
,
0010
0001
1000
0000
0010
0000
0100
0001
,
0000
0010
0000
0001
1000
0010
0100
0000
,
0001
0000
0010
0000
1000
0001
0100
0010
,
0000
0001
0010
0000
0001
0000
1000
0000
,
0010
0001
0010
0000
1000
0010
0100
0000
,
0001
0010
1000
0000
0001
0100
0010
0000
,
0001
0000
0000
1000
0000
0000
0010
0000
0100
0000
0000
0001
0000
0000
1000
0000
,
0010
0000
0000
0100
0000
0000
0001
0000
0000
1000
0000
0000
0010
0000
0100
0001
,
0000
0000
0000
1000
0001
0100
0000
0001
,
1000
0010
0000
0100
0001
0010
0000
0001
,
1000
0010
0000
0000
0100
0000
0001
0000
,
1000
0000
0010
0100
0000
0001
0010
1000
,
0000
0000
0001
0000
0010
0000
0100
0000
0001
0000
1000
0000
0000
0010
0000
0000
,
0100
0001
0000
1000
0010
0100
0000
0001
,
0010
1000
0000
0000
0001
0000
1000
0000
,
0010
0001
0010
0000
1000
0010
0100
0001
,
0000
0010
1000
0001
0100
0000
0010
1000
,
0001
0100
0000
0010
0001
0010
0000
1000
,
0010
0100
0000
0001
0010
0001
1000
0010
,
0100
0001
0000
0010
0000
1000
0001
0010
,
0000
0001
1000
0010
0000
0100
0000
0001
,
1000
0000
0010
0000
0001
0000
0010
1000
,
0010
0000
0000
0000
,
0001
0010
0000
1000
0100
0000
0001
0100
,
0000
0000
0000
0000
0000
0001
0000
0000
0000
0000
1000
0000
0000
0000
0000
0000
,
0010
0000
0000
0000
0000
0000
0000
0100
0000
0000
0001
0000
0000
0000
1000
0000
,
0000
0000
0000
0000
0000
0010
0000
0000
0000
0000
0000
0100
0000
0000
0000
0000
,
0001
0000
0000
0000
0000
0000
0000
1000
0000
0000
0100
0000
0000
0000
0001
0000
,
0000
1000
0000
0010
0000
0100
0000
0001
,
1000
0010
0100
0001
,
0010
0001
0010
0000
1000
0010
0100
0000
,
0001
0010
1000
0000
0001
0010
0100
2002
,
0000
0000
0000
0000
,
0000
0000
0000
0000
,
3003
0000
0000
0000
;

//--------------- dance-single - XLev450X-ESP ----------------
#NOTES:
     dance-single:
     XLev450X:
     Hard:
     16:
     0,0,0,0,0:
0000
0000
0000
0000
,
0000
0000
0000
0000
,
0000
0000
0000
0000
,
0000
0000
0000
0000
,
0000
0000
0000
0000
,
0000
0000
0000
0000
0000
0000
0000
0001
,
1000
0010
1000
0000
0001
0000
0100
0000
0001
0000
0010
0000
0001
0100
1000
0000
,
0001
1000
0000
0000
0100
1000
0000
0000
0010
0100
0000
0000
0001
0010
0000
0000
,
0010
0100
0001
1000
0001
0010
0100
1000
0010
1000
0100
0010
0100
1000
0001
0100
,
0010
0100
0001
0010
0100
1000
0001
1000
0010
1000
0001
0100
0010
0100
0010
0000
,
0001
1000
0100
0010
0100
1000
0001
1000
0001
0010
0100
1000
0001
1000
0010
0100
,
0010
1000
0001
1000
0100
1000
0010
0100
0020
0000
0000
0000
0030
0000
1001
0000
,
0000
0000
0001
0000
0010
0000
1000
0010
0100
0000
0001
0000
1000
0000
0010
0000
,
0100
0000
0001
0000
1000
0000
0010
0000
0001
0000
0000
0100
0000
0000
0010
0000
,
0001
0000
0010
0001
0010
0000
1000
0100
1000
0000
0010
0100
0001
0000
1000
0000
,
0010
0000
0100
0001
1000
0000
0010
0000
0100
0000
0001
0000
1000
0010
0100
0000
,
0000
0000
1000
0000
0010
0000
0100
0000
0001
0000
1000
0010
1000
0000
0001
0000
,
0100
0000
0010
0001
0010
0000
1000
0000
0010
0000
0100
0001
1000
0000
0010
0000
,
0100
0000
0001
1000
0100
0000
0010
0000
0001
0000
1000
0000
0010
0000
0001
0000
,
0010
0000
1000
0000
0001
0100
0010
0000
1000
0000
0001
0010
0001
0000
1000
0000
,
0000
0000
0001
0000
0100
0000
0010
1000
0001
0000
0100
0000
0010
0000
1000
0001
,
0100
0000
0010
0000
1000
0000
0001
0100
0010
0000
1000
0000
0001
0000
0010
0001
,
0010
0000
1000
0000
0010
0000
0100
0001
1000
0000
0010
0000
0100
0000
0001
1000
,
0010
0000
0100
0000
0001
0000
1000
0000
0010
0000
0100
0001
1000
0010
0100
0001
,
1000
0001
0010
0001
1000
0010
0100
0001
,
1000
0010
0100
0001
1000
0010
0100
0001
,
0100
1000
0010
1000
0010
0100
0010
1000
0001
0100
0010
0100
0001
0100
0001
0010
,
0001
0100
0010
0100
0001
1000
0100
0010
0001
0010
0001
1000
0100
0010
0001
0010
,
1000
0001
0100
0010
1000
0000
0001
0010
,
0000
0000
1000
0000
0000
0000
0001
0100
0001
0000
0010
0000
1000
0000
0001
0000
,
0010
0000
1000
0001
0010
0000
0001
1000
,
0000
0000
0010
0000
0000
0000
0100
1000
0001
0000
1000
0000
0100
0000
0000
0000
,
0001
0100
0001
1000
0001
0010
1000
0001
,
0100
0001
1000
0010
,
0001
0000
0000
1000
0000
0000
0010
0001
0100
0000
0000
0001
0000
0000
1000
0100
,
0010
0000
0000
0100
0000
0000
0001
1000
0100
0010
0001
0010
1000
0010
0200
0000
,
0000
0300
0000
0100
0001
1000
0000
0000
,
0001
0010
0001
0000
1000
0000
0010
0000
0100
0010
0100
0000
1000
0000
0001
0000
,
0100
0010
1000
0000
0100
0000
1000
0000
0001
0000
0000
0000
0100
0000
0000
0000
,
0010
0000
0001
0000
1000
0000
0010
0000
0100
0001
1000
0000
0010
0000
0100
0000
,
0001
1000
0010
0000
0100
0000
0001
0000
1000
0000
0010
0000
0000
0100
0000
0000
,
0001
0010
0001
0000
1000
0000
0010
0000
0100
0001
1000
0000
0010
0000
0100
0000
,
0001
1000
0010
0000
0100
0000
0001
0000
1000
0010
1000
0000
0010
0000
0100
0000
,
0001
1000
0010
0000
0100
0000
0001
0000
1000
0010
0001
0000
0100
0000
0010
0000
,
0001
1000
0000
0010
0100
0000
0001
1000
,
0010
0100
0001
0000
1000
0000
0010
0000
0100
0001
1000
0000
0010
0000
0100
0000
,
0001
1000
0010
0000
0100
0000
0001
0000
1000
0010
0001
0000
0010
0000
0100
0000
,
0001
1000
0010
0000
0100
0000
0001
0000
0010
0001
1000
0000
0010
0000
0001
0000
,
0100
0001
1000
0000
0010
0000
0001
0000
1000
0010
1000
0000
0001
0000
0100
1000
,
0001
0010
0001
0010
0001
0100
0010
1000
0100
1000
0001
1000
0001
0010
0100
1000
,
0020
0000
0000
0000
0000
0000
0000
0030
,
0001
1000
0000
0010
0100
0000
0001
0010
,
1000
0000
0000
0001
0000
0000
0100
0000
,
0010
0000
0000
0001
1000
0010
0100
0001
,
0000
0000
0000
0000
0000
1000
0000
0000
0000
0000
0000
0010
0000
0000
0000
0000
,
0100
0000
0000
0001
0100
0010
0000
0001
,
1000
0010
1000
0000
0001
0000
0100
0000
0001
0000
0010
0000
0001
0100
1000
0000
,
0001
1000
0000
0000
0100
1000
0000
0000
0010
0100
0000
0000
0001
0010
0000
0000
,
0100
1000
0001
0010
0100
1000
0001
0100
0010
1000
0010
0100
0001
1000
0100
0010
,
0100
1000
0001
1000
0001
0010
0100
0010
0001
0010
0001
0100
0010
1000
0002
0000
,
0000
0000
0000
0000
,
0000
0000
0000
0000
,
0003
0000
0000
0000
;
