#TITLE:SON OF SUN;
#ARTIST:Shinji Hosoe;
#GENRE:GABBER;
#MUSIC:SON OF SUN.ogg;
#BANNER:SON OF SUN.png;
#BACKGROUND:SON OF SUN-bg.png;
#SAMPLESTART:14.844;
#SAMPLELENGTH:15;
#OFFSET:-0.144;
#BPMS:0=200;

//--------------- dance-single - XLev450X-bSP ----------------
#NOTES:
     dance-single:
     XLev450X:
     Beginner:
     3:
     0,0,0,0,0:
0000
0000
0000
0000
,
0000
0000
0000
0000
,
0000
0000
0000
0000
,
0000
0000
0000
0000
,
0000
1001
0000
0000
,
0000
0000
0000
0000
,
0000
0000
0000
0000
,
0000
0000
0000
0000
,
0000
1001
0000
0000
,
0000
0000
0000
0000
,
0000
0000
0000
0000
,
0000
0000
0000
0000
,
0000
0001
0001
0001
,
0000
1000
0000
1000
,
0000
0010
0010
0010
,
0000
0100
0000
0100
,
0000
0100
0100
0100
,
0000
1000
0000
1000
,
0000
0001
0001
1000
,
0000
2002
0000
0000
,
3003
0010
0000
0010
,
0000
0010
0000
0000
,
0000
1000
0000
1000
,
0000
1000
0000
0000
,
0000
0001
0000
0001
,
0000
0001
0000
0000
,
0000
0100
0000
0100
,
0000
0220
0000
0000
,
0330
0001
0000
1000
,
0000
0001
0000
0000
,
0000
1000
0000
0100
,
0000
1000
0000
0000
,
0000
0010
0000
0100
,
0000
0010
0000
0000
,
0000
0010
0000
0001
,
0000
0010
0000
0000
,
0000
1001
0000
0000
,
0000
0000
0000
0000
,
0000
0000
0000
0000
,
0000
0000
0000
0000
,
0000
0010
0000
0000
,
0000
0010
0000
0000
,
0000
0100
0000
0000
,
0000
1001
0000
0000
,
0000
1000
0000
1000
,
0000
0001
0000
0001
,
0000
0010
0000
0010
,
0000
0100
0000
0100
,
0000
1000
0000
0100
,
0000
1000
0000
0010
,
0000
0100
0000
0000
,
0000
0000
0000
0000
,
0000
0001
0000
0000
,
0000
0000
0000
0000
,
0000
1000
0000
0000
,
0000
0000
0000
0000
,
0000
0010
0000
0000
,
0000
0000
0000
0000
,
0000
0100
0000
0000
,
0000
0000
0000
0000
,
0000
0001
0001
0001
,
0000
0100
0100
0100
,
0000
0010
0010
0100
,
0000
1000
0000
0100
,
0000
1000
1000
1000
,
0000
0100
0100
0100
,
0000
0010
0010
0001
,
0000
1001
0000
0000
,
0000
0001
0000
1000
,
0000
0001
0000
0000
,
0000
0010
0000
1000
,
0000
0010
0000
0000
,
0000
0100
0000
0010
,
0000
0100
0000
0000
,
0000
0001
0000
0010
,
0000
0001
0000
0000
,
0000
0010
0000
0100
,
0000
1000
0000
0010
,
0000
0001
0000
0100
,
0000
1000
0000
0000
,
0000
1000
0000
0001
,
0000
0100
0000
0010
,
0000
1000
0000
0001
,
0000
2002
0000
0000
,
3003
0000
0000
0000
;

//--------------- dance-single - XLev450X-BSP ----------------
#NOTES:
     dance-single:
     XLev450X:
     Easy:
     7:
     0,0,0,0,0:
0000
0000
0000
0000
,
0000
0000
0000
0000
,
0000
0000
0000
0000
,
0000
0000
0000
0000
,
0000
0000
1000
0000
0000
0001
0000
0000
,
0010
0001
0001
1000
,
0000
0010
1000
0100
,
1000
0001
0010
0100
,
0000
0000
0001
0000
0000
1000
0000
0000
,
0010
0100
0100
1000
,
0000
0001
0010
0001
,
0010
2002
0000
0000
,
3003
0010
0010
1000
,
0001
0100
0010
0001
,
0000
1000
0100
1000
,
0001
0000
0010
0000
0001
0010
0001
0000
,
0000
1000
0010
0100
,
1000
0001
0010
0100
,
0000
1000
0001
0010
,
0100
0010
2002
0000
0000
0000
0000
0000
,
3003
0010
0010
1000
,
0001
0000
1000
0000
0010
1000
0010
0000
,
0001
0010
0001
0000
0100
0000
1000
0000
,
0001
0010
0100
0202
,
0303
1000
1000
0010
,
1000
0000
0001
0000
0010
1000
0010
0000
,
0100
0001
0100
0000
0001
0000
0010
0000
,
0100
2002
0000
0000
,
3003
0010
0010
1000
,
0001
0100
0001
1000
,
0010
0000
1000
0010
1000
0000
0001
0010
,
0001
2100
0000
0000
,
3010
0100
0001
1000
,
0000
1000
0010
1000
,
0000
0100
0010
0100
,
0010
2001
0000
0000
,
3000
0000
0001
0000
0000
1000
0000
0000
,
0100
0000
0010
0000
0000
0001
0000
0000
,
1000
0000
0010
0000
0000
1000
0000
0000
,
0010
0100
0100
0001
,
1000
0000
0001
0000
0000
0100
0000
0000
,
1000
0000
0001
0000
0000
0010
0000
0000
,
1000
0000
0010
0000
0000
0100
0000
0000
,
0010
1001
0000
0000
,
0000
0010
1000
0001
,
0010
0001
0010
1000
,
0000
1000
0001
0100
,
1000
0001
0010
1000
,
0000
1000
0100
1000
,
0001
0010
0100
0001
,
0000
2002
0000
0000
,
0000
0000
0000
0000
,
0000
0001
0000
1000
,
0000
0001
0000
0100
,
0000
1000
0000
0010
,
0000
0001
0010
0001
,
0000
1000
0000
0100
,
0000
1000
0000
0010
,
0000
0100
0010
0100
,
0000
2020
0000
0000
,
3030
0001
1000
0001
,
0000
0100
1000
0100
,
0000
0010
0001
0010
,
1000
0001
0000
0100
,
0000
1000
0001
1000
,
0000
0010
1000
0010
,
0000
0100
1000
0001
,
0010
0100
1000
0001
,
0000
0001
0000
1000
,
0000
0010
0000
0000
,
0000
1000
0000
0100
,
0000
1000
0000
0000
,
0000
0001
0000
0010
,
0000
0001
0000
0000
,
0000
0100
0000
0010
,
0000
2002
0000
0000
,
0000
3003
0001
0000
1000
0000
0010
0000
,
0000
0100
1000
0100
,
0000
0010
0001
0010
,
0000
0202
0303
2020
,
3030
0010
0010
1000
,
0000
0001
0010
0100
,
0000
1000
0001
0010
,
0100
0000
0001
0010
0001
0000
1000
0000
,
2002
0000
0000
0000
,
0000
0000
0000
0000
,
3003
0000
0000
0000
;

//--------------- dance-single - XLev450X-DSP ----------------
#NOTES:
     dance-single:
     XLev450X:
     Medium:
     10:
     0,0,0,0,0:
0000
0000
0000
0000
,
0000
0000
0000
0000
,
0000
0000
0000
0000
,
0000
0000
0000
0000
,
0000
0000
0000
0000
0001
0000
0000
1000
0000
0000
0010
0000
0001
0000
0100
0000
,
1000
0001
1000
0010
,
1000
0000
0010
1000
0010
0000
0001
0000
,
0010
0000
1000
0001
1000
0000
0010
0000
,
1000
0000
0000
0000
0001
0000
0000
0100
0000
0000
1000
0000
0001
0000
0010
0000
,
1000
0001
1000
0001
,
0010
0000
0001
0010
0001
0000
1000
0000
,
0010
0000
0202
0303
2200
3300
0220
0330
,
2002
3003
0001
0000
1000
0000
0010
0000
,
1000
0000
0000
0000
0001
0000
0000
0000
0010
0000
0000
0000
1000
0000
0000
0001
,
0000
0010
1000
0000
0001
0000
0010
0000
,
0100
0000
0000
0000
1000
0000
0000
0000
0001
0000
0000
0000
0100
0000
0000
0001
,
0000
1000
0010
0000
1000
0000
0010
0000
,
0001
0000
0000
0000
0010
0000
0000
0000
1000
0000
0000
0000
0001
0000
0000
0100
,
0000
1000
0001
0000
0010
0000
1000
0000
,
0010
2002
0000
0000
,
3003
0010
0100
1000
,
0001
0000
0010
0000
0001
0010
0001
0000
,
1000
0010
1000
0000
0100
0000
1000
0000
,
0001
0010
0001
1001
,
1000
0010
1000
0100
,
1000
0001
0010
1000
,
0010
1000
0010
0000
0100
0000
0001
0000
,
0010
2002
0000
0000
,
3003
0001
1000
0010
,
0001
0010
0001
0000
1000
0000
0010
0000
,
1000
0010
1000
0000
0001
0000
0010
0000
,
0100
0220
0000
0000
,
0330
0000
0000
0000
0001
0000
0000
0000
1000
0000
0000
0000
0010
0000
0000
1000
,
0000
0000
0001
0000
0010
0000
0000
0000
0100
0000
0000
0000
1000
0000
0000
0001
,
0000
0000
0100
0000
0010
0000
0000
0000
1000
0000
0000
0000
0001
0000
0000
0100
,
0000
0010
2002
0000
0000
0000
0000
0000
,
0000
3003
0001
0000
0000
1000
0000
0000
,
0010
0000
0100
0000
0000
0001
0000
0000
,
1000
0000
0010
0000
0000
1000
0000
0000
,
0001
0000
1000
0100
0001
0010
0100
1000
,
0100
0010
0001
1000
0000
0010
0000
0000
,
1000
0000
0001
0010
0000
0100
0000
0000
,
1000
0000
0010
1000
0000
0010
0000
0000
,
0100
0000
0001
0010
1000
0100
0001
0010
,
1000
0100
0010
0000
0001
0000
1000
0010
,
0000
1000
0000
0100
0001
0000
0010
0000
,
1000
0000
0001
0000
0010
0000
0001
0010
,
0001
0100
0000
1000
0000
0100
0000
0010
,
1000
0000
0001
0000
0010
0000
1000
0010
,
1000
0001
0000
0100
0000
0010
1000
0000
,
0001
0010
2002
0000
,
0000
0000
0000
0000
3003
0000
0001
0010
,
0001
1000
0001
1000
,
0000
0100
0000
0000
0010
0000
1000
0000
,
0010
0000
0001
0010
0001
0000
1000
0000
,
0000
0100
0000
0000
1000
0000
0010
0000
,
0000
1000
0001
0010
,
0000
1000
0000
0000
0100
0000
0010
0000
,
1000
0010
1000
0000
0010
0000
0100
0000
,
1000
0000
0001
0010
0001
0000
1000
0100
,
1000
0010
1000
0001
,
0100
0000
1000
0001
1000
0000
0010
0000
,
1000
0000
0010
1000
0010
0000
0001
0000
,
0010
0100
0010
0202
,
0303
1000
1000
0001
,
0100
0000
1000
0010
1000
0000
0001
0000
,
0010
0000
0100
0010
0100
0000
0010
0000
,
0001
0010
1000
2002
,
3003
0000
0000
0001
0000
1000
0000
0000
0010
0000
0000
0001
,
1000
0010
1000
0001
,
1000
0000
0000
0001
0000
1000
0000
0000
0100
0000
0000
0001
,
0010
2200
0000
0000
,
3300
0000
0000
0001
0000
0010
0000
0000
0100
0000
0000
0010
,
0001
0000
0000
0010
0000
0100
0000
0000
1000
0001
0000
0000
,
0010
0000
0000
0001
0000
1000
0000
0000
0010
0001
0000
0100
,
1000
0000
0000
0000
0100
0000
0022
0000
0000
0033
0000
0000
0000
0000
0000
0220
0000
0000
0330
0000
0000
0000
0000
0000
,
2200
3300
0001
0000
0001
0000
0010
0000
,
1000
0010
1000
0000
0010
0000
0100
0000
,
0001
0010
0001
0000
1000
0000
0010
0000
,
1000
0100
1000
0000
0001
0010
0001
0000
,
0010
1000
0001
0010
,
1000
0010
1000
0000
0001
0000
0010
0001
,
0100
0000
0100
0001
0010
1000
0100
0001
,
0010
1000
0220
0330
0010
1000
0001
0010
,
2002
0000
0000
0000
,
0000
0000
0000
0000
,
3003
0000
0000
0000
0000
0000
0000
0000
0000
0000
0000
0000
0000
0000
0000
0000
0000
0000
0000
0000
0000
0000
0000
0000
0000
0000
0000
0000
0000
0000
0000
0000
0000
0000
0000
0000
0000
0000
0000
0000
0000
0000
0000
0000
0000
0000
0000
0000
0000
0000
0000
0000
0000
0000
0000
0000
0000
0000
0000
0000
0000
0000
0000
0000
0000
0000
0000
0000
0000
0000
0000
0000
0000
0000
0000
0000
0000
0000
0000
0000
0000
0000
0000
0000
0000
0000
0000
0000
0000
0000
0000
0000
0000
0000
0000
0000
0000
0000
0000
0000
0000
0000
0000
0000
0000
0000
0000
0000
0000
0000
0000
0000
0000
0000
0000
0000
0000
0000
0000
0000
0000
0000
0000
0000
0000
0000
0000
0000
0000
0000
0000
0000
0000
0000
0000
0000
0000
0000
0000
0000
0000
0000
0000
0000
0000
0000
0000
0000
0000
0000
0000
0000
0000
0000
0000
0000
0000
0000
0000
0000
0000
0000
0000
0000
0000
0000
0000
0000
0000
0000
0000
0000
0000
0000
0000
0000
0000
0000
0000
0000
0000
0000
0000
0000
0000
0000
0000
0000
0000
0000
0000
0000
;

//--------------- dance-single - XLev450X-ESP ----------------
#NOTES:
     dance-single:
     XLev450X:
     Hard:
     16:
     0,0,0,0,0:
0000
0000
0000
0000
,
0000
0000
0000
0000
,
0000
0000
0000
0000
,
0000
0000
0000
0000
,
0000
0000
0000
0000
0001
0000
0000
1000
0000
0000
0001
0000
0010
0000
0100
0000
,
2000
0000
0000
3000
0001
0000
0010
0000
1000
0000
0010
0000
1000
0000
0001
0000
,
1000
0010
0100
1000
0001
0010
0100
0001
,
1000
0000
0010
0100
1000
0000
0001
0000
1000
0000
0010
0000
1000
0000
0001
0000
,
0010
0000
0001
0100
1000
0000
0000
0001
0000
0000
0100
0000
0010
0000
1000
0000
,
0200
0300
0001
1000
0010
0100
1000
0010
,
1000
0001
0010
0001
0010
1000
0001
0010
,
1000
0100
0001
0000
2020
0000
3030
0000
2002
0000
3003
0000
0220
0000
0330
0000
,
0022
0033
0100
0010
0100
0001
0100
0010
,
0100
0000
1000
0000
0100
0000
0010
0000
0100
0000
0001
0000
0100
0000
0000
1000
,
0000
0010
1000
0001
0010
0100
0010
1000
,
0010
0000
0100
0000
0010
0000
0001
0000
0010
0000
0100
0000
1000
0000
0000
0100
,
0000
0010
0001
1000
0010
1000
0010
1000
,
0001
0000
0010
0000
0100
0000
1000
0000
0001
0000
0010
0000
0100
0000
0000
0010
,
0000
1000
0010
1000
0001
0010
0001
1000
,
0010
1000
0022
0033
2200
3300
2020
3030
,
0220
0000
0330
0000
0001
0000
0000
0100
0000
0000
1000
0000
0001
0000
0000
0010
,
0000
0000
0100
0000
0001
0000
1000
0000
0001
0000
1000
0100
0010
0000
0001
0000
,
1000
0000
0100
0010
0001
0000
0000
0100
0000
0000
0010
0000
0001
0000
0000
1000
,
0000
0000
0100
0000
1000
0000
0001
0000
0100
0000
1000
0000
0010
0001
0010
0000
,
0001
1000
0001
0000
0010
0000
0000
1000
0000
0000
0001
0000
1000
0000
0000
0010
,
0000
0000
0100
0000
0001
0000
1000
0000
0010
0000
1000
0000
0001
0000
0000
1000
,
0000
0000
0010
0001
0010
0000
0000
0100
0000
0000
1000
0000
0001
0000
0000
0010
,
0000
0000
0000
0100
0000
0000
0010
0000
0100
0000
1000
0000
0100
0000
0010
0000
0001
0000
0010
0000
0100
0000
1000
0000
,
0200
0000
0300
0000
0010
0000
1000
0000
0001
0000
0010
0001
0010
0000
0000
0100
,
0000
0000
1000
0000
0100
0000
1000
0000
0001
0000
0100
0001
0100
0000
0000
0010
,
0000
0000
1000
0000
0001
0000
1000
0000
0001
0000
0100
0010
0100
0000
0000
0010
,
0000
0100
2002
0000
0000
0000
0000
0000
,
3003
0000
0000
0000
0001
0000
1000
0000
0010
0000
0001
0000
0100
0000
0000
0100
,
0000
0000
0100
0000
0001
0000
1000
0000
0010
0000
0100
0000
0010
0000
0000
0010
,
0000
0000
0010
0000
0001
0000
1000
0000
0001
0000
0010
0000
1000
0000
0000
1000
,
0000
1000
0220
0000
0000
0000
0000
0000
,
0330
0000
1000
0000
0000
0001
0000
0000
,
0010
0000
0100
0000
0000
1000
0000
0000
,
0001
0000
1000
0000
0000
0010
0000
0000
,
0010
0000
0000
0000
1000
0100
0010
0001
0010
0100
1000
0100
0010
0001
0010
0100
,
1000
0100
0010
0001
0020
0000
0001
0000
0000
0000
0001
0000
0000
0000
0000
0000
,
0031
0000
2000
0100
0000
0100
0000
0000
,
3100
0000
0002
0010
0000
0010
0000
0000
,
0013
0000
0000
0001
0010
0100
1000
0100
0010
0001
0010
0100
,
1000
0000
0100
0000
0010
0000
0001
0000
0000
0000
0000
0000
0110
0000
0000
0000
0000
0000
1000
0000
0000
0100
0000
0000
,
0001
0100
0000
0100
0010
0001
0010
1000
,
0010
0000
0101
0000
1001
0000
0001
0010
,
0001
0010
0000
1000
0010
1000
0001
0100
,
0001
0000
0110
0000
1001
0000
1000
0100
,
1000
0001
0000
0010
1000
0010
1000
0001
,
0010
0100
0020
0000
,
0000
0000
0000
0000
0000
0000
0001
0001
,
0031
0001
1000
0010
,
0001
0010
0000
1000
0010
0000
1000
0000
,
0001
0010
0001
0000
1000
0000
0100
0000
,
0001
1000
0000
0010
1000
0000
0001
0000
,
0100
0000
1000
0000
0001
0100
0001
0000
,
0010
0001
0000
1000
0100
1000
0100
0010
,
0001
0100
0001
0000
1000
0010
1000
0000
,
0100
0000
1000
0000
0001
0010
0100
1000
0100
0010
0001
0010
0100
1000
0100
0010
,
0001
0010
0100
1000
0001
0000
0100
0000
0010
0000
0100
0000
0101
0000
0000
0000
,
1001
0000
1000
0100
0001
0100
0110
0000
,
0011
0000
0001
0010
1000
0010
0011
0000
,
1001
0000
1000
0010
0001
0010
0100
0010
,
0100
0010
0001
1000
0010
1000
0010
0000
,
0101
0000
0010
1000
0001
1000
0010
0000
,
1010
0000
0001
0010
0001
0010
0001
0000
,
0011
0000
0000
0000
0001
0010
0001
0000
1000
0100
1000
0000
0100
0010
0100
0000
,
1000
0000
0000
0001
0000
0000
1000
0000
0000
0000
0000
0000
0001
0000
0000
0000
0000
0000
0000
0000
0100
0000
0000
0000
1000
0000
0000
0000
0000
0000
0000
0000
0100
0000
0000
0000
0001
0000
0000
0000
0000
0000
0000
0000
0010
0000
0000
0000
,
1000
0000
0001
0100
0000
0010
0001
0000
0100
1000
0000
0100
,
0010
0000
0010
0001
0000
1000
0001
0010
0001
1000
0000
0100
,
0010
0000
0001
1000
0000
0001
1000
0000
0001
1000
0000
0010
,
1000
0000
0010
1000
0000
0100
0001
0000
0100
0010
0000
0010
,
1000
0000
0100
0001
0000
0001
0010
0000
0001
1000
0000
0100
,
0010
0000
0010
0001
1000
0010
1000
0001
0100
0010
0100
1000
,
0001
0000
0010
0000
0100
0000
2002
0000
0000
3003
0000
0000
0000
0000
0000
2002
0000
0000
3003
0000
0000
0000
0000
0000
,
2002
0000
0000
3003
0000
0000
0100
0000
0000
0010
0000
0000
0100
0000
0000
0010
0000
0000
0100
0000
0000
0010
0000
0000
,
1000
0001
1000
0000
0001
0000
1000
0000
0001
0000
1000
0000
0001
0000
1000
0000
,
0010
1000
0010
0000
1000
0000
0010
0000
0100
0001
0100
0000
0001
0000
1000
0000
,
0010
0001
0010
0000
0001
0000
0010
0000
0100
1000
0100
0000
0010
0000
0100
0000
,
0001
0000
0001
0010
0001
0010
1000
0010
,
1000
0100
1000
0100
1000
0010
0100
0001
,
2000
3000
0001
0100
1000
0100
0010
0100
,
1000
0100
0200
0300
1000
0100
0010
0001
,
2002
0000
0000
0000
,
0000
0000
0000
0000
,
3003
0000
0000
0000
;
