#TITLE:SEXY PLANET (KSM Mix);
#ARTIST:Crystal Aliens (mixed by TAYEUS);
#MUSIC:SEXY PLANET (KSM Mix).ogg;
#BANNER:SEXY PLANET (KSM Mix).png;
#BACKGROUND:SEXY PLANET (KSM Mix)-bg.png;
#SAMPLESTART:54.293;
#SAMPLELENGTH:15;
#OFFSET:-0.193;
#BPMS:0=180.221;
#DISPLAYBPM:180;
#BGSTAGE:27;

//--------------- dance-single - XLev450X ----------------
#NOTES:
     dance-single:
     XLev450X:
     Challenge:
     15:
     0.509,0.461,0.441,0,0:
0000
0000
0000
0000
,
0000
0000
0000
0000
,
0000
0000
0000
0000
0000
0000
0000
0000
0010
0001
0010
0000
0100
0001
0010
0100
,
1000
0000
0010
0000
0100
0010
1000
0001
0100
0000
1000
0000
0100
0000
1000
0000
,
0100
1000
0100
0000
0000
0011
0000
0000
,
0010
0001
0000
0000
0000
0010
0100
0001
,
0010
0000
1000
0000
0000
0000
0000
0000
0001
0000
0001
0000
0001
1000
0010
1000
,
0100
0000
1000
0000
0100
0000
0000
0000
0100
1000
0001
1000
0100
1000
0100
0010
,
0001
0010
1000
0000
1010
0000
0001
0000
,
0110
1000
0101
0001
,
0100
1000
0000
1001
,
0110
0000
0101
0000
0100
0010
0001
1000
,
0100
0000
0000
0010
0000
0000
0100
0000
0011
0000
0000
0000
1000
0000
0000
0000
,
1100
0001
0110
1000
,
0100
0001
0000
0110
,
1001
0000
1010
0000
0010
1000
0001
1000
,
0100
1000
0010
0100
1010
0000
0000
0000
,
0011
0110
1100
0110
,
0101
0110
1000
0011
,
0010
1100
0100
0101
,
0100
1000
0100
0010
0001
0000
0000
0000
1100
0000
0000
0000
0110
0000
0000
0000
,
1010
0011
0101
1100
,
0011
0110
0001
1001
,
0001
1100
0010
0110
,
1100
0101
1000
0101
,
1000
0011
0001
1010
,
0001
1000
0010
1000
0001
0010
0001
0000
,
0100
1000
0100
0000
0010
0000
0010
0000
,
1000
0001
0100
1000
0001
0010
0000
0000
,
0001
0100
0000
0000
1000
0010
0001
0000
,
1000
0000
0000
0000
0011
0000
0000
0010
0100
0001
1000
0000
0100
0000
0000
0000
,
0001
0100
0001
0000
1000
0100
0010
0000
,
0110
0000
0000
0000
1000
0100
0001
0000
,
1000
0010
0001
0000
0000
1000
0010
0100
,
1000
0001
0000
0000
1010
0010
0010
0010
,
0000
0100
0010
0000
0020
0000
0000
0000
,
0000
0000
0000
0030
0000
0000
0000
0000
1001
0000
0010
0000
1000
0000
0000
0000
,
0001
0100
1000
0000
0000
1000
0010
0100
,
1000
0001
0000
0000
0100
0000
0101
0000
,
0000
1000
0011
0000
1000
0100
1000
0001
,
0010
0001
0110
0000
0000
1000
1000
1000
,
1000
0000
0000
0001
0001
0001
0001
0000
,
0100
1000
0010
0001
,
0100
0010
0000
0000
0010
0000
0110
0000
,
1001
0000
0101
1010
,
0100
0001
0100
0100
0100
0000
1000
0100
,
0010
0000
0001
0000
0100
0010
1000
0001
,
0010
1000
0001
0000
0100
0000
0110
0000
,
1001
0000
0000
0000
1010
0000
0001
0100
,
0001
0000
0100
0000
0010
0000
1000
0000
0010
0000
0001
0000
0100
0000
1000
0100
,
0010
0001
0010
1000
0010
0000
0001
0000
0110
0000
0000
0000
1000
0000
0000
0000
,
1001
0001
1100
0010
,
1010
1000
1001
0001
,
0101
0000
0010
0000
0100
0000
0010
1000
,
0100
1000
0010
0100
1000
0100
0010
0000
0000
0000
0000
0000
0010
0000
0001
1000
,
0100
1000
0010
0100
0001
1000
0010
0000
0000
0000
0000
0000
0001
0000
0010
0100
,
1000
0001
0010
0100
1000
0010
1000
0000
0001
0000
0000
0000
0001
0000
0100
0000
,
0001
0100
0010
0100
0001
1000
0010
0100
0010
0100
0001
0010
0001
0010
0001
1000
,
0010
0100
0010
0100
0001
1000
0010
0100
0001
0010
0100
0010
0001
1000
0001
0100
,
0002
0000
0000
0000
,
0000
0000
0000
0000
,
0003
0000
0000
0000
;
