#TITLE:SEVEN ~漆戒~;
#ARTIST:NAOKI feat. 小坂りゆ;
#TITLETRANSLIT:SEVEN ~Shikkai~;
#ARTISTTRANSLIT:NAOKI feat. Riyu Kosaka;
#MUSIC:SEVEN ~Shikkai~.ogg;
#BANNER:SEVEN ~Shikkai~.png;
#BACKGROUND:SEVEN ~Shikkai~-bg.png;
#CDTITLE:./CDTitles/SEVEN's CODE.png;
#SAMPLESTART:75.054;
#SAMPLELENGTH:15;
#OFFSET:-0.344;
#BPMS:0=155;
#BGSTAGE:27;

//--------------- dance-single - XLev450X-bSP ----------------
#NOTES:
     dance-single:
     XLev450X:
     Beginner:
     3:
     0,0,0,0,0:
0000
0000
0000
0000
,
0000
0000
0000
0000
,
0000
0000
0000
0000
,
0000
0000
0000
0000
,
0000
0001
0000
1000
,
0000
0001
0000
0000
,
0000
1000
0000
0001
,
0000
1000
0000
0000
,
0000
0010
0100
0000
,
0000
1000
0001
0000
,
0000
0100
1000
0000
,
0000
0010
0001
0000
,
0000
0101
0000
0000
,
0000
1010
0000
0000
,
0000
0110
0000
0000
,
0000
1010
0000
0000
,
0000
0001
1000
0001
,
0000
0010
1000
0010
,
0000
1000
0000
0001
,
0000
1000
0000
0000
,
0000
0100
1000
0100
,
0000
0010
0001
0010
,
0000
0001
0000
1000
,
0000
0010
0000
0000
,
0000
1000
0000
0100
,
0000
1000
0000
0010
,
0000
0001
0000
0010
,
0000
0100
0000
1000
,
0000
0001
0000
0010
,
0000
0100
0000
1000
,
0000
0001
0000
1000
,
0000
0010
0100
0010
,
0000
1001
0000
0000
,
0000
0000
0000
0000
,
0000
0000
0000
0000
,
0000
0000
0000
0000
,
0000
0010
0000
0010
,
0000
0010
0000
0000
,
0000
0100
0000
1000
,
0000
0100
0000
0000
,
0000
1001
0000
0000
,
0000
0000
0000
0000
,
0000
0010
0000
0000
,
0000
0000
0000
0000
,
0000
0100
0000
0000
,
0000
0000
0000
0000
,
0000
1000
0000
0000
,
0000
0000
0000
0000
,
0000
0001
0001
0001
,
0000
1000
0000
0010
,
0000
0100
0100
0100
,
0000
1000
0000
0001
,
0000
1000
0010
1000
,
0000
0001
0010
0001
,
0000
0100
0000
0010
,
0000
1001
0000
0000
,
0000
0001
0000
1000
,
0000
0010
0000
0000
,
0000
1000
0000
0001
,
0000
1000
0000
0000
,
0000
0010
0000
0000
,
0000
1000
0000
0000
,
0000
0001
0000
0000
,
0000
0100
0000
0000
,
0000
0010
0010
0010
,
0000
1000
0001
1000
,
0000
0100
1000
0100
,
0000
0010
0001
0010
,
0000
1000
0001
0100
,
0000
0010
1000
0010
,
0000
0100
0010
0100
,
0000
0001
0010
0001
,
0000
1001
0000
0000
,
0000
0000
0000
0000
,
0000
0000
0000
0000
,
0000
0010
0100
0010
,
0100
1001
0000
0000
;

//--------------- dance-single - XLev450X-BSP ----------------
#NOTES:
     dance-single:
     XLev450X:
     Easy:
     6:
     0,0,0,0,0:
0000
0000
0000
0000
,
0000
0000
0000
0000
,
0000
0000
0000
0000
,
0000
0000
0000
0000
,
0000
0001
1000
0010
,
1000
0100
0001
0010
,
0000
1000
0100
1000
,
0010
1000
0100
0101
,
0000
1000
0010
1000
,
0100
1000
0001
0100
,
1000
0010
1000
0001
,
0010
0000
0001
0010
0001
0000
1000
0000
,
0000
1000
0100
1000
,
0010
0100
1000
0010
,
0000
1000
0100
1000
,
0010
0000
1000
0001
1000
0000
0010
0000
,
0000
1000
0001
0100
,
1000
0000
0010
0001
0010
0000
1000
0000
,
0000
1000
0100
0010
,
1000
0000
1000
0100
1000
0000
0010
0000
,
0000
0100
1000
0001
,
0100
0000
1000
0001
1000
0000
0010
0000
,
0000
1000
0001
0100
,
1000
0001
0100
0010
,
0000
0010
0010
1000
,
1000
0001
1000
0100
,
1000
0001
0010
1000
,
0100
0000
1000
0000
0001
0000
0100
0001
,
0100
0001
1000
0010
,
1000
0100
1000
0001
,
0000
0010
1000
0001
,
0100
0010
1000
0010
,
0100
2002
0000
0000
,
0000
0000
0000
0000
,
0000
0000
0000
0000
,
0000
0000
3003
0000
,
0000
0001
0000
1000
,
0000
0001
0000
0000
,
0000
0010
0000
1000
,
0000
0100
0000
0000
,
0000
0001
0000
0001
,
0000
1000
0000
0000
,
0000
1000
0000
0001
,
0000
0100
0000
0000
,
0000
0010
0000
1000
,
0000
0001
0000
0000
,
0000
0100
0000
1000
,
0000
0020
0000
0000
,
0000
0030
0001
0000
0001
0000
1000
0000
,
1000
0101
0000
0010
,
0010
1000
0100
1000
,
0100
1100
0000
0010
,
1000
0001
1000
0100
,
0010
1010
0000
0010
,
1000
0001
0100
0010
,
1000
2002
0000
0000
,
0000
3003
0001
0000
1000
0000
0100
0000
,
1000
0001
0010
1000
,
0000
1000
0001
0100
,
1000
0010
1000
0100
,
0000
0010
0010
1000
,
0000
0100
0100
0001
,
0000
1000
0001
1000
,
0000
0010
1000
0001
,
0000
0001
0000
1000
,
0000
0100
1000
0001
,
0000
0010
0000
1000
,
0000
0010
1000
0100
,
0000
0010
0000
1000
,
0000
0001
0010
0100
,
0000
1000
0001
0100
,
0010
0000
1000
0010
1000
0000
0001
0000
,
1000
0120
0000
0000
,
0000
0000
0000
0000
,
0000
0030
0001
0000
1000
0000
0010
0000
,
0000
0000
1000
0000
0100
0000
0001
0010
,
0001
2002
0000
0000
,
0000
0000
0000
0000
,
0000
0000
0000
0000
,
0000
0000
0000
0000
,
0000
3003
0000
0000
;

//--------------- dance-single - XLev450X-DSP ----------------
#NOTES:
     dance-single:
     XLev450X:
     Medium:
     9:
     0,0,0,0,0:
0000
0000
0000
0000
,
0000
0000
0000
0000
,
0000
0000
0000
0000
,
0000
0000
0000
0000
,
0000
0001
1000
0001
,
1000
0000
0010
1000
0010
0000
0001
0010
,
0001
1000
0100
1000
,
0001
0000
0010
0100
1000
0001
0010
0000
,
0000
1000
0001
1000
,
0100
0000
1000
0010
1000
0000
0001
0000
,
0100
0000
1000
0000
0001
0000
0100
0001
,
0100
0010
1000
1001
,
0000
1000
0001
1000
,
0100
0000
0010
1000
0010
0000
0001
0010
,
0001
0100
1000
0001
,
0100
0000
1000
0100
0001
0000
0010
0000
,
0000
1000
0001
1000
,
0010
0000
1000
0010
1000
0000
0001
0000
,
0000
0100
1000
0001
,
0010
0000
0010
0001
0010
0000
1000
0000
,
0010
0000
0100
1000
0100
0000
0010
0100
,
0010
0000
0001
0010
0001
0000
1001
0000
,
0000
1000
0001
0100
,
1000
0000
0010
0100
0001
1000
0001
0000
,
0000
0001
1000
0100
,
1000
0000
0010
1000
0010
0000
0001
0000
,
0100
1000
0001
1000
,
0010
1000
0001
0101
,
0000
1000
0010
1000
,
0100
0000
1000
0100
1000
0000
0010
0000
,
0100
0001
1000
0001
,
0010
0000
0000
0000
0001
0000
0000
0010
0000
0000
0001
0000
0010
0000
0000
0000
,
0100
2002
0000
0000
,
0000
0000
0000
0000
,
0000
3003
0000
0000
,
0000
0000
0000
0000
,
0000
0010
1000
0001
,
0000
1000
0100
0001
,
0000
1000
0100
1000
,
0001
0100
1000
0001
,
0000
0010
1000
0001
,
1000
0101
0000
0000
,
0000
1000
0010
1000
,
0100
0010
0000
0000
,
0000
1000
0010
1000
,
0100
1100
0000
0000
,
0000
0010
1000
0001
,
0010
2002
0000
0000
,
0000
3003
0001
0000
1000
0000
0010
0000
,
0100
0000
0001
0010
0001
0000
1000
0100
,
1000
0010
1000
0100
,
0001
0010
0000
1000
,
0001
0000
1000
0010
1000
0000
0100
1000
,
0100
0000
0001
0010
0001
0000
0100
0000
,
1000
0010
0100
1000
,
0001
0000
0010
1000
0001
0000
1001
0000
,
0000
0010
0010
1000
,
0001
1000
0001
0100
,
0000
0010
1000
0010
,
1000
0001
0100
0010
,
0000
0001
1000
0001
,
1000
0100
0001
0010
,
0000
1000
0010
0100
,
1000
0001
0010
1000
,
0000
0001
0001
1000
,
0010
0000
1000
0000
0010
0000
0001
0010
,
0001
1000
0100
1000
,
0010
0000
0100
0000
1000
0000
0001
1000
,
0010
1000
0100
1000
,
0001
0010
1000
0101
,
0000
1000
0010
0100
,
1000
0000
0010
1000
0010
0000
0001
0010
,
0001
1002
0000
0000
,
0000
0000
0000
0000
,
0003
0010
1000
0010
,
0001
0000
1000
0010
1000
0000
0001
0000
,
0010
2002
0000
0000
,
0000
0000
0000
0000
,
0000
0000
0000
0000
,
0000
0000
0000
0000
,
0000
3003
0000
0000
;

//--------------- dance-single - XLev450X-ESP ----------------
#NOTES:
     dance-single:
     XLev450X:
     Hard:
     12:
     0,0,0,0,0:
0000
0000
0000
0000
,
0000
0000
0000
0000
,
0000
0000
0000
0000
,
0000
0000
0000
0000
,
0000
0000
0010
0001
0010
0000
1000
0000
0001
0000
0100
0000
0010
0000
1000
0000
,
0001
0000
0001
0010
1000
0010
0100
1000
,
0010
0000
0001
0010
0001
0000
1000
0010
,
1000
0000
0100
0001
1000
0010
0100
0001
,
1000
0001
1000
0010
,
1000
0000
0001
0010
0001
0000
1000
0100
,
1000
0000
0010
0000
0100
0000
1000
0001
,
0100
1000
0001
0010
1000
0001
0010
0000
,
0000
0000
1000
0000
0001
0000
1000
0010
,
1000
0100
0001
1000
0010
0100
0001
0000
,
0000
0001
1000
0010
,
1000
0000
0010
0001
0010
1000
0020
0000
,
0030
0000
0000
0000
0001
0000
0000
1000
0000
0000
0010
0000
0100
0000
0000
1000
,
0000
0000
0001
0000
0010
0000
0000
0100
0000
0000
0002
0000
0010
0000
0000
0000
,
0013
0000
0001
0010
0001
0000
0000
1000
0000
0000
0010
0000
0100
0000
0000
1000
,
0000
0000
0001
0000
0100
0000
0000
0010
0000
0000
2000
0000
0100
0000
0000
0000
,
3100
0000
1000
0010
1000
0000
0000
0100
0000
0000
0001
0000
1000
0000
0000
0010
,
0000
0000
0100
0000
1000
0000
0000
0001
0000
0000
0020
0000
0100
0000
0000
0000
,
0130
0000
1000
0010
1000
0000
0000
0000
0101
0000
0000
0000
1010
0000
0000
0000
,
0010
0000
0000
0000
1000
0000
0000
0001
0000
0000
0010
0000
0200
0000
0000
0000
,
1300
0000
0000
0000
0001
0000
0000
1000
0000
0000
0010
0000
0100
0000
0000
1000
,
0000
0000
0001
0000
0010
0000
0000
0100
0000
0000
0001
0000
2000
0000
0000
0000
,
3100
0000
1000
0100
0010
0000
0000
1000
0000
0000
0001
0000
0010
0000
0000
1000
,
0000
0000
0100
0000
0001
0000
0000
1000
0000
0000
0010
0000
0200
0000
0000
0000
,
0310
0000
0001
0010
0001
0000
0000
1000
0000
0000
0010
0000
0100
0000
0000
1000
,
0000
0000
0001
0000
0100
0000
0000
0010
0000
0000
1000
0000
0002
0000
0000
0000
,
0013
0000
1000
0010
1000
0000
0000
0000
0001
0000
0000
0000
0200
0000
0000
0000
,
0310
0000
1000
0100
0001
0000
0000
0001
0000
0000
1000
0000
0010
0000
0000
0000
,
0100
2002
0000
0000
,
0000
0000
0000
0000
,
0000
0000
0000
0000
,
0000
0000
0000
0000
,
3003
0001
1000
0010
,
0100
1000
0001
0010
,
0000
1000
0100
1000
,
0100
0000
0001
0010
0001
0000
1000
0100
,
1000
0000
0000
0000
0001
0000
0000
1000
0000
0000
0010
0000
0100
0000
0000
1000
,
0000
0000
0001
0000
0020
0000
0000
0000
0000
0030
0000
0000
1010
0000
0000
0000
,
0101
0000
0000
0000
0010
0000
0000
1000
0000
0000
0010
0000
0100
0000
0000
1000
,
0000
0000
0001
0000
0020
0000
0000
0000
0000
0030
0000
0000
1100
0000
0000
0000
,
0011
0000
0000
0000
1000
0000
0000
0001
0000
0000
0100
0000
1000
0000
0000
0010
,
0000
0100
0002
0000
0003
0000
1001
0000
,
0110
0000
0000
0000
1000
0000
0000
0100
0000
0000
1000
0000
0001
0000
0000
0010
,
0000
0100
0020
0000
0000
0000
0000
0000
,
0030
0000
0001
0000
1000
0000
0100
1000
,
0100
0000
0010
0001
0010
0000
0110
0000
,
0011
0000
0010
0000
1000
0000
0100
0001
,
1000
0010
1000
0000
0010
0000
1010
0000
,
0101
0000
1000
0010
1000
0000
0100
1000
,
0100
0000
0001
0010
0001
0000
0010
0000
,
1000
0000
0100
1000
0001
1000
0010
0100
,
0001
1000
0010
0000
0100
0000
1000
0001
,
0010
0000
0000
0000
0001
0000
0000
1000
0000
0000
0010
0000
0100
0000
0000
1000
,
0000
0000
0001
0000
0010
0000
0000
0100
0000
0000
0001
0000
1000
0000
0000
0000
,
0000
0000
0000
0000
0001
0000
0000
1000
0000
0000
0100
0000
0010
0000
0000
1000
,
0000
0000
0001
0000
0010
0000
0000
0100
0000
0000
1000
0000
0010
0000
0000
0000
,
0000
0000
0000
0000
0001
0000
0000
1000
0000
0000
0010
0000
0100
0000
0000
1000
,
0000
0000
0001
0000
0010
0000
0000
0100
0000
0000
1000
0000
0010
0000
0000
0000
,
0000
0000
0001
0010
0001
0000
0000
1000
0000
0000
0010
0000
0100
0000
0000
1000
,
0000
0000
0001
0000
0010
0000
0000
0100
0000
0000
1000
0000
0010
0000
0000
0000
,
0000
0000
0001
0000
1000
0000
0010
1000
,
0010
0000
0001
0010
0001
0000
1000
0000
,
0100
0000
0010
1000
0001
0000
1000
0000
0010
0000
1000
0000
0001
0000
0000
0000
,
1000
0000
0100
1000
0001
0010
1000
0000
,
0000
0000
1000
0000
0100
0000
1000
0001
,
0010
1000
0100
0011
,
0000
0100
1000
0001
,
0010
0000
1000
0001
1000
0000
0010
1000
,
0010
0001
1002
0000
0000
0000
0000
0000
,
0000
0000
0000
0000
,
0003
0000
0000
0000
0001
0000
0000
1000
0000
0000
0010
0000
0100
0000
0000
0001
,
0000
0000
1000
0000
0001
0000
0000
1000
0000
0000
0010
0000
0100
0000
0000
0000
,
0011
0000
2002
0000
0000
0000
0000
0000
,
0000
0000
0000
0000
,
0000
0000
0000
0000
,
0000
0000
0000
0000
,
0000
3003
0000
0000
;
