#TITLE:SCREW \\/\\/ owo \\/\\/ SCREW;
#ARTIST:かめりあ;
#TITLETRANSLIT:SCREW owo SCREW;
#ARTISTTRANSLIT:Camellia;
#GENRE:TWERKCORE \\/\\/ uwu \\/\\/ BEATJUGGLE;
#MUSIC:SCREW owo SCREW.ogg;
#BANNER:SCREW owo SCREW.png;
#BACKGROUND:SCREW owo SCREW-bg.png;
#CDTITLE:./CDTitles/bm IIDX 27 HEROIC VERSE.png;
#SAMPLESTART:79.982;
#SAMPLELENGTH:15;
#BPMS:0=114;
#BGSTAGE:16;

//--------------- dance-single - XLev450X-bSP ----------------
#NOTES:
     dance-single:
     XLev450X:
     Beginner:
     3:
     0,0,0,0,0:
0000
0000
0000
0000
,
0000
0000
0000
0000
,
0000
0000
0000
0000
,
0000
0000
0000
0000
,
0000
0000
0000
0000
,
1000
1000
1000
0000
,
0001
0001
0001
0000
,
1000
0001
1000
0000
,
0010
0100
0010
0000
,
0001
0001
1000
0000
,
1000
1000
0001
0000
,
0100
0100
0010
0000
,
0010
0010
0100
0000
,
0001
1000
0010
0000
,
1000
0100
0001
0000
,
0001
1000
0001
0000
,
0010
0100
0010
0000
,
1001
0000
0000
0000
,
1000
0001
1000
0000
,
0110
0000
0000
0000
,
0001
1000
0001
0000
,
1000
1000
0010
0100
,
0001
0001
1000
0010
,
0100
0000
0001
0010
,
1000
0001
1000
0000
,
0001
1000
0001
0000
,
1000
0001
1000
0000
,
1000
0001
1000
0000
,
0001
1000
0001
0000
,
0010
0010
0100
0000
,
1000
0100
1000
0000
,
0001
0010
0001
0000
,
0110
0000
0000
0000
,
0001
0001
0001
0000
,
1000
1000
1000
0000
,
0001
1000
0001
0000
,
0100
0010
0100
0000
,
1001
0000
0000
0000
,
0001
1000
0001
0000
,
1000
0001
1000
0000
,
0010
1000
0010
0000
,
0100
0001
0100
0000
,
0001
0001
0001
0000
,
0010
0010
0010
0000
,
1000
0100
1000
0000
,
0100
0100
0100
0000
,
0010
1000
0001
1000
,
0001
0000
0000
0000
,
0010
1000
0100
0001
,
0010
0000
0000
0000
,
1000
0010
0100
0000
,
0001
0010
1000
0000
,
1001
0000
0000
0000
,
1001
0000
0000
0000
,
1000
0001
1000
0000
,
0010
1000
0010
0000
,
1001
0000
0000
0000
;

//--------------- dance-single - XLev450X-BSP ----------------
#NOTES:
     dance-single:
     XLev450X:
     Easy:
     6:
     0,0,0,0,0:
0000
0000
0000
0000
,
0000
0000
0000
0000
,
0000
0000
0000
0000
,
0000
0000
0000
0000
,
0000
0000
0000
0000
,
0001
0000
0000
1000
0000
0000
0001
0000
0100
0000
0000
0010
0000
0000
0100
0000
,
1000
0000
0000
0100
0000
0000
1000
0000
0001
0000
0000
0010
0000
0000
0001
0000
,
0010
1000
0010
0100
,
0001
0001
1000
0000
1001
0000
0000
0000
,
0001
1000
0010
0000
,
1000
0100
0001
1000
,
0100
0010
1000
0000
,
0010
1000
0100
1001
,
0001
1000
0001
0000
,
0100
1000
0010
0000
,
1000
0100
0001
1000
,
0001
0001
1000
0010
,
1001
0000
1001
0000
,
0001
1000
0010
0100
,
0110
0000
0110
0000
,
0001
1000
0100
0010
,
0001
0001
1000
0000
,
0010
1000
0100
0000
,
0001
0000
1000
0000
0010
1000
0010
0000
,
0100
0000
0001
0000
0010
0001
0000
0000
,
1000
0001
0100
0000
,
0010
0010
1000
0000
,
0001
1000
0001
0000
,
1000
1000
0100
0010
,
0001
0010
0001
0000
1000
0100
1000
0000
,
0010
0100
0001
1000
,
0001
0010
0001
0000
1000
0100
1000
0000
,
0001
0000
0000
0100
0000
0000
0010
0000
0000
1000
0000
0000
0000
0001
0000
0000
,
1000
0000
0000
0001
0000
0000
1000
0000
0010
0000
0000
0100
0000
0000
0010
0000
,
0001
0000
0000
0010
0000
0000
0001
0000
1000
0000
0000
0100
0000
0000
1000
0000
,
0001
1000
0010
0100
,
0001
0010
1000
0001
0100
1000
0001
0000
,
1001
0000
0000
0000
,
0010
1000
0010
0100
0001
1000
0001
0000
,
0001
1000
0001
1000
0010
1000
0010
0000
,
0001
0000
1000
0000
0010
0100
0010
0000
,
0001
1000
0001
0100
0010
1000
1001
0000
,
0001
0000
1000
0010
,
0100
0000
0001
1000
,
0001
1000
0010
0100
,
0001
0010
0001
0000
0000
0000
0000
0000
,
1000
0000
0001
0000
0100
1000
0001
0000
,
0010
1000
0010
0000
,
0001
0000
0100
0000
1000
0001
1000
0000
,
0010
1000
0100
0000
,
0001
0000
1000
0000
0001
1000
0001
0000
,
0010
0000
1000
0000
0010
0100
0010
0000
,
0000
1001
0000
0000
,
1001
0000
0000
0000
,
0010
1000
0001
0000
,
0100
0001
1000
0000
,
1001
0000
0000
0000
;

//--------------- dance-single - XLev450X-DSP ----------------
#NOTES:
     dance-single:
     XLev450X:
     Medium:
     10:
     0,0,0,0,0:
0000
0000
0000
0000
,
0000
0000
0000
0000
,
0000
0000
0000
0000
,
0000
0000
0000
0000
,
0110
0000
0000
0110
0000
0000
0110
0000
0000
0110
0000
0000
0000
0110
0000
0000
,
0001
0000
0000
1000
0000
0000
0001
0000
0100
0000
0000
0010
0000
0000
1000
0000
,
0010
0000
0000
0001
0000
0000
1000
0000
0001
0000
0000
0100
0000
0000
0010
0000
,
1000
0010
1000
0000
0001
0010
0001
0000
,
1000
0001
1000
0000
0010
1000
0010
0000
1001
0000
0000
0000
0000
0000
0000
0000
,
0001
1000
0001
0000
0010
0010
1000
0100
,
0001
1000
0001
0000
0100
1000
0001
1000
,
0001
0000
0010
0000
1000
0010
1000
0000
,
0100
0001
1000
0000
0001
1000
1001
0000
,
0001
0000
1000
0000
0010
0000
0000
0000
1000
0000
0010
0000
0000
0100
0000
0000
,
0001
0000
1000
0000
0001
0000
0000
0000
0100
0000
0000
1000
0000
0000
0001
0000
,
0100
0000
1000
0000
0001
1000
0001
0000
,
1000
0010
1000
0010
0100
0001
1000
0000
,
1001
0000
1001
0000
,
0001
1000
0001
1000
0010
1000
0100
0010
,
1001
0000
1001
0000
,
0001
1000
0010
1000
0010
0100
1000
0000
,
0001
0000
0000
1000
0001
0000
0100
0000
0000
0000
1000
0000
0001
0000
0100
0000
,
0010
0000
0000
1000
0010
0000
0100
0000
0000
0000
0001
0000
1000
0000
0001
0000
,
1000
0000
0001
1000
0010
1000
0010
0000
,
0001
1000
0100
0001
0010
1001
0000
0000
,
0001
0000
0000
0000
1000
0000
0000
0001
0000
0000
0100
0000
0010
0000
0000
0000
,
1000
0000
0000
0000
0001
0000
0000
0100
0000
0000
0010
0000
1000
0000
0000
0000
,
0010
0000
0000
0000
0100
0000
0000
0001
0000
0000
1000
0000
0001
0000
0000
0000
,
0100
0000
0001
0000
1000
0000
0000
0010
0000
0000
0100
0000
1000
0000
0000
0000
,
0001
0010
1000
0000
0001
0000
1000
0000
,
0100
0000
0001
0000
1000
0000
0000
0001
0000
0000
0100
0000
0010
0000
0000
0000
,
1000
0000
0000
0000
0010
0000
0000
0100
0000
0000
0001
0000
1000
0000
0000
0000
,
1001
0000
0000
1010
0000
0000
0101
0000
0000
1001
0000
0000
0000
0110
0000
0000
,
0001
0000
0000
1000
0000
0000
0001
0000
0100
0000
0000
0010
0000
0000
1000
0000
,
0010
0000
0000
0001
0000
0000
0100
0000
1000
0000
0000
0001
0000
0000
0100
0000
,
1000
0001
0100
0000
0010
1000
0010
0000
,
0001
0010
0001
0000
1000
0010
1000
0000
0001
0000
1000
0000
0001
0000
0000
0000
,
1001
0000
0000
0000
,
0001
1000
0001
0000
0100
0100
1000
0010
,
0100
1000
0001
0000
0010
1000
0100
0010
,
1000
0001
0100
0000
0001
1000
0001
0000
,
1000
1000
0001
0100
0010
0100
1001
0000
,
0001
0000
1000
0000
0100
1000
0001
0100
,
0001
0000
1000
0000
0010
0100
1000
0000
,
0001
0000
1000
0001
0100
0000
0010
0000
,
1000
0010
1000
0010
0100
0000
0000
0000
,
0001
1000
0100
0001
1000
0010
0100
1000
,
0001
0000
0000
1000
0001
0000
1000
0000
0000
0100
0010
0000
0000
0000
0001
0000
,
0000
1000
0001
0000
0100
0000
0000
0000
1000
0000
0001
0000
1000
0000
0010
0000
,
1000
0000
0000
0001
0000
0100
0001
0000
0000
1000
0000
0010
0000
0000
0100
0000
,
1000
0000
0001
1000
0010
1000
0100
0000
,
0001
1000
0010
1000
0001
1000
0010
1000
,
1001
0000
0000
0001
1000
0010
0100
0001
1000
0001
0000
0000
,
1000
0100
0010
0001
0010
0100
1000
0100
0010
0001
0000
0000
,
1000
0000
0000
0001
1000
0000
0010
0000
0000
0000
0001
0000
1000
0000
0010
0000
,
0100
0000
0000
0001
0100
0000
0010
0000
0000
0000
1000
0000
0001
0000
0000
0000
,
1001
0000
0000
0000
;

//--------------- dance-single - XLev450X-ESP ----------------
#NOTES:
     dance-single:
     XLev450X:
     Hard:
     14:
     0,0,0,0,0:
0000
0000
0000
0000
,
0000
0000
0000
0000
,
0000
0000
0000
0000
,
0000
0000
0000
0000
,
1001
0000
0000
1010
0000
0000
0110
0000
0000
0101
0000
0000
0000
1001
0000
0000
,
0001
0000
0000
1000
0000
0000
0001
0000
1000
0000
0000
0010
0000
0000
0100
0000
,
0001
0000
0000
1000
0000
0000
0001
0000
0100
0000
0000
1000
0000
0000
0001
0000
,
1000
0010
0100
1000
0001
0100
1000
0001
,
1000
0010
1000
0010
0100
0001
1000
0010
1000
0000
0000
0000
0000
0000
0000
0000
,
0001
0000
1000
0000
0010
0100
0000
1000
0001
0100
1000
0001
1000
0000
0001
0000
,
1000
0000
0010
0000
0100
1000
0000
0010
1000
0001
0100
1000
0010
1000
0001
0000
,
0101
0000
1000
0000
0001
0000
0000
1000
0001
1000
0010
1000
0010
0000
1000
0000
,
0001
0000
1000
0000
0010
0100
0000
1000
0001
1000
0010
1000
1001
0000
0000
0000
,
0001
0000
1000
0000
0010
0000
0000
1000
0010
1000
0010
1000
0001
0100
0001
1000
,
0100
0001
0010
0100
1000
0100
0000
0001
1000
0001
1000
0010
1000
0010
1000
0000
,
0001
0000
0100
0000
1000
0000
0001
1000
0100
0000
1000
0000
0001
0000
1000
0001
,
1000
0010
1000
0100
1000
0001
0101
0000
,
1001
0000
0000
0000
1001
0000
0000
1000
,
0001
0000
1000
0001
1000
0010
1000
0010
0100
1000
0001
0100
0001
1000
0001
0100
,
1001
0000
1001
0000
,
1000
0010
1000
0001
0100
1000
0001
0100
,
1000
0000
0000
0001
1000
0000
0010
0000
0000
1000
0010
0100
1000
0001
0100
0001
,
1000
0000
0000
0001
0100
0000
1000
0000
0000
0001
0100
1000
0001
1000
0010
1000
,
0001
0000
0000
1000
0010
1000
0010
1000
0001
0100
0001
1000
0001
0100
0001
1000
,
0001
1000
0010
1000
0001
0100
1000
0010
1000
0001
1000
0000
0000
0000
0000
0000
,
0001
0000
1000
0001
1000
0000
0000
0010
0000
1000
0010
0000
1000
0000
0100
0000
,
1000
0000
0001
0010
0001
0000
0000
1000
0000
0001
0100
0000
1000
0000
0001
0000
,
1000
0000
0010
1000
0010
0000
0000
0001
0000
1000
0001
0000
0100
0000
1000
0000
,
0001
1000
0001
1000
0010
1000
0010
0100
1000
0001
0010
1000
0001
0000
0010
0000
,
0001
0000
1000
0010
1000
0010
0000
1000
0000
0001
0100
0000
1000
0000
0001
0000
,
1000
0000
0010
0000
1000
0000
0000
0010
0000
1000
0010
0000
1000
0000
0001
0000
,
1000
0000
0001
1000
0001
1000
0000
0010
0000
1000
0010
0000
1000
0010
0000
0100
,
0001
0000
0000
1010
0000
0000
0110
0000
0000
1001
0000
0000
0000
0101
0000
0000
,
0001
0000
0000
1000
0000
0000
0001
0000
0100
0000
0000
1000
0000
0000
0001
0000
,
0100
0000
0000
0010
0000
0000
1000
0000
0010
0000
0000
0001
0000
0000
1000
0000
,
0100
1000
0001
0100
1000
0001
1000
0010
,
1000
0010
1000
0010
0100
1000
0001
0100
0010
1000
0001
0100
1000
0000
0001
0000
,
0100
0000
0000
0000
0000
0000
0000
0000
0000
0000
0000
0000
0000
0000
0001
1000
,
0001
0000
1000
0000
0010
0000
0000
1000
0010
1000
0010
0100
1000
0000
0001
0000
,
1000
0000
0001
0000
0100
0000
0000
1000
0001
1000
0001
0100
1000
0001
1000
0001
,
0010
0000
0000
1000
0001
0000
0000
1000
0001
1000
0010
1000
0010
0000
0100
0000
,
1001
0101
1010
0110
0011
1100
1001
0000
,
0001
0000
1000
0000
0001
0100
1000
0001
,
0000
0000
0000
0010
0000
0000
1000
0000
0000
0000
0000
0000
0010
0000
0000
0100
0000
0000
1000
0000
0001
0000
1000
0000
,
0001
0000
1000
0000
0001
0100
0001
0000
,
1000
0001
1000
0001
1000
0000
0001
0000
,
1000
0000
0001
0000
1000
0000
0010
0000
1000
0010
1000
0010
0100
1000
0001
1000
,
0001
0000
0000
0100
1000
0000
0001
0000
0000
0100
0001
0000
0000
0000
1000
0000
,
0001
0000
1000
0000
0001
0000
0100
1000
0001
0100
0001
1000
0001
1000
0010
1000
,
0010
0000
0000
0001
0010
0000
0001
0000
0000
1000
0001
0000
1000
0000
0001
0000
,
1000
0000
0000
0010
1000
0000
0010
0000
0100
0000
1000
0000
0001
0000
0010
0001
,
0010
0000
1000
0000
0001
1000
0001
0000
1000
0000
0001
0000
1000
0000
0001
0000
,
1000
0000
0000
0001
1000
0010
1000
0010
0100
0001
0000
0000
,
0100
0000
0010
0000
0100
0000
1000
0000
0001
0000
0010
0000
0100
0000
1000
0000
0100
0000
0001
0000
0000
1000
0000
0000
,
0001
0000
0000
1000
0010
0000
1000
0000
0000
0010
1000
0001
0100
1000
0001
1000
,
0001
0000
0000
0100
1000
0000
0001
0000
0000
1000
0010
1000
0010
0100
0001
0000
,
1001
0000
0000
0000
;
