#TITLE:SCREAM SQUAD;
#SUBTITLE:;
#ARTIST:CALF;
#TITLETRANSLIT:;
#SUBTITLETRANSLIT:;
#ARTISTTRANSLIT:;
#GENRE:BREAKCORE;
#CREDIT:;
#MUSIC:SCREAM SQUAD.ogg;
#BANNER:SCREAM SQUAD.png;
#BACKGROUND:SCREAM SQUAD-bg.png;
#CDTITLE:./CDTitles/BeatmaniaIIDX.png;
#SAMPLESTART:0.000;
#SAMPLELENGTH:15.000;
#SELECTABLE:YES;
#OFFSET:0.000;
#BPMS:0.000=220.000;
#STOPS:;
#BGSTAGE:30;
#BGCHANGES:;
#FGCHANGES:;

//--------------- dance-single - XLev450X-bSP ----------------
#NOTES:
     dance-single:
     XLev450X:
     Beginner:
     6:
     0,0,0,0,0:
0000
0000
0000
0000
,
0000
0000
0000
0000
,
0000
0000
0000
0000
,
0000
0000
0000
0000
,
1000
0000
0001
0000
,
1000
0000
0000
0000
,
0010
0000
0100
0000
,
0010
0000
0000
0000
,
0001
0000
0001
0000
,
0001
0000
0000
0000
,
1000
0000
1000
0000
,
1000
0000
0000
0000
,
0010
0000
0100
0000
,
0010
0000
1000
0000
,
0001
0000
0100
0000
,
0010
0000
0000
0000
,
0001
0001
0001
0000
,
1000
1000
1000
0000
,
0010
0000
0100
0000
,
0010
0001
1000
0000
,
0010
0000
0100
0000
,
1000
0010
0100
0001
,
0010
0000
1000
0000
,
0001
1000
0010
0000
,
0100
0000
0001
0000
,
1000
0000
0000
0000
,
1000
0000
0001
0000
,
0100
0010
1000
0000
,
0001
0000
0010
0000
,
0100
0000
0000
0000
,
0001
0000
1000
0000
,
0010
0000
0100
0000
,
0001
0000
1000
0000
,
0010
0000
0000
0000
,
0100
0000
0001
0000
,
1000
0000
0000
0000
,
0010
0000
0100
0000
,
1000
0000
0001
0000
,
0010
0000
0100
0000
,
0001
0000
1000
0000
,
0010
0000
0000
0000
,
0100
0000
0001
0000
,
1000
0000
0000
0000
,
0010
0000
1000
0000
,
0001
0000
0100
0000
,
0010
0000
0000
0000
,
1000
0000
0010
0000
,
0100
0000
0000
0000
,
0001
0000
1000
0000
,
0010
0100
0001
0000
,
1000
0000
0010
0000
,
0100
0001
1000
0010
,
0100
0000
0000
0000
,
0001
0000
1000
0000
,
0010
0100
0001
1000
,
0010
0100
0001
1000
,
0010
0000
0100
0000
,
0001
1000
0010
0000
,
1000
0000
0001
0000
,
0010
0100
0001
0000
,
1000
0000
0010
0000
,
0100
0001
1000
0000
,
0010
0000
1000
0000
,
0001
0100
0010
0000
,
1000
0000
0001
0000
,
0010
1000
0001
0000
,
0100
0000
0010
0000
,
1000
0001
0100
0010
,
1000
0000
0000
0000
,
0001
0000
0100
0000
,
0010
0000
0000
0000
,
1000
0000
0010
0000
,
0100
0000
0000
0000
,
0000
0000
0000
0000
,
0001
0000
1000
0000
,
0010
0000
0100
0001
,
1000
0000
0010
0000
,
0100
0000
0010
1000
,
0001
0000
0100
0000
,
0010
0000
1000
0001
,
0100
0000
0010
0000
,
1000
0000
0001
0000
,
0010
0000
0000
0000
,
0100
0000
0001
0000
,
1000
0010
0100
0001
,
1000
0000
0010
0000
,
0100
0000
0001
0000
,
1000
0010
0100
0001
,
1000
0000
0010
0000
,
0100
0000
0010
1000
,
1001
0000
0010
0000
,
0100
0001
1000
0010
,
0001
0000
1000
0000
,
0010
0000
0100
0000
,
0001
0000
0000
0000
,
1000
0000
0001
0000
,
0100
0010
1000
0000
,
0001
0100
0010
0000
,
1001
0000
0000
0000
;

//--------------- dance-single - XLev450X-BSP ----------------
#NOTES:
     dance-single:
     XLev450X:
     Easy:
     8:
     0,0,0,0,0:
0000
0000
0000
0000
,
0000
0000
0000
0000
,
0000
0000
0000
0000
,
0000
0000
0000
0000
,
0001
1000
0010
0000
,
0100
0001
1000
0010
,
0100
1000
0010
0000
,
0100
0001
1000
0010
,
0001
1000
0010
0100
,
0001
1000
0010
0000
,
0100
1000
0001
0100
,
0010
1000
0001
0000
,
0001
0000
1000
0000
,
0010
0100
0001
0000
,
0010
0000
1000
0000
,
0010
0100
0001
1000
,
0010
0000
0100
0000
,
0010
0000
0001
0000
,
1000
0001
0100
0010
,
1000
0001
0100
0010
,
1000
0000
0001
0000
,
0010
0001
0100
1000
,
0010
0100
0001
0010
,
1000
0010
0100
0000
,
0001
0000
1000
0000
,
0010
0100
0001
1000
,
0010
0000
0100
0000
,
1000
0001
0100
0010
,
1000
0000
0010
0000
,
0001
0100
0010
1000
,
0001
0100
0010
1000
,
0001
0100
0010
1000
,
0001
0000
0100
0000
,
0010
0001
0100
1000
,
0010
0000
0100
0000
,
0001
0010
0100
1000
,
0010
0100
0001
0000
,
1000
0000
0010
0000
,
0100
0001
1000
0010
,
0100
0000
0001
0000
,
0010
0001
0100
1000
,
0010
0100
0001
1000
,
0010
0100
0001
1000
,
0010
0100
0001
1000
,
0010
0000
0100
0000
,
0001
1000
0010
0100
,
1000
0001
0100
0010
,
1000
0000
0000
0000
,
0010
0001
0100
1000
,
0010
0100
0001
1000
,
0010
0100
1000
0001
,
0100
0010
0001
1000
,
0010
0100
0001
1000
,
0010
0100
0001
1000
,
0010
0100
0001
1000
,
0010
0100
0001
1000
,
0010
0000
0100
0000
,
1000
0001
0100
0010
,
1000
0001
0100
0010
,
1000
0001
0100
0010
,
0001
1000
0010
0100
,
0001
1000
0010
0100
,
0001
1000
0010
0100
,
0001
1000
0010
0100
,
0001
0000
1000
0000
,
0010
0100
1000
0010
,
0100
0001
0010
1000
,
0001
0010
0100
0001
,
1000
0000
0010
0000
,
0100
0001
1000
0010
,
0100
0000
0001
0000
,
1000
0010
0100
0001
,
1000
0000
0000
0000
,
0000
0000
0000
0000
,
0001
0100
0010
0000
,
0001
1000
0010
0000
,
0100
1000
0010
0001
,
0100
0010
1000
0000
,
0001
0100
0010
0000
,
1000
0010
0100
0000
,
0001
1000
0010
0100
,
0001
0000
1000
0000
,
0010
0100
0001
1000
,
0010
0100
1000
0001
,
0100
0010
1000
0001
,
0100
0010
1000
0001
,
0100
0000
0010
0000
,
1000
0010
0001
0100
,
1000
0000
0010
0000
,
0100
0001
1000
0010
,
0100
0000
0001
0000
,
1000
0010
0100
0001
,
1000
0010
0100
0000
,
0010
0001
0100
1000
,
0010
0100
0001
0000
,
1000
0010
0100
0000
,
0010
0001
1000
0010
,
0100
0001
0010
0100
,
1001
0000
0000
0000
;

//--------------- dance-single - XLev450X-DSP ----------------
#NOTES:
     dance-single:
     XLev450X:
     Medium:
     13:
     0,0,0,0,0:
0000
0000
0000
0000
,
0000
0000
0000
0000
,
0000
0000
0000
0000
,
0000
0000
0000
0000
,
0001
1000
0010
0100
,
0001
1000
0010
0100
,
1000
0100
0100
0010
,
0011
1000
0100
0000
,
0010
0000
1000
0000
,
0010
0000
0100
0000
,
1000
0000
0100
0000
,
0001
0000
1000
0000
,
1000
0000
0100
0000
0010
0000
0001
0000
0010
0000
0100
0000
,
1000
0000
0100
0000
0010
0000
0001
0000
0010
0000
0100
0000
,
1000
0010
0100
0001
,
1000
0010
0100
1000
,
0001
1000
0010
0000
0100
0001
1000
0010
,
0000
0100
0000
1000
0000
0010
0100
0001
,
0000
0010
1000
0100
,
0000
0010
0000
0001
0000
1000
0000
0010
,
0100
0010
1000
0010
,
0100
0001
1000
0010
,
0100
0001
1000
0000
,
0100
1000
0010
0001
,
0100
0010
1000
0100
,
0001
1000
0010
0100
,
0001
0000
1000
0010
,
0100
0000
0001
1000
,
0010
0100
0001
1000
,
0010
0000
0100
0000
,
0001
1000
0010
0100
,
0001
1000
0010
0000
,
0100
0000
0000
0001
0000
1000
0000
0000
,
0010
0000
0000
0100
0000
0000
0001
0000
,
1000
0000
0000
0010
0000
0000
0100
0000
,
0001
0000
0000
1000
0000
0000
0010
0000
,
0100
0000
0000
0010
0000
0000
0000
0000
,
1000
0001
1000
0001
,
0100
0001
1000
0001
,
0010
1000
0010
0100
,
0001
0010
0000
0000
,
1010
0000
0010
0000
,
0100
0010
0001
1000
,
0010
0100
0001
0010
,
1000
0000
0010
0100
,
0001
1000
0010
0100
,
0001
0000
1000
0010
,
0100
0000
0001
0000
,
0010
0000
0100
0000
,
0001
1000
0010
0100
,
1000
0001
0100
0010
,
1000
0010
0100
0001
,
1000
0010
0100
0010
,
0001
1000
0010
0100
,
1000
0010
0100
0001
,
1000
0000
0100
0000
,
0010
0000
1000
0010
,
0100
0000
0001
0010
,
1000
0010
0100
0001
,
1000
0010
0100
0001
,
0010
1000
0100
1000
0010
1000
0100
0010
,
0001
0100
0001
0100
0001
1000
0100
1000
,
0100
1000
0001
0010
0100
1000
0100
1000
,
0010
1000
0010
0100
0010
0100
0001
1000
,
0010
0100
0001
1000
,
0010
0100
1000
0000
,
0010
0100
0001
1000
,
0010
0100
0001
1000
,
0010
1000
0100
1000
0010
1000
0010
0100
,
0010
1000
0001
0010
0100
1000
0100
0010
,
0001
0100
0001
1000
0001
0010
0100
0010
,
0001
0010
0100
1000
0010
1000
0010
0100
,
0001
0000
0000
0000
,
0000
0000
0000
0000
,
0001
0000
1000
0000
,
0010
0000
0100
0001
,
1000
0010
1000
0000
,
0100
0001
0010
1000
,
0010
0000
0100
0000
,
0010
1000
0001
1000
0100
0010
0001
0100
,
0001
0000
0100
0000
0010
0100
1000
0010
,
0001
1000
0100
0010
0001
0001
0010
0000
,
0010
0000
1000
0010
,
0100
0001
1000
0010
,
0100
0000
1000
0010
,
0001
0100
0010
1000
,
0001
0100
0010
0000
,
1000
0001
0100
0010
,
1000
0001
0100
0010
,
1000
0001
0100
0010
,
0001
0000
1000
0000
,
0010
0100
0001
1000
,
0010
0000
0100
0000
,
0001
1000
0010
0100
,
0001
0000
1000
0000
,
0010
0100
0001
1000
,
0010
0000
0100
0001
,
1000
0010
0100
0010
,
1001
0000
0000
0000
;

//--------------- dance-single - XLev450X-ESP ----------------
#NOTES:
     dance-single:
     XLev450X:
     Hard:
     17:
     0,0,0,0,0:
0000
0000
0000
0000
,
0000
0000
0000
0000
,
0000
0000
0000
0000
,
0000
0000
0000
0000
,
0001
0000
1000
0000
0010
0000
0000
0100
,
0000
0010
0000
0000
1000
0010
1000
0001
,
0100
0000
0001
0000
1000
0000
0000
0010
,
0000
0100
0000
0000
1000
0100
0001
0010
,
0100
0001
0010
1000
,
0010
0000
0100
0000
,
0010
0001
1000
0100
,
0010
0000
0100
0000
,
0001
1000
0100
0010
0100
0010
0100
1000
0010
1000
0100
0010
,
0100
1000
0010
0100
0001
0100
0010
1000
0010
1000
0010
0100
,
0001
1000
0010
0100
,
0010
0000
0000
0000
0001
0100
0010
0100
0001
0010
0100
0000
1000
0000
0000
0000
,
0010
1000
0001
0010
0001
1000
0001
0010
,
0010
1000
0010
0100
0001
0100
0010
1000
0001
1000
0100
1000
0100
0010
0001
1000
,
0010
0000
0001
1000
0010
0000
0100
0001
,
0000
1000
0000
0010
0000
0100
0000
0010
,
0001
1000
0010
0100
,
0010
0000
0001
1000
0010
0000
0100
0000
,
0001
0000
1000
0010
0100
0000
0001
1000
,
0010
0100
0001
0000
1000
0010
0100
0000
,
0001
1000
0010
0100
,
0000
0010
0000
0100
0000
0001
1000
0000
,
0010
0100
1000
0010
,
0100
1000
0001
0100
0010
0000
1000
0000
,
0100
0000
0010
0001
1000
0000
0010
0000
,
0100
1000
0000
0001
0100
0000
0010
0000
,
1000
0010
0100
0001
,
1000
0010
0100
0001
,
1000
0000
0000
0010
0000
0000
0000
0000
,
0100
0000
0000
0001
0000
1000
0000
0000
,
0010
0000
0000
0100
0000
0001
0000
0000
,
1000
0000
0000
0010
0000
0100
0000
0000
,
0001
0000
0000
0100
0000
0010
0000
0000
,
1000
0001
0100
0010
,
1000
0010
0100
0001
,
0010
0000
1000
0000
0100
0001
0100
0000
,
0100
1000
0001
0010
0100
1000
0010
0100
,
0001
0010
0001
1000
0010
0100
0010
1000
,
0100
1000
0100
0010
0100
0010
0001
0100
,
0011
1100
0110
0101
,
0001
1000
0001
1000
0001
0100
0010
0100
,
0001
0100
0010
0100
0010
1000
0100
0010
0100
0010
0100
1000
0010
1000
0100
1000
,
0010
1000
0010
0100
0001
0100
1000
0010
,
0100
0001
1000
0010
,
0100
0010
0100
0010
0100
1000
0001
0100
,
0010
1000
0010
0100
0001
1000
0100
0010
,
0100
0010
0100
1000
0001
0100
0010
0100
,
0001
0100
0010
1000
0100
1000
0100
1000
,
0001
1000
0100
0010
0100
1000
0001
0010
,
0001
0010
0100
1000
0001
1000
0010
1000
,
0010
1000
0001
0010
0001
0010
0001
0100
0010
1000
0001
1000
0001
1000
0010
0100
,
0001
1000
0100
0010
0000
0000
0000
0000
0010
1000
0001
1000
0000
0000
0000
0000
,
0001
0000
1000
0000
0010
0100
0001
0000
,
1000
0010
0100
0001
,
0000
0100
0010
1000
,
0100
0000
0010
0000
1000
0001
0100
0000
,
0010
0000
1000
0000
0010
0001
0100
0000
,
1000
0000
0010
0000
0100
1000
0001
0100
,
0010
0000
1000
0000
0100
1000
0001
0100
,
0010
0000
1000
0000
0100
0010
0001
1000
,
0010
0000
0100
0000
1000
0010
0100
0001
,
1000
0000
0010
0000
0100
1000
0001
0000
,
0100
0000
0010
0000
1000
0001
0100
0000
,
0010
0000
1000
0000
0100
0010
0001
0000
,
1000
0000
0010
0000
0100
0001
1000
0000
,
0010
0000
0100
0000
0001
1000
0010
0000
,
0100
0001
1000
0010
,
0100
1000
0010
0100
0010
1000
0010
0100
0001
1000
0010
0100
0010
1000
0001
1000
,
0001
0000
0000
0000
,
0000
0000
0000
0000
,
0010
0000
0000
0100
0000
0000
0000
0000
,
0001
0000
0000
1000
0000
0010
0000
0000
,
0100
0000
0000
0001
0000
1000
0000
0010
,
0100
0000
0001
1000
0000
0010
0000
0000
,
0100
0000
0001
1000
0000
0010
0000
0100
,
0001
0000
1000
0010
0000
0000
0100
0000
,
0001
1000
0010
0100
,
0001
0000
0010
0000
1000
0010
0100
0000
,
0010
1000
0001
0010
0001
1000
0001
0010
,
0010
1000
0010
0100
0001
0100
0010
1000
0001
1000
0100
1000
0100
0010
0001
1000
,
0010
0000
0001
1000
0010
0000
0100
0001
,
0000
1000
0000
0010
0000
0100
0000
0010
,
0001
1000
0010
0100
,
0010
0000
0001
1000
0010
0000
0100
0000
,
0001
0000
1000
0010
0100
0000
0001
1000
,
0010
0100
0001
0000
1000
0010
0100
0000
,
0001
1000
0010
0100
,
0000
0010
0000
0100
0000
0001
1000
0000
,
0010
0100
1000
0010
,
0100
1000
0001
0100
0010
0000
1000
0000
,
0100
0000
0010
0001
1000
0000
0010
0000
,
0100
1000
0000
0001
0100
0000
0010
0000
,
1000
0010
0100
0001
,
1000
0010
0100
0001
,
1001
0000
0000
0000
;
