#TITLE:Rushiest Rush;
#ARTIST:かめりあ;
#ARTISTTRANSLIT:Camellia;
#MUSIC:Rushiest Rush.ogg;
#BANNER:Rushiest Rush.png;
#BACKGROUND:Rushiest Rush-bg.png;
#CDTITLE:./CDTitles/DANCERUSH STARDOM.png;
#SAMPLESTART:96.753;
#SAMPLELENGTH:15;
#OFFSET:-0.055;
#BPMS:0=145
,120=142
,121=136
,122=130
,123=124
,124=117
,125=115
,126=113
,128=112
,154=120
,156=132
,157=135
,158=145;
#BGSTAGE:30;

//--------------- dance-single - XLev450X -スパーク・フェスティバル--bSP ----------------
#NOTES:
     dance-single:
     XLev450X -スパーク・フェスティバル-:
     Beginner:
     3:
     0,0,0,0,0:
0000
0000
0000
0000
,
0000
0000
0000
0000
,
0000
0000
0000
0000
,
0000
0000
0000
0000
,
0000
0000
0000
0000
,
0000
0000
0000
0000
,
0001
0001
0001
0000
,
1000
1000
1000
0000
,
0010
1000
0010
0000
,
0100
0001
0100
0000
,
1001
0000
0000
0000
,
1001
0000
0000
0000
,
1001
0000
0000
0000
,
1001
0000
0000
0000
,
0001
1000
0001
0000
,
1000
0001
1000
0000
,
2002
0000
0000
3003
,
2002
0000
0000
3003
,
0001
0001
0001
0000
,
1000
0010
1000
0000
,
1000
1000
1000
0000
,
0010
0100
0010
0000
,
0010
0010
0010
0000
,
1000
0100
1000
0000
,
0100
0100
0100
0000
,
0110
0000
0000
0000
,
2002
0000
0000
0000
,
0000
0000
0000
3003
,
0001
0000
0001
0000
,
1001
0000
0000
0000
,
2002
0000
0000
0000
,
0000
0000
0000
3003
,
0001
0001
0001
0000
,
1000
1000
1000
0000
,
0010
0010
0010
0000
,
0100
0100
0100
0000
,
1000
0100
1000
0000
,
0010
0001
0010
0000
,
2002
0000
0000
0000
,
0000
0000
3003
0000
,
1001
0000
0000
0000
,
0000
0000
0000
0000
,
0000
0000
0000
0000
,
0000
0000
0000
0000
,
0001
0000
1000
0000
,
0001
0000
0000
0000
,
0010
0000
0100
0000
,
0010
0000
0000
0000
,
0001
0000
0001
0000
,
0001
0000
0000
0000
,
1000
0000
1000
0000
,
1000
0000
0000
0000
,
1001
0000
0000
0000
,
0000
0000
0000
0000
,
1001
0000
0000
0000
,
0000
0000
0000
0000
,
0010
0010
0010
0000
,
0001
0001
0001
0000
,
1000
1000
1000
0000
,
0100
0010
0100
0000
,
1000
0000
1000
0000
,
1000
0000
0000
0000
,
0001
0000
0001
0000
,
0001
0000
0000
0000
,
0010
0000
0010
0000
,
0010
0000
0000
0000
,
0100
0000
0100
0000
,
0100
0000
0000
0000
,
0010
0000
0000
0000
,
0100
0000
0000
0000
,
0010
0000
0000
0000
,
0000
0000
0000
0000
,
1001
0000
0000
0000
;

//--------------- dance-single - XLev450X -スパーク・フェスティバル--BSP ----------------
#NOTES:
     dance-single:
     XLev450X -スパーク・フェスティバル-:
     Easy:
     7:
     0,0,0,0,0:
0000
0000
0000
0000
,
0000
0000
0000
0000
,
0000
0000
0000
0000
,
0000
0000
0000
0000
,
0000
0000
0000
0000
,
0000
0000
0000
0000
,
0010
1000
0001
1000
,
0001
1000
0010
0000
0100
0000
1000
0000
,
0001
0010
0001
0000
0100
1000
0100
0000
,
0010
0100
0010
0000
0001
0000
1000
0000
,
2002
0000
0000
0000
0000
0000
0000
0003
,
0002
0000
0000
0000
0000
0000
0000
3000
,
2000
0000
0000
0000
0000
0000
0000
0003
,
0002
0000
0000
0000
0000
0000
0000
3003
,
1000
0010
1000
0100
,
0001
0010
0100
1000
,
0010
1000
0010
0000
0001
0100
0001
0000
,
2002
0000
0000
0000
0000
0000
0000
3003
,
0001
1000
0100
0010
,
1000
0010
0001
1000
,
0001
1000
0100
0010
,
0001
0010
0001
0000
0100
1000
0100
0000
,
0001
1000
0001
1000
,
0010
0100
1000
0000
,
0010
1000
0100
0001
,
0002
0000
0000
0000
2000
0000
0000
3003
,
2002
0000
0000
0000
,
0000
0000
0000
0000
0000
0000
0000
3003
,
0001
1000
0100
0010
,
2001
0000
0001
0000
0001
0000
0002
3003
,
2002
0000
0000
0000
,
0000
0000
0000
3003
,
0001
0000
1000
0000
0010
1000
0010
0000
,
0001
0000
0100
0000
0001
0100
0001
0000
,
0010
0000
0100
0000
1000
0010
1000
0000
,
0001
0000
0000
0000
1000
0000
0000
0000
0002
0000
0000
2000
0000
0000
3003
0000
,
0100
0000
0010
0000
0001
1000
0001
0000
,
0010
0000
1000
0000
0100
0010
0100
0000
,
0001
1000
0001
1000
,
0001
1000
0001
0000
0001
1000
0001
0000
,
2002
0000
0000
0000
,
0000
0000
0000
0000
,
0000
0000
0000
0000
,
0000
0000
0000
3003
,
0010
0000
0001
0000
,
1000
0000
0000
0001
0000
0000
0100
0000
0000
0001
0000
0000
1000
0000
0000
0000
,
2002
0000
0000
3003
,
1000
0000
0000
0001
0000
0000
0100
0000
0000
0010
0000
0000
1000
0000
0000
0000
,
0001
0000
1000
0000
0010
1000
0010
0000
,
0001
1000
0001
0000
,
0001
0000
1000
0000
0001
1000
0001
0000
,
0010
1000
0100
0000
,
0010
0010
0001
0100
,
1000
0001
1000
0001
,
1000
0010
1000
0000
0001
0100
0001
0000
,
2001
0000
0001
0000
0001
0000
0002
3003
,
0010
1000
0001
0100
,
0001
1000
0001
0100
,
0010
1000
0010
0000
0001
0010
0001
0000
,
0100
1000
0001
1000
,
2002
3003
0001
0000
1000
0000
0001
0000
,
1000
0000
0010
0000
0100
0010
0100
0000
,
0001
0010
1000
0001
,
2002
0000
0000
3003
,
0001
0000
1000
0000
0010
1000
0010
0000
,
0001
0100
0001
0000
,
1000
0000
0010
0000
0100
0010
0100
0000
,
0001
0000
1000
0000
0001
1000
0001
0000
,
2002
0000
0000
3003
,
0001
0000
0000
1000
0000
0000
0001
0000
0000
0100
0000
0000
0010
0000
0000
0000
,
2002
0000
0000
3003
,
0001
0000
0000
1000
0000
0000
0010
0000
0000
0100
0000
0000
0010
0000
0000
0000
,
1001
0000
0000
0000
;

//--------------- dance-single - XLev450X -スパーク・フェスティバル--DSP ----------------
#NOTES:
     dance-single:
     XLev450X -スパーク・フェスティバル-:
     Medium:
     12:
     0,0,0,0,0:
0000
0000
0000
0000
,
0000
0000
0000
0000
,
0000
0000
0000
0000
,
0000
0000
0000
0000
,
0000
0000
0000
0000
,
0000
0000
0000
0000
,
0001
0000
1000
0000
0010
1000
0010
0000
,
0001
0000
0010
0000
0100
0010
0100
0000
,
0001
1000
0001
0100
,
0001
0100
0001
0000
0010
1000
0010
0000
,
0001
0000
0000
1000
0000
0000
0001
0000
0100
0000
0000
0010
0000
0000
1000
0000
,
0010
0000
0000
0100
0000
0000
0001
0000
0010
0000
0000
0100
0000
0000
1000
0000
,
0001
0000
0000
1000
0000
0000
0010
0000
0100
0000
0000
0010
0000
0000
0001
0000
,
0010
0000
0000
0100
0000
0000
1000
0000
0010
0000
0000
1000
0000
0000
0001
0000
,
1000
0000
0001
0000
0010
1000
0010
0000
,
0010
0000
0100
0000
0001
0010
0001
0000
,
1000
0001
1000
0100
0010
0001
0010
0100
,
1002
0000
1000
0000
1000
0000
2000
3003
,
0001
0000
1000
0000
0010
1000
0100
0010
,
0001
0000
0010
0000
1000
0010
1000
0100
,
0010
0000
0001
0000
0010
0001
0010
0000
,
1000
0100
1000
0000
0010
1000
0010
0000
,
0100
0000
0010
0000
0001
0001
1000
0000
,
0001
0000
0100
0000
0010
0010
1000
0000
,
0010
0000
1000
0000
0100
0001
0010
0000
,
0100
0000
0000
1000
0000
0000
0001
0000
0010
0000
0100
0000
1000
0000
0001
0000
,
2002
0000
0000
0000
,
0000
0000
0000
3003
,
0001
1000
0010
0100
0010
0001
0010
0100
,
2001
0000
0001
0000
0001
0000
0002
3003
,
2002
0000
0000
0000
,
0000
0000
0000
3003
,
0001
0000
1000
0001
0000
0010
1000
0000
,
0010
0000
0100
0010
0000
0001
0010
0100
,
1000
0000
0001
1000
0000
0001
1000
0010
,
1000
0010
1000
0000
0010
0000
0100
0000
0001
0000
0010
1000
0200
0000
0310
0000
,
0001
0000
1000
0001
0000
0100
0010
1000
,
0010
1000
0010
0000
0001
0000
0010
0000
0100
0000
1000
0000
0001
0000
0000
0000
,
0001
0010
0001
0000
0100
0000
1000
0000
0001
0000
1000
0000
0001
0000
0000
0000
,
0001
1000
0001
1000
0100
0010
0001
1000
,
2002
0000
0000
0000
,
0000
0000
0000
0000
,
0000
0000
0000
0000
,
0000
0000
0000
3003
,
0001
0000
1000
0000
0010
0000
1000
0010
,
1000
0000
0000
0001
0000
0000
0010
0000
0000
1000
0000
0000
0001
0000
0000
0000
,
2002
0000
0000
3003
,
1000
0000
0000
0001
0000
0000
0100
0000
0000
0010
0000
0000
0001
0000
0000
0000
,
1000
0000
0001
0000
1000
0010
1000
0000
,
0010
0000
0100
0000
0010
0100
0010
0000
,
0001
0000
1000
0000
0001
1000
0001
0000
,
0010
1000
0010
1001
,
0010
0010
1000
0000
0100
0100
0010
0000
,
0001
0010
0001
0000
1000
0100
1000
0000
,
0001
1000
0100
0010
0001
0010
0100
1000
,
1002
0000
1000
0000
1000
0000
2000
3003
,
0001
1000
0010
0000
0010
1000
0010
0100
,
0010
0001
0010
0000
0001
0100
1000
0100
,
0001
1000
0001
0000
0001
0001
1000
0000
,
0010
0000
1000
0000
0100
0010
0001
0000
,
0101
0000
0010
0000
1000
0010
1000
0000
,
0100
1000
0100
0000
0010
0001
0010
0000
,
1000
0001
1000
0100
0010
0001
0010
0100
,
0002
0000
0000
1000
0000
1000
0000
1000
,
1003
0000
0010
0000
1000
0100
0010
0000
,
0001
0000
1000
0000
0010
0010
1000
0000
,
0100
0000
0010
0000
0001
0100
0001
0000
,
0001
0000
1000
0000
0001
1000
0001
0000
,
2002
0000
0000
3003
,
0001
0000
0000
1000
0000
0000
0010
0000
0000
0100
0000
0000
0001
0000
1000
0000
,
2002
0000
0000
3003
,
1000
0000
0000
0001
0000
0000
0100
0000
0000
0010
0000
0000
1000
0000
0000
0000
,
1001
0000
0000
0000
;

//--------------- dance-single - XLev450X -スパーク・フェスティバル--ESP ----------------
#NOTES:
     dance-single:
     XLev450X -スパーク・フェスティバル-:
     Hard:
     16:
     0,0,0,0,0:
0000
0000
0000
0000
,
0000
0000
0000
0000
,
0000
0000
0000
0000
,
0000
0000
0000
0000
,
0000
0000
0000
0000
,
0000
0000
0000
0000
,
0010
0001
0010
0000
1000
0000
0001
1000
0001
0000
0100
0000
1000
0000
0000
0000
,
0001
1000
0001
0000
0010
0000
1000
0001
0100
0000
0010
0000
0001
0000
0000
0000
,
0010
1000
0010
0000
0100
0000
0001
1000
0010
0000
0100
0000
1000
0000
0000
0000
,
0001
1000
0001
0000
0010
1000
0100
0000
1000
0100
0001
1000
0010
0100
0001
0100
,
1000
0000
0000
0001
0000
0000
0100
0000
0010
0000
0000
1000
0000
0000
0100
0000
,
0001
0000
0000
0010
0000
0000
0100
0000
1000
0000
0000
0001
0000
0000
0010
0000
,
1000
0000
0000
0100
0000
0000
0010
0000
0001
0000
0000
0010
0000
0000
0100
0000
,
1000
0000
0000
0001
0000
0000
1000
0000
0010
0000
0000
0100
0000
0000
0010
0000
,
0001
0010
0100
1000
0001
0010
0100
1000
0001
0010
0100
1000
0001
0010
0100
1000
,
0100
0010
0001
0010
0100
1000
0100
0010
0001
0010
0100
1000
0100
0010
0001
0010
,
0100
1000
0100
0010
0001
0010
0100
1000
0001
0010
0100
1000
0001
0010
0100
1000
,
0002
1000
1000
1003
,
0001
0010
0001
0000
1000
0000
0100
0000
0001
0000
1000
0000
0010
0000
0000
0000
,
0010
0001
1000
0000
0100
0000
0010
1000
0001
0000
0010
0000
0100
0000
0001
0000
,
1000
0001
1000
0000
0001
0000
1000
0000
0010
0000
0100
0000
0001
0000
0010
0000
,
0001
0010
0001
0000
0010
0000
0100
0000
0010
1000
0010
0000
0010
0000
1000
0000
,
0100
1000
0001
0000
0010
0000
0100
0000
0001
1000
0001
0000
0010
0000
1000
0000
,
0010
1000
0010
0000
0010
0100
0010
0000
0001
0010
0001
0000
0100
0001
0100
0000
,
0001
0000
1000
0000
0001
0000
1000
0000
0001
1000
0001
0000
0010
0000
1000
0000
,
0200
0001
0001
0001
0001
0000
0002
0303
,
1002
1000
1000
1000
,
1000
0000
1000
0000
1000
0000
2000
3003
,
0010
1000
0010
0100
0001
0010
0100
1000
0001
1000
0010
1000
0001
0010
1000
0100
,
2000
0000
0001
0000
0001
0000
0002
3003
,
2002
0000
0000
0000
,
0000
0000
0000
3003
,
0010
0000
0001
0000
1000
0000
0001
1000
0001
0000
0010
0000
1000
0000
0100
0000
,
0010
0100
0010
0000
0010
1000
0010
0000
0001
0010
0001
0000
0100
0000
1000
0000
,
0001
1000
0001
0000
0010
0000
1000
0000
0100
0000
0010
0000
0001
0000
0010
0000
,
0100
0010
0100
0000
0010
1000
0010
0100
0001
0010
0001
0010
0100
1000
0100
0010
,
0001
0000
1000
0000
0001
0000
1000
0001
1000
0010
1000
0010
1000
0000
0001
0000
,
0010
0100
0010
0100
0001
1000
0010
1000
0100
0010
0001
0000
2002
0000
3003
0000
,
0001
0000
1000
0000
0010
1000
0010
0000
0001
0000
0010
0000
0100
0001
0100
0000
,
0001
0000
1000
0000
0001
0000
0100
0000
0001
1000
0100
0001
1000
0010
0001
0100
,
2002
0000
0000
0000
,
0000
0000
0000
0000
,
0000
0000
0000
0000
,
0000
0000
0000
3003
,
0001
0100
1000
0001
0010
0100
0010
1000
,
0001
0000
0000
1000
0000
0000
0001
0000
0000
0010
0000
0000
1000
0000
0000
0000
,
2001
0001
0001
3001
,
1000
0000
0000
0001
0000
0000
0100
0000
0000
0010
0000
0000
1000
0000
0000
0000
,
0001
1000
0010
0001
1000
0010
1000
0000
,
0001
1000
0010
0001
0100
0001
0100
0000
,
0001
0000
1000
0000
0001
1000
0001
0000
,
0010
0000
1000
0000
0100
0010
0001
0000
,
0001
1000
0001
0010
1000
0100
0001
1000
0010
0001
1000
0010
0100
1000
0100
0010
,
0001
1000
0001
0100
0010
0001
1000
0010
0100
1000
0001
0100
1000
0001
0100
0010
,
1000
0001
0100
0010
1000
0001
0010
0100
1000
0001
0100
1000
0001
0100
1000
0001
,
0020
0000
0100
0000
0100
0000
0200
0330
,
0001
1000
0001
0000
0010
0000
1000
0000
0100
0000
0010
0000
0001
0000
0010
0000
,
0001
0100
0001
0000
1000
0000
0001
1000
0010
0000
1000
0000
0001
0000
0010
0000
,
0001
0010
0001
0000
1000
0000
0001
0000
1000
0010
1000
0000
0010
0000
0100
0000
,
0001
0100
0001
0000
0010
1000
0010
0000
0010
0100
0010
0000
0001
0010
0001
0000
,
1000
0100
0001
0010
0100
0000
1000
0000
0001
0000
1000
0000
0001
0000
1000
0000
,
0001
1000
0001
0000
0010
0000
1000
0000
0100
0000
0010
0000
0001
0000
1000
0000
,
0010
0100
0010
0000
1000
0000
0010
0000
1000
0000
0001
0000
0010
0000
1000
0000
,
0010
1000
0010
0000
0001
0000
0010
0000
0100
0000
0001
0000
1000
0000
0000
0000
,
0001
1000
0001
0000
1000
0000
0001
0000
1000
0010
1000
0000
0100
0000
0001
0000
,
0010
0100
0010
0000
0001
0000
1000
0000
0001
1000
0001
0000
0010
0000
1000
0000
,
0010
0100
0010
0000
0001
0000
0010
0000
0001
0010
0001
0000
1000
0000
0001
0000
,
1000
0010
1000
0000
0100
0010
0001
0000
0010
0001
1000
0100
0001
0000
0000
0000
,
2001
0001
0001
0001
0001
0001
0001
3001
,
0001
0000
0000
1000
0000
0000
0010
0000
0000
0100
0000
0000
0010
0000
1000
0100
,
0002
1000
1000
1000
1000
1000
2000
3003
,
0010
1000
0001
0100
0001
1000
0100
0010
0001
1000
0001
0100
0010
0001
0100
0020
,
0200
0330
0000
0000
0000
0000
0000
0000
;
