#TITLE:Runaway;
#ARTIST:P!nk;
#GENRE:POP;
#MUSIC:Runaway.ogg;
#BANNER:Runaway.png;
#BACKGROUND:Runaway-bg.png;
#SAMPLESTART:74.515;
#SAMPLELENGTH:15;
#OFFSET:-0.265;
#BPMS:0=160;
#BGSTAGE:17;

//--------------- dance-single - XLev450X-bSP ----------------
#NOTES:
     dance-single:
     XLev450X:
     Beginner:
     3:
     0,0,0,0,0:
0000
0000
0000
0000
,
0000
0000
0000
0000
,
0000
0000
0000
0000
,
0000
0000
0000
0000
,
0000
0000
0000
0000
,
0000
0000
0000
0000
,
0000
0000
0000
0000
,
0000
0000
0000
0000
,
0000
0000
0000
0000
,
0001
0000
1000
0000
,
0001
0000
0000
0000
,
0010
0000
1000
0000
,
0010
0000
0000
0000
,
0100
0000
0010
0000
,
0100
0000
0000
0000
,
0010
0000
0001
0000
,
0010
0000
0000
0000
,
1000
0000
1000
0000
,
0000
0000
0000
0000
,
0001
0000
0001
0000
,
0000
0000
0000
0000
,
0010
0000
0010
0000
,
0000
0000
0000
0000
,
0100
0000
0100
0000
,
0000
0000
0000
0000
,
0001
0001
0001
0000
,
0010
0000
1000
0000
,
1000
1000
1000
0000
,
0100
0000
0010
0000
,
0001
0010
0001
0000
,
0100
1000
0100
0000
,
1000
0001
1000
0000
,
0010
1000
0010
0000
,
0001
0000
1000
0000
,
0001
0000
0000
0000
,
0100
0000
0010
0000
,
0100
0000
0000
0000
,
1000
0100
1000
0000
,
0010
0001
0010
0000
,
0010
0100
0010
0000
,
0001
1000
0001
0000
,
1001
0000
0000
0000
,
0000
0000
0000
0000
,
1001
0000
0000
0000
,
0000
0000
0000
0000
,
1001
0000
0000
0000
,
0000
0000
0000
0000
,
1001
0000
0000
0000
,
0000
0000
0000
0000
,
0000
0000
0000
0000
,
0010
0010
0010
0000
,
0001
0000
1000
0000
,
0100
0100
0100
0000
,
1000
0000
0001
0000
,
1000
0100
1000
0000
,
0010
0000
0001
0000
,
0010
0001
0010
0000
,
0100
0000
0010
0000
,
0001
0001
0000
0000
,
1000
1000
0000
0000
,
0010
1000
0000
0000
,
0100
0001
0000
0000
,
0010
0000
0100
0000
,
0010
0000
0000
0000
,
0001
0000
1000
0000
,
0001
0000
0000
0000
,
1000
0000
1000
0000
,
1000
0000
0000
0000
,
0001
0000
0001
0000
,
0001
0000
0000
0000
,
0100
0000
0100
0000
,
0100
0000
0000
0000
,
0010
0000
0010
0000
,
0010
0000
0000
0000
,
1001
0000
0000
0000
;

//--------------- dance-single - XLev450X-BSP ----------------
#NOTES:
     dance-single:
     XLev450X:
     Easy:
     5:
     0,0,0,0,0:
0000
0000
0000
0000
,
0000
0000
0000
0000
,
0000
0000
0000
0000
,
0000
0000
0000
0000
,
0000
0000
0000
0000
,
0000
0000
0000
0000
,
0000
0000
0000
0000
,
0000
0000
0000
0000
,
0000
0000
0000
0000
,
0001
0000
1000
0001
,
1000
0000
0010
1000
,
0100
0000
0010
0001
,
0010
0100
1000
0001
,
1000
0000
0010
1000
,
0100
0000
0010
0100
,
1000
0000
0001
0001
,
0100
1000
0001
1000
,
0010
1000
0010
0000
,
0100
1000
0100
0010
,
0001
0010
0100
1000
,
0001
0000
1000
0000
0001
1000
0001
0000
,
0010
1000
0100
0000
,
0010
0100
0001
0000
,
0001
0010
0100
0010
,
2002
0000
0000
3003
,
0010
1000
0100
0010
,
0000
0001
1000
0001
,
0000
0010
1000
0100
,
0010
0001
0010
0100
,
1000
0010
1000
0000
,
0100
0010
0001
1000
,
0001
1000
0001
0000
,
0010
1000
0010
0000
,
0010
0100
1000
0100
,
0010
0001
0000
0100
,
0000
1000
0001
1000
,
0001
0010
1000
0001
,
0010
0100
1000
0000
,
0001
1000
0000
0010
,
1000
0010
0100
0000
,
0001
0010
0100
1000
,
2002
0000
0000
3003
,
2020
0000
0000
3030
,
0202
0000
0000
0303
,
0220
0000
0000
0330
,
0001
0000
0001
0000
,
1000
0000
0000
0000
,
0010
0000
0010
0000
,
0100
0000
0000
0000
,
2002
0000
0000
3003
,
0001
1000
0100
0000
,
0010
0001
0000
0100
,
1000
0010
0000
0001
,
1000
0100
0010
0000
,
0001
0001
0100
0000
,
0010
0000
1000
0000
,
0010
1000
0001
0000
,
0001
1000
0001
0000
,
0001
1000
0010
1000
,
0010
1000
0010
0000
0010
0100
0010
0000
,
0001
1000
0100
0000
,
0001
0001
1000
0001
,
1000
0010
0100
0000
,
0001
0010
0000
1000
,
0100
0010
0001
0000
,
0001
1000
0001
1000
,
0010
1000
0100
0010
,
0001
0010
0100
1000
,
0001
1000
0000
0001
,
0000
0100
0000
1000
,
0001
0100
0000
0010
,
0000
1000
0000
0001
,
0000
1000
0000
0010
,
0100
0010
0000
2002
,
3003
0000
0000
0000
;

//--------------- dance-single - XLev450X-DSP ----------------
#NOTES:
     dance-single:
     XLev450X:
     Medium:
     9:
     0,0,0,0,0:
0000
0000
0000
0000
,
0000
0000
0000
0000
,
0000
0000
0000
0000
,
0000
0000
0000
0000
,
0000
0000
0000
0000
,
0000
0000
0000
0000
,
0000
0000
0000
0000
,
0000
0000
0000
0000
,
0000
0000
0000
0000
,
0001
0000
1000
0000
0010
1000
0010
0000
,
0010
0001
0010
1000
,
0001
0000
0100
0000
0001
0100
0001
0000
,
1000
0001
1000
0000
,
0010
1000
0010
0000
0100
0000
0010
0000
,
0001
0010
1000
0001
,
1000
0001
1000
0000
0010
0000
1000
0000
,
0100
0010
0001
0000
,
0010
0010
1000
0000
,
0100
0100
0010
0001
,
1000
0001
0000
1000
,
0010
1000
0010
0000
0001
0010
0100
0000
,
1000
0000
0001
0000
1000
0010
1000
0000
,
0010
0100
0001
0010
,
0100
0010
0100
0000
0010
0000
1000
0000
,
2002
3003
0001
1000
,
0001
1000
0001
0000
0010
1000
0010
0000
,
0010
0100
0010
0000
0001
0010
0001
0000
,
0001
1000
0100
0001
,
1000
0001
0010
1000
,
0010
1000
0010
0000
0010
0000
0100
0000
,
0010
0100
0010
0000
0001
0010
0001
0000
,
0001
0000
1000
0000
0001
0000
0000
0010
,
0000
1000
0000
0100
0000
0010
0001
0000
,
1000
0000
0001
1000
0001
0000
0010
0000
,
1000
0010
1000
0000
0100
0000
0010
0000
,
0001
0010
0001
0000
0100
0000
1000
0000
,
0010
1000
0010
0000
0100
0000
1000
0000
,
0001
0001
1000
0000
0010
0010
1000
0000
,
0100
0100
0010
0000
0001
0001
0010
0000
,
0100
0001
1000
0000
,
0001
0000
1000
0010
0000
0100
0010
0000
,
2002
0000
0000
3003
,
2020
0000
0000
3030
,
0202
0000
0000
0303
,
0220
0000
0000
0330
,
0001
0001
1000
0000
,
0100
0100
1000
0000
,
0010
0010
1000
0001
,
2002
0000
0000
3003
,
2002
0000
0000
3003
,
0001
1000
0100
0010
,
0001
0010
0100
1000
,
0001
1000
0001
0000
0010
1000
0010
0000
,
0010
0100
0010
0000
0001
0000
0000
0000
,
1000
0100
0010
0000
,
0010
1000
0100
0000
,
0010
1000
0010
0000
0010
0001
0010
0000
,
0100
1000
0100
0001
1000
0001
1000
0000
,
0000
0001
1000
0100
,
0001
0010
0000
1000
,
0100
0010
1000
0001
,
0010
1000
0000
0001
,
1000
0010
1000
0000
,
0010
0100
0010
0001
,
0100
0001
0100
0000
0010
1000
0010
0000
,
0001
1000
0001
0000
,
1000
1000
0100
0010
,
0001
0010
0100
1000
,
0001
1000
0001
0010
,
1000
0100
0010
0000
,
0010
1000
0100
0010
,
0001
0010
0001
0000
0100
1000
0100
0000
,
0001
0010
1000
0001
,
1000
0000
0010
0000
1000
0100
0001
0000
,
1001
0000
0000
0000
;

//--------------- dance-single - XLev450X-ESP ----------------
#NOTES:
     dance-single:
     XLev450X:
     Hard:
     11:
     0,0,0,0,0:
0000
0000
0000
0000
,
0000
0000
0000
0000
,
0000
0000
0000
0000
,
0000
0000
0000
0000
,
0000
0000
0000
0000
,
0000
0000
0000
0000
,
0000
0000
0000
0000
,
0000
0000
0000
0000
,
0000
0000
0000
0000
,
0001
0000
1000
0000
0010
1000
0010
0000
,
0001
0010
0001
0000
0010
0100
0010
0000
,
1000
0100
0001
1000
,
0001
1000
0010
1000
0100
0010
0001
0010
,
0100
0000
1000
0000
0001
1000
0001
0000
,
0010
1000
0100
0010
,
0001
0010
0001
0000
0100
1000
0100
0000
,
0010
1000
0100
0010
0001
0010
0100
1000
,
0001
0000
1000
0000
0100
0001
0001
0000
,
0100
0000
1000
0000
0010
1000
0010
0000
,
0010
0000
0100
0000
0010
0100
0010
0000
,
0001
0010
0100
1000
,
0001
1000
0001
0000
0010
0000
1000
0000
,
0100
0001
0100
0000
1000
0000
0001
0000
,
1000
0010
1000
0000
0010
0000
0100
0000
,
0001
0100
0101
1010
,
0010
1000
0010
0000
0010
0100
0010
0000
,
0010
0001
0010
0000
0001
0100
1000
0000
,
0001
1000
0001
0000
0010
0000
1000
0100
,
0000
0010
0000
0001
0010
0000
0100
0000
,
1000
0000
0001
0000
1000
0001
1000
0000
,
0001
0000
0001
0100
0000
0010
1000
0100
,
0000
0010
0001
0000
0100
0000
1000
0001
,
0000
1000
0000
0100
0000
0010
0000
1000
,
0001
0000
1000
0000
0001
1000
0010
1000
,
0100
0000
0010
0000
0001
0010
0001
0000
,
0100
0000
1000
0000
0001
1000
0001
0000
,
0100
0000
1000
0000
0010
1000
0010
0000
,
0010
0100
0001
0010
,
0000
1001
0010
0101
,
0001
1000
0001
0000
,
1000
0000
0010
1000
0000
0100
0010
0000
,
0001
0000
1000
0000
0001
0000
0000
0100
,
0000
0010
1000
0001
,
0010
0000
0100
0000
0001
0000
0000
1000
,
0000
0100
0000
0001
0100
0000
1000
0001
,
1000
0000
0010
0000
1000
0000
0000
0100
,
0000
0010
0001
1000
,
0001
0100
1000
0000
0010
0001
1000
0000
,
2002
0000
0000
0000
0000
0000
3003
0001
,
0010
0100
1000
0100
0002
0000
2000
3003
,
0010
1000
0010
0000
0001
0000
0010
0000
,
0000
0100
1000
0100
0000
0001
0010
0100
,
0000
1000
0001
0000
1000
0000
0010
1000
,
0000
0100
0000
0010
0001
0010
0100
0000
,
1000
0000
0001
0000
1000
0010
1000
0000
,
0010
0000
1000
0100
0000
0010
0001
0010
,
0000
0100
1000
0000
0001
0000
1000
0001
,
0000
1000
0000
0100
0000
0001
0100
0001
,
1001
0000
0001
1000
0010
0000
1000
0000
,
0100
0000
0010
0000
1000
0001
0010
0000
,
1000
0000
0001
0010
0001
0000
0100
0000
,
1000
0000
0001
0000
1000
0001
1000
0000
,
0010
1000
0100
0010
,
1000
0000
0001
0001
0000
0100
0100
0100
,
0001
0010
1000
0100
,
0010
1000
0100
0001
0010
1000
0100
0000
,
1000
0100
0001
0000
1000
0000
0100
0000
,
0001
0001
0100
0010
1000
0010
1000
0000
,
0001
0010
1000
0100
,
0010
0001
0010
0100
,
0001
0001
1000
0000
0010
0000
0100
0000
,
0010
1000
0010
0000
0010
0100
0010
0000
,
0001
0010
0100
1000
,
0001
1000
0001
0000
0010
0000
1000
0000
,
1001
0000
0000
0000
;
