#TITLE:Routing;
#ARTIST:かめりあ;
#ARTISTTRANSLIT:Camellia;
#GENRE:JAZZY-ELECTRO;
#MUSIC:Routing.ogg;
#BANNER:Routing.png;
#BACKGROUND:Routing-bg.png;
#CDTITLE:./CDTitles/bm IIDX 23 copula.png;
#SAMPLESTART:72.85;
#SAMPLELENGTH:15;
#OFFSET:0.483;
#BPMS:0=144;
#BGCHANGES:-0.050=Routing.avi=1.000=1=0=0=StretchNoLoop==CrossFade==;
#BGSTAGE:31;

//--------------- dance-single - XLev450X-bSP ----------------
#NOTES:
     dance-single:
     XLev450X:
     Beginner:
     3:
     0,0,0,0,0:
0000
0000
0000
0000
,
0000
0000
0000
0000
,
0000
0000
0000
0000
,
0000
0000
0000
0000
,
0000
0000
0000
0000
,
1001
0000
0000
0000
,
0000
0000
0000
0000
,
1001
0000
0000
0000
,
0000
0000
0000
0000
,
0001
0000
0001
0000
,
0001
0000
0000
0000
,
0010
0000
0010
0000
,
0010
0000
0000
0000
,
1000
0000
1000
0000
,
1000
0000
0000
0000
,
0100
0000
0100
0000
,
0100
0000
0000
0000
,
0010
0000
0100
0000
,
0010
0000
0000
0000
,
0001
0000
0010
0000
,
0001
0000
0000
0000
,
0110
0000
0000
0000
,
0001
0000
0010
0000
,
0001
0000
0000
0000
,
1001
0000
0000
0000
,
0000
0000
0000
0000
,
1000
0000
0000
0000
,
0010
0000
0000
0000
,
0100
0000
0000
0000
,
0001
0000
0000
0000
,
0010
0000
1000
0000
,
0010
0000
0000
0000
,
0100
0000
0010
0000
,
0100
0000
0000
0000
,
0001
0000
0000
0000
,
1000
0000
0000
0000
,
0100
0000
0000
0000
,
0010
0000
0000
0000
,
0001
0000
0000
0000
,
1000
0000
0000
0000
,
0010
0000
0000
0000
,
0100
0000
0000
0000
,
0001
0000
0000
0000
,
0000
0000
0000
0000
,
1000
0000
0001
0000
,
1000
0000
0000
0000
,
0010
0000
1000
0000
,
0010
0000
0000
0000
,
0100
0000
0100
0000
,
0010
0000
0000
0000
,
0001
0000
0001
0000
,
0010
0000
0000
0000
,
1000
1000
0000
0000
,
0001
0001
0000
0000
,
0100
0100
0000
0000
,
0010
0100
0000
0000
,
0001
0010
0000
0000
,
1000
0100
0000
0000
,
0010
1000
0000
0000
,
0000
0000
0000
0000
,
0000
0000
0000
0000
,
1001
0000
0000
0000
,
0000
0000
0000
0000
,
1001
0000
0000
0000
,
0000
0000
0000
0000
,
1001
0000
0000
0000
,
0000
0000
0000
0000
,
1001
0000
0000
0000
;

//--------------- dance-single - XLev450X-BSP ----------------
#NOTES:
     dance-single:
     XLev450X:
     Easy:
     7:
     0,0,0,0,0:
0000
0000
0000
0000
,
0000
0000
0000
0000
,
0000
0000
0000
0000
,
0000
0000
0000
0000
,
0000
0000
0000
0000
,
0001
0000
0000
0000
0100
0000
0000
0000
0001
0000
0100
0000
1000
0000
0000
1001
,
0000
0000
0001
0000
1000
0100
0010
0000
,
1010
0000
0000
0000
0001
0000
0000
0000
1000
0000
0001
0000
0020
0000
0000
0200
,
0000
0000
0000
0000
0000
0000
0000
0000
0000
0330
0000
0000
1001
0000
0000
0000
,
0001
0000
0010
0000
0100
1000
0100
0000
,
0010
0000
0000
0000
0001
0000
0000
0000
0001
0000
0000
0000
0000
0100
0000
1000
,
0000
0000
0000
0000
0002
0000
0000
0003
0000
0000
0000
0000
2000
0000
0000
3000
,
0000
0010
0100
0000
0010
0000
0001
0000
,
0000
0000
0000
0000
1100
0000
0000
0000
0100
0000
0000
0000
0001
0000
0000
0010
,
0000
0000
0000
0000
0010
0000
0000
0000
1000
0000
0000
0000
0200
0000
0000
0300
,
0000
0000
0000
0000
0002
0000
0000
0003
0000
0000
0000
0000
1001
0000
0000
1001
,
0000
0000
0010
0000
0001
0100
0010
0000
,
0110
0000
0000
0000
0001
0000
0000
0000
0010
0000
0100
0000
0010
0000
0000
1000
,
0000
0000
0000
0000
0010
0000
0000
0000
0001
0000
0000
1000
0000
0000
0000
0100
,
0000
0000
0000
0000
0020
0000
0000
0030
0000
0000
0000
0000
0200
0000
0000
0300
,
0000
0000
0100
0000
1000
0100
0010
0000
,
2002
0000
0000
3003
,
0001
0000
1000
0000
0010
0100
0010
0000
,
0001
0000
0000
0000
1000
0000
0000
0000
0100
0000
0000
0001
0000
0000
0100
0000
,
0000
2002
0000
0000
,
0000
0000
0000
3003
,
0001
1000
0001
0010
,
1000
0100
0010
0000
,
0001
1000
0010
0100
,
1000
0001
0100
0000
,
0010
0100
0010
0000
0001
0010
0001
0000
,
1000
0001
1000
0000
0010
0000
1000
0000
,
0100
0000
0001
0000
0100
1000
0001
0000
,
1000
0010
0100
0000
,
0001
0000
0000
0000
0100
0000
0000
0001
0000
0000
1000
0000
0000
0010
0000
0020
,
0000
0000
0000
0030
,
1000
0000
0000
0000
0100
0000
0000
0010
0000
0000
0001
0000
0000
0100
0000
0100
,
0000
0200
0000
0000
0000
0300
0000
0000
,
0001
0000
0000
0000
0100
0000
0000
0001
0000
0000
1000
0000
0000
0100
0000
0200
,
0000
0000
0000
0300
,
1000
0000
0000
0000
0001
0000
0000
2000
0000
0000
3001
0000
0000
1000
0000
1000
,
0000
2000
0000
0000
0000
3000
0000
0000
,
0010
0000
0000
0000
,
0001
0010
0100
0000
0001
0000
0010
0000
,
1000
0001
0100
1000
,
0010
1000
0010
0000
0100
0000
0001
0000
,
1000
0001
1000
0000
0010
1000
0010
0000
,
0100
0001
0010
0100
,
1000
0100
0010
0001
,
1000
0100
0001
0000
,
1000
0010
1000
0000
,
0002
1000
1000
1003
,
0001
1000
0100
0010
,
0001
0000
1000
0000
0010
1000
0010
0000
,
0001
0100
1000
0001
,
1000
0010
0001
0000
,
0001
0001
0100
0000
1000
1000
0010
0000
,
0010
0010
0100
0000
0001
0010
0001
0000
,
1000
0000
0000
0000
0001
0000
0000
0000
1000
0000
0000
0001
0000
0000
0100
0000
,
0000
0001
0000
0000
1000
0000
0000
0100
0000
0000
0010
0000
0000
0002
0000
2000
,
0000
0000
0000
3003
,
0100
0000
0000
0000
1000
0000
0000
0000
0000
0000
0000
0000
0110
0000
0000
0110
,
0000
0000
0000
1000
,
1001
0000
0000
0000
0000
0000
0000
0000
0000
0000
0000
0000
0011
0000
0000
0011
,
0000
0000
0001
1000
,
1001
0000
0000
0000
0000
0000
0000
0000
0000
0000
0000
0000
0110
0000
0000
0110
,
0000
0000
0000
1010
,
0001
0000
0000
0000
1000
0000
0001
0000
1000
0000
0000
0000
0001
0000
0000
0020
,
0000
0000
0000
0000
,
0000
0000
0000
0000
,
0030
0000
0000
0000
;

//--------------- dance-single - XLev450X-DSP ----------------
#NOTES:
     dance-single:
     XLev450X:
     Medium:
     10:
     0,0,0,0,0:
0000
0000
0000
0000
,
0000
0000
0000
0000
,
0000
0000
0000
0000
,
0000
0000
0000
0000
,
0000
0000
0000
0000
,
0001
0000
0000
0000
1000
0000
0010
0000
0100
0000
0010
0000
0001
0000
0000
1000
,
0000
0000
0001
0000
1000
0010
1000
0000
,
0001
0000
0000
0000
0010
0000
0100
0000
0010
0000
0000
0000
1000
0000
0000
0002
,
0000
0000
0000
0000
0000
0000
2000
3003
,
0001
0100
0010
0000
0100
1000
0010
0000
,
0100
0000
0010
0000
0001
0000
0010
0000
0001
0000
0000
1000
0000
0100
0000
1000
,
0000
0000
0000
0000
0001
0000
0000
0100
0000
0000
0000
0000
1000
0000
0000
0010
,
0000
0000
1000
0000
0100
0000
0010
0000
0100
0000
0000
0000
0001
0000
0000
0100
,
0000
0001
0000
0000
1010
0000
0000
0000
0100
0000
1000
0000
0001
0000
0000
0010
,
0000
0000
0000
0000
0010
0000
0100
0000
1000
0000
0000
0000
1000
0000
0000
0010
,
0000
0000
0000
0000
0001
0000
0000
0100
0000
0000
0000
0000
1001
0000
0000
1001
,
0000
0000
0001
0010
0001
0100
0010
0000
,
0110
0000
0000
0000
0001
0000
0100
0000
0010
0000
1000
0000
0010
0000
0000
1000
,
0000
0000
0000
0000
0010
0000
0100
0000
0001
0000
0000
1000
0000
0000
0000
0100
,
0000
0000
0001
0000
0020
0000
0000
0030
0000
0000
1000
0000
0200
0000
0000
0300
,
0000
0000
0100
0010
1000
0100
0010
0000
,
0001
0000
1000
0010
0000
0001
0100
0000
0100
1000
0000
0000
,
0001
0000
1000
0010
1000
0000
0100
0000
,
0001
0000
0100
0000
0001
0000
0000
0000
0010
0000
0000
1000
0000
0000
0010
0000
,
0000
0001
1000
0010
,
0001
0100
0001
0000
0001
1000
0001
0000
,
0010
1000
0100
0010
,
0001
1000
0001
1000
,
0010
0000
1000
0010
0100
0001
0010
1000
,
0001
1000
0010
1000
0100
0001
0010
0000
,
0010
0100
0010
0000
0010
1000
0010
0000
,
0001
0010
0001
0000
0100
0000
1000
0000
,
0001
1000
0001
0000
0010
1000
0010
0000
,
0101
1010
0110
0000
,
0002
0000
0000
0000
0203
0000
0000
0320
0000
0000
2030
0000
0000
3001
0000
0010
,
0000
0001
0100
0000
1000
0100
0010
0000
,
2000
0000
0000
0000
3200
0000
0000
0320
0000
0000
0032
0000
0000
0013
0000
0100
,
0000
0000
1001
0000
0000
0000
0000
0000
0000
0000
0000
0000
0000
0001
0000
0000
,
0002
0000
0000
0000
0203
0000
0000
0302
0000
0000
0023
0000
0000
0130
0000
1000
,
0000
0100
0100
0100
,
2000
0000
0000
0000
3002
0000
0000
2003
0000
0000
3020
0000
0000
0130
0000
0010
,
0000
0000
0110
0000
0000
0000
0000
0000
0000
0000
0001
0000
0000
0100
0000
0000
,
0010
0000
0000
0000
,
0001
0010
0100
1000
0001
0000
0010
0000
,
0001
0000
1000
0000
0010
0100
0010
0000
,
1000
0100
1000
0000
0001
1000
0001
0000
,
0100
0000
1000
0000
0010
1000
0100
0001
,
0010
0100
1000
0010
,
0001
0001
1000
0000
0100
0100
1000
0000
,
0010
1000
0010
0000
0100
0000
0001
0000
,
0010
0000
0100
0000
1000
0000
0010
1000
,
0000
0001
1000
0100
,
0001
0000
0100
0000
1000
0001
1000
0010
,
1000
0100
0010
0001
,
0100
0000
1000
0000
0001
1000
0001
0000
,
0010
1000
0100
0000
,
0001
0000
0010
0000
1000
0100
0001
0000
,
0010
0000
1000
0000
0010
1000
0010
0000
,
0100
0000
0000
0000
1000
0000
0000
0000
0001
0000
0000
1000
0000
0000
0001
0000
,
0000
0100
0000
0000
0010
0000
0000
1000
0000
0000
0001
0000
0000
0200
0000
0020
,
0000
0000
0000
0330
,
0100
0000
0000
0000
1000
0000
0000
0000
0100
0000
0010
0000
0200
0000
0000
0300
,
0000
0001
0010
0100
0010
0001
1000
0000
,
1001
0000
0000
0000
0010
0000
0100
0000
1000
0000
0100
0000
0010
0000
0000
0001
,
0000
0000
0001
0001
,
1001
0000
0000
0000
0001
0000
0100
0000
0010
0000
0000
0000
0020
0000
0000
0030
,
0000
0000
0000
0000
0010
0000
0000
0000
0000
0101
0000
0000
1010
0000
0000
0000
,
0001
0000
0000
0000
1000
0000
0001
0000
1000
0000
0010
0000
1000
0000
0000
0020
,
0000
0000
0000
0000
,
0000
0000
0000
0000
,
0030
0000
0000
0000
;

//--------------- dance-single - XLev450X-ESP ----------------
#NOTES:
     dance-single:
     XLev450X:
     Hard:
     14:
     0,0,0,0,0:
0000
0000
0000
0000
,
0000
0000
0000
0000
,
0000
0000
0000
0000
,
0000
0000
0000
0000
,
0000
0000
0000
0000
,
1001
0000
0000
0000
0000
0000
0000
0000
0000
0000
0000
0000
1010
0000
0000
0101
,
0000
0000
0000
0000
0000
0000
0000
0000
0000
0101
0000
0000
1010
0000
0000
0000
,
0110
0000
0000
0000
0000
0000
0000
0000
0000
0000
0000
0000
1010
0000
0000
0101
,
0000
0000
0000
0000
,
0001
0000
0100
0000
0010
0000
0001
0000
0100
0000
1000
0000
1010
0000
0000
1100
,
0000
0100
0010
0000
0001
0000
0010
0000
1000
0000
0010
0001
0000
0010
0000
0100
,
0000
0010
1000
0000
0011
0000
0000
0101
0000
0000
0010
0000
1100
0000
0000
1010
,
0000
0000
1000
0000
0100
0000
0010
0000
0002
0000
0000
0000
0103
0000
0000
0101
,
0000
0101
0000
0000
0001
0000
0010
0000
0001
0000
0100
0000
0001
1000
0000
0010
,
0000
0010
0100
0000
1000
0000
0001
0000
0101
0000
0000
0000
1001
0000
0000
1010
,
0000
1000
0100
0000
1100
0000
0000
0110
0000
0000
0000
0000
0011
0000
0000
0110
,
0000
0100
0001
0010
1000
0100
0010
0000
,
0101
0000
0100
0000
1000
0001
1000
0000
,
0010
1000
0100
0010
0001
0010
0100
0000
,
1000
0001
1000
0000
0010
1000
0010
0000
,
0010
0000
0001
0000
0010
0000
0100
0000
1000
0000
0001
0000
0010
0000
1000
0001
,
0000
0000
0000
0000
0000
0000
0001
0000
0000
0010
0000
0000
1000
0000
0000
0000
0100
0000
0000
0000
0010
0000
0000
0000
0001
0000
0000
0000
1000
0000
0000
0000
0100
0000
0000
0000
0010
0000
0000
0100
0000
0000
0000
0000
0000
1001
0000
0000
,
0000
0000
1010
0000
0010
1000
0100
0000
,
0010
0000
0100
0000
1000
0000
0001
0000
0010
0000
0000
0001
0000
0000
0020
0000
,
0000
0100
0100
0100
,
0130
0000
1000
0100
0010
0100
0001
0100
,
0010
0000
0100
0000
0001
1000
0000
0010
0000
0000
0100
0000
0001
0010
0100
0000
,
0000
0000
0010
0000
0000
0000
0000
0000
0000
0000
0002
0000
0000
0023
0000
0000
,
1030
0000
0001
0010
0100
1000
0000
0100
0000
0000
1000
0000
0010
0000
0100
0000
,
0000
0000
0100
0000
0000
0000
0010
0000
0001
0000
0000
0010
0000
0000
0000
0000
,
0010
0000
0100
1000
0001
0010
0000
1000
0000
0000
1000
0000
0001
0010
0100
0000
,
0000
0000
0010
0000
0000
0000
0000
0000
0000
0000
0001
0010
0100
1000
0001
0100
,
0010
0000
0100
1000
0000
0000
0000
1000
0100
0000
0001
0010
0000
0000
0000
0100
,
0000
0000
0020
2000
0000
0000
3030
0000
,
0011
0000
0000
0000
0101
0000
0000
1010
0000
0000
1100
0000
0000
1001
0000
0110
,
0000
0001
0100
0010
1000
0100
0001
0100
,
1100
0000
0000
0000
1100
0000
0000
0110
0000
0000
0011
0000
0000
0110
0000
1001
,
0000
0000
2002
0000
0000
0000
0000
0000
3003
0000
1000
0000
0000
0100
0000
0000
,
0011
0000
0000
0000
0101
0000
0000
0011
0000
0000
1010
0000
0000
1100
0000
1010
,
0000
0100
0100
0100
,
1010
0000
0000
0000
0101
0000
0000
1010
0000
0000
0011
0000
0000
1100
0000
0011
,
0000
0000
0011
0000
0000
0000
0000
0000
0000
0000
0001
0000
0000
0100
0000
0000
,
0010
0000
0000
0000
0001
0000
0000
0010
0000
0000
0100
0000
0000
1000
0000
0000
,
0001
0000
0000
0100
0000
0000
0001
0000
0000
1000
0000
0000
0010
0000
0000
0000
,
1000
0000
0010
0000
0001
0000
0010
1000
0000
0010
0100
0000
1000
0000
0100
0000
,
0010
0000
0100
0000
0001
0000
0010
0100
0000
1000
0001
0000
0010
0000
0001
0000
,
0100
0000
0000
0000
0000
0000
0001
0000
0010
0000
0000
0100
0000
0010
0000
1000
,
0000
1001
1000
0001
0100
0010
1000
0010
,
0001
0000
0010
0000
1000
0000
0010
0001
0000
0010
0100
0000
0010
0000
0001
0000
,
1000
0000
0100
0000
0010
0000
1000
0010
0000
1000
0100
0000
0001
0000
0100
0000
,
0010
0000
0000
0000
0010
0000
1000
0000
0100
0010
0000
1000
0000
0010
0000
0001
,
0000
0010
0100
1000
0001
0100
1000
0000
,
0001
0000
1000
0000
0010
1000
0010
0100
,
0001
0000
0010
0000
0001
0100
1000
0100
,
0001
0000
1000
0000
0010
1000
0010
0000
,
0001
0010
0100
1000
0001
1000
0001
0000
,
0010
0000
1000
0000
0100
0010
0100
0000
,
0001
0010
0100
1000
0001
1000
0001
0000
,
0010
0000
0000
0000
1000
0000
0001
0000
0100
0000
0000
0001
0000
0000
0100
0000
,
0000
1000
0000
0000
0100
0000
0000
0010
0000
0000
0001
0000
0000
0010
0000
0200
,
0000
0000
0000
0310
,
0110
0000
0000
0000
1000
0000
0000
0100
0000
0000
0010
0000
1100
0000
0000
0110
,
0000
0000
0001
0010
0000
0010
0000
0100
0000
0011
0000
0000
0110
0000
0000
0000
,
1001
0000
0000
0001
0010
0100
0000
1000
0000
0000
0100
0000
0110
0000
0000
0011
,
0000
0000
0000
0000
0001
0010
0001
1000
,
1001
0000
0000
0000
1000
0000
0100
0000
0010
0000
0100
0000
0110
0000
0000
1010
,
0000
0000
0001
0000
0100
0000
0001
0000
0000
0101
0000
0000
1010
0000
0000
0000
,
0011
0000
0001
0000
1000
0000
0001
0000
0100
0000
0010
0000
1000
0000
0000
2020
,
0000
0000
0000
0000
,
0000
0000
0000
0000
,
3030
0000
0000
0000
;
