#TITLE:輪廻の鴉 (RGR-Special);
#SUBTITLE:;
#ARTIST:BEMANI Sound Team "dj TAKA";
#TITLETRANSLIT:Rinne no karasu (RGR-Special);
#SUBTITLETRANSLIT:;
#ARTISTTRANSLIT:dj TAKA;
#GENRE:SPIRITUAL CORE;
#CREDIT:;
#MUSIC:Rinne no karasu (RGR-Special).ogg;
#BANNER:Rinne no karasu (RGR-Special).png;
#BACKGROUND:Rinne no karasu (RGR-Special)-bg.png;
#CDTITLE:./CDTitles/bm IIDX 30 RESIDENT.png;
#SAMPLESTART:39.847;
#SAMPLELENGTH:15.000;
#SELECTABLE:YES;
#OFFSET:-0.302;
#BPMS:0.000=198.000;
#STOPS:;
#BGSTAGE:31;
#BGCHANGES:3.000=Rinne no karasu (RGR-Special).mp4=1.000=0=0=1,
99999.000=-nosongbg-=1.000=0=0=0=StretchNoLoop====
;
#FGCHANGES:;

//--------------- dance-single - XLev450X ----------------
#NOTES:
     dance-single:
     XLev450X:
     Challenge:
     19:
     0.998198,1.281021,0.032462,0.064923,1.128045,861,857,4,8,0,0,0.998198,1.281021,0.032462,0.064923,1.128045,861,857,4,8,0,0:
0000
0000
0000
0000
,
0000
0000
0000
0000
,
0000
0000
0000
0000
,
0000
0000
0000
0000
,
0000
0000
0000
0000
,
0000
0000
0000
0000
,
0000
0000
0000
0000
,
0000
0000
0000
0000
,
0000
0000
0000
0000
0000
0000
0000
0000
0000
0010
0100
0001
,
0100
0010
1000
0010
1000
0100
1000
0001
0100
0010
1000
0010
,
0100
0010
1000
0001
0010
0100
0010
0001
0000
0001
0010
0100
,
1000
0010
0100
0001
1000
0010
1000
0001
0100
0010
1000
0001
,
0100
0010
1000
0001
0100
0001
0100
0010
0000
0001
0100
0010
,
1000
0100
1000
0010
1000
0001
0100
0010
1000
0001
0100
0010
,
1000
0000
0000
0000
0100
0000
0000
0000
1000
0000
0000
0000
0100
0000
0000
0000
1000
0000
0000
0000
0001
0000
0000
0000
0100
0000
0000
0000
0010
0000
0000
0000
0100
0000
0000
0000
0001
0000
0000
0010
0000
0000
0100
0000
0000
1000
0000
0000
,
0010
0100
0010
1000
0100
0010
0001
1000
0010
1000
0100
0010
0002
0000
0000
0000
,
0000
0000
0000
0000
0000
0000
0000
0000
0000
0000
0003
0000
1000
0000
0001
1000
,
0100
0000
1000
0000
0010
1000
0010
0000
1000
0001
1000
0000
0001
0000
0100
0010
,
0100
0000
0001
1000
0001
1000
0002
0000
0000
0000
0103
0000
0010
0000
1000
0100
,
0010
0000
0001
0000
1000
0010
0100
0000
0001
1000
0100
0000
1100
0000
0100
0000
,
0110
0010
0011
1001
0000
0100
0010
1000
,
0100
0010
0001
1000
0010
0100
0010
0100
,
0010
0000
1000
0000
0100
0000
0010
0000
0001
0000
0100
0000
0010
0100
0001
1000
,
0100
1000
0001
0100
0001
1000
0010
0100
0001
0100
0001
0010
0001
0100
0010
0100
,
0001
1000
0010
0100
0001
0100
0010
2000
0000
0000
3000
0000
1001
0000
0100
0000
,
0010
0000
0100
0000
0010
0000
0001
0000
1000
0000
0100
1000
0001
0000
1000
0000
,
0100
0000
0010
0100
1000
0000
0001
0000
1000
0000
0001
0010
0001
0000
1000
0000
,
0001
0100
0001
0000
1000
0000
0100
0000
0010
0000
0001
1000
0010
0000
1000
0000
,
0010
1000
0010
0000
0100
0001
0100
0000
0000
0000
0100
0000
0001
0000
0010
0000
,
0001
1000
0010
1000
0100
0010
0001
0010
,
0100
0000
1000
0000
0001
0000
1000
0000
0010
0000
0100
0000
1000
0010
0100
0001
,
1000
0010
0001
1000
0001
0100
0010
1000
0001
0010
1000
0100
0010
1000
0010
0100
,
0001
1000
0010
0100
0001
1000
0100
0000
0000
0000
0220
0000
0000
0000
0330
0000
,
1000
0000
0010
0000
0100
0000
0010
0000
1000
0100
0001
1000
0010
0000
0100
0000
,
1000
0100
0010
0100
1000
0001
0010
0100
,
0010
0100
1000
0001
0100
0010
0100
0001
,
0010
0000
0001
0000
0100
0010
0100
1000
0001
0100
0010
0100
0010
0000
0001
0000
,
0100
0001
0010
0100
1000
0010
1000
0001
,
0100
0000
0001
0000
1000
0000
0100
0001
1000
0010
0100
0001
1000
0000
0100
0001
,
0000
1000
0000
0000
0100
0000
1000
0001
0000
0000
0100
0010
0000
0000
0010
0001
,
1000
0010
2002
0000
0000
3003
1002
0000
,
0100
0000
0100
0000
0000
0000
0010
0000
0013
0000
0000
0000
1000
0000
0010
1000
,
0001
0000
0100
0000
1000
0000
0100
0010
1000
0000
0001
0000
1002
0000
0000
0000
,
0010
0000
0010
0000
0000
0000
0100
0000
0103
0000
0000
0000
0001
0000
0100
0010
,
1000
0100
1100
0011
1010
0101
2001
0000
,
0001
0000
0001
0000
0000
0000
0100
0000
3100
0000
0000
0000
1000
0000
0001
0010
,
0100
0000
0010
0000
0001
0000
1000
0010
0100
0000
0001
0000
0001
0010
0100
1000
,
0001
0100
0010
1000
0001
0010
0001
1000
0100
0010
0100
0010
0001
0100
0010
1000
,
0010
0000
0000
0100
0000
0000
0010
0000
0000
1000
0000
0000
0100
0000
0000
0010
0000
0000
0001
0000
0000
0100
0000
0000
0010
0000
0000
1000
0000
0000
0100
0000
0000
0001
0000
0000
0010
0000
0000
0000
1000
0000
0000
0000
0010
0000
0000
0000
,
1000
0100
1000
0010
0100
0001
0010
0100
1000
0001
0010
0100
,
1000
0001
0100
0010
1000
0001
0010
0100
0000
0010
1000
0001
,
0100
0010
1000
0010
0100
0001
1000
0100
0010
0100
0010
0001
,
0100
0010
1000
0100
0010
0100
1000
0100
0000
0001
1000
0010
,
0100
0010
0100
0010
1000
0100
1000
0010
0100
0001
1000
0010
,
0100
0001
1000
0010
0100
0010
1000
0001
0000
0010
0100
0010
,
0100
0001
1000
0100
0010
0100
1000
0010
0100
0001
0100
0010
,
1000
0000
0001
0000
0100
0000
0001
0000
0100
0000
0001
0000
0010
0000
0100
0000
1000
0000
0010
0000
0000
0100
0000
0000
,
0001
1000
0010
0100
0001
0100
0010
0100
,
0001
0000
1000
0000
0100
0000
0010
0000
0002
0000
0000
0000
0003
0000
0010
0100
,
0001
1000
0010
0100
0001
0000
1000
0000
0001
0000
1000
0000
0100
0000
0010
0000
,
0001
1000
0100
0010
0001
0100
0001
0010
,
0001
0010
0100
0010
0001
0100
0010
0100
,
0010
0000
0100
0000
0001
0000
1000
0000
0010
0000
0100
0000
0001
0000
0100
0010
,
1000
0001
0100
0010
0100
0001
2000
0000
0000
0000
3000
0000
0001
0000
1000
0010
,
0100
0000
0010
0000
1000
0001
0010
0000
0001
0010
0100
0000
1000
0000
0100
0010
,
0100
0000
1000
0001
0100
0001
0200
0000
0000
0000
0310
0000
1000
0000
0001
1000
,
0100
0000
1000
0000
0100
0010
0001
0000
0100
0010
0100
0000
0001
0000
0100
0010
,
0100
0000
1000
0100
0010
0100
0002
0000
0000
0000
0103
0000
0010
0000
1000
0100
,
0010
0000
0001
0000
0100
0010
0001
0000
0010
1000
0001
0000
1000
0000
0001
1000
,
0100
0000
1000
0010
0100
0010
2000
0000
0000
0000
3100
0000
1000
0000
0100
0000
,
0001
0000
0100
0000
1000
0100
0010
0001
1000
0010
0100
0001
1000
0000
1001
0000
,
0000
0000
0110
0000
0000
0000
0001
1000
0010
0000
0000
0000
1100
0000
0100
0000
,
0010
0101
0100
0010
1001
0100
0110
0100
,
0001
0110
0100
1000
0110
0110
0001
0020
,
0130
2000
3010
0200
0301
2000
3100
0002
,
0103
0000
2000
0000
3001
0000
1000
0000
0001
1000
0001
0000
0101
0000
0010
0000
,
1000
1100
0010
0001
1001
0100
0110
0010
,
0001
0110
0010
1000
1001
0010
0100
2000
,
3100
0002
0103
2000
3100
0020
0130
0002
,
1003
0000
0020
0000
1030
0000
0001
1000
0001
0000
1000
0000
0001
0000
0010
0000
,
1000
0001
0100
1000
0001
0010
0001
0100
,
0010
0000
1000
0000
0001
0000
1000
0100
1000
0010
0100
0001
1000
0000
0100
0000
,
0001
1000
0010
0001
1000
0010
0100
0001
,
0100
0000
0010
0000
1000
0000
0001
0010
0001
0010
0100
1000
0001
0000
0100
0000
,
1000
0100
0001
1000
0001
0010
1000
0010
,
0001
0000
1000
0000
0010
0000
0100
0010
1000
0001
0100
0010
1000
0000
0100
0000
,
1100
0000
0110
0000
0000
0000
0101
0000
1001
0000
0000
0000
0001
0000
1000
0010
,
0100
0000
0000
0000
0000
0000
0010
0000
0000
0100
0000
0000
0001
0000
0000
0010
0000
0000
0100
0000
0000
1000
0000
0000
0100
0000
0000
0010
0000
0000
0001
0000
0000
0010
0000
0000
0100
0000
0000
0000
0010
0000
0000
0000
0001
0000
0000
0000
,
0010
0100
0010
0100
1000
0100
1000
0010
1000
0001
0010
0001
,
0010
0100
1000
0010
0100
0001
0010
0001
0010
0100
0010
0001
,
0100
0010
1000
0001
0100
0010
0100
0010
1000
0010
1000
0100
,
0010
0100
0010
0001
0010
0001
0100
0010
1000
0001
0010
0001
,
0100
0001
1000
0100
0010
0001
1000
0100
0010
0001
0010
0100
,
1000
0010
0100
0001
0100
0010
0100
0001
0010
0100
0010
0001
,
0010
0100
1000
0001
0010
0001
0100
0010
1000
0001
0100
0001
,
1000
0010
0100
0001
1000
0100
0010
0001
1000
0200
0000
0000
,
0000
0000
0000
0000
,
0000
0000
0000
0000
,
0000
0000
0000
0000
,
0000
0000
0000
0000
,
0300
0000
0000
0000
;
