#TITLE:Riff//rain;
#ARTIST:Rainy。;
#ARTISTTRANSLIT:Rainy;
#GENRE:THEME SONG;
#MUSIC:Riff--rain.ogg;
#BANNER:Riff--rain.png;
#BACKGROUND:Riff--rain-bg.png;
#CDTITLE:./CDTitles/bm IIDX 31 EPOLIS.png;
#SAMPLESTART:56.721;
#SAMPLELENGTH:15;
#OFFSET:-0.054;
#BPMS:0=180;
#BGCHANGES:3.5=Riff--rain.mp4=1.000=0=0=0=StretchNoLoop====,
99999.000=-nosongbg-=1.000=0=0=0=StretchNoLoop====
;

//--------------- dance-single - XLev450X。-bSP ----------------
#NOTES:
     dance-single:
     XLev450X。:
     Beginner:
     2:
     0,0,0,0,0:
0000
0000
0000
0000
,
0000
0000
0000
0000
,
0000
0000
0000
0000
,
1001
0000
0000
0000
,
0000
0000
0000
0000
,
0011
0000
0000
0000
,
0000
0000
0000
0000
,
1100
0000
0000
0000
,
0000
0000
0000
0000
,
0110
0000
0000
0000
,
0000
0000
0000
0000
,
0001
0000
0001
0000
,
0001
0000
0000
0000
,
1000
0000
0010
0000
,
1000
0000
0000
0000
,
0100
0000
0010
0000
,
0100
0000
0000
0000
,
0010
0000
1000
0000
,
0001
0000
0000
0000
,
1001
0000
0000
0000
,
0000
0000
0000
0000
,
0000
0000
0000
0000
,
0000
0000
0000
0000
,
0110
0000
0000
0000
,
0000
0000
0000
0000
,
0000
0000
0000
0000
,
0000
0000
0000
0000
,
1000
0000
0001
0000
,
1000
0000
0000
0000
,
0100
0000
0010
0000
,
1000
0000
0000
0000
,
0001
0000
0100
0000
,
0010
0000
0000
0000
,
1000
0000
0000
0000
,
0001
0000
0000
0000
,
0000
1000
0000
0001
,
0000
0100
0000
0000
,
0000
0010
0000
1000
,
0000
0001
0000
0000
,
0000
0100
0000
0001
,
0000
0010
0000
0000
,
1000
0000
0001
0000
,
0010
0000
0000
0000
,
1000
1000
0001
0000
,
0100
0000
0010
0000
,
1000
0000
0001
0000
,
0100
0001
1000
0000
,
0010
0000
1000
0000
,
0001
0000
0000
0000
,
1000
0000
0001
0000
,
0100
0000
0000
0000
,
0010
1000
0001
0000
,
1000
0000
0001
0000
,
0100
0000
0010
0000
,
1000
0000
0001
0000
,
1000
0000
0000
0000
,
1000
0000
0000
0000
,
0010
0000
0100
0000
,
0001
0000
0000
0000
,
0001
0000
1000
0000
,
0010
0000
0000
0000
,
0100
0000
0010
0000
,
1000
0000
0000
0000
,
0001
0000
0000
0000
,
1000
0000
0000
0000
,
0100
0000
0000
0000
,
0010
0000
0000
0000
,
0001
0000
0000
0000
,
1000
0000
0000
0000
,
0010
0000
0000
0000
,
0100
0000
0000
0000
,
1001
0000
0000
0000
,
0000
0000
0000
0000
,
0110
0000
0000
0000
;

//--------------- dance-single - XLev450X。-BSP ----------------
#NOTES:
     dance-single:
     XLev450X。:
     Easy:
     5:
     0,0,0,0,0:
0000
0000
0000
0000
,
0000
0000
0000
0000
,
0000
0000
0000
0000
,
1000
1000
0000
0000
,
0001
0001
0000
0000
,
0010
0010
0000
0000
,
0100
0100
0001
0000
,
1000
0010
0000
0000
,
0100
0001
0000
0000
,
1000
0010
0000
0000
,
0100
0010
1000
0000
,
0001
0000
1000
0000
,
0010
1000
0001
0000
,
0100
0000
0010
0000
,
0001
1000
0010
0100
,
1000
0001
0100
0000
,
0010
0000
1000
0000
,
0010
1000
0001
0100
,
0010
1000
0001
0100
,
0002
0000
0000
0003
2000
0000
0000
3000
,
0020
0000
0000
0030
,
0200
0300
0002
0003
,
2000
0000
0000
3000
,
2000
3000
0020
0030
,
2000
0000
0000
3000
,
0200
0300
0002
0003
,
2002
0000
0000
3003
,
0001
0000
1000
0000
,
0010
0000
0000
0000
,
1000
0000
0001
0000
,
0100
0000
0000
0000
,
1000
0000
0010
0000
,
0100
0000
0001
0000
,
1000
0000
0000
0001
,
0000
0000
0100
0000
,
0000
0010
0000
1000
,
0000
0001
0100
0010
,
0000
1000
0000
0001
,
0000
0100
0001
0100
,
0000
0001
0000
1000
,
0000
0010
0100
1000
,
0001
0000
0000
0000
0100
0000
0000
0020
,
0000
0000
0000
0030
,
0001
0000
1000
0000
,
0001
0000
0100
0000
,
0010
0000
1000
0000
,
0001
0000
0100
0001
,
1000
0000
0010
0000
,
1000
0000
0100
0000
,
0001
0000
1000
0000
,
0010
0000
0000
0000
,
0001
0000
1000
0000
,
0001
1000
0010
0000
,
0100
0000
1000
0000
,
0001
0000
0000
0000
,
0100
0000
0001
0000
,
1000
0000
0010
0000
,
1000
0010
0100
0000
,
0001
0000
0000
0000
,
0001
0001
1000
0000
,
1000
1000
0010
0100
,
0001
1000
0010
0000
,
2002
0000
0000
3003
,
0001
1000
0010
0000
,
1000
0010
0100
0000
,
0001
1000
0010
0000
,
0100
0001
1000
0010
,
1000
1000
0001
0000
,
0100
0010
0100
0000
,
0001
0000
1000
0000
,
0010
1000
0010
0100
,
0002
0000
0003
0000
,
2000
0000
3000
0000
,
0020
0000
0030
0000
,
0200
0000
0300
0000
,
2002
0000
0000
0000
,
0000
0000
0000
0000
0000
0000
0000
3003
;

//--------------- dance-single - XLev450X。-DSP ----------------
#NOTES:
     dance-single:
     XLev450X。:
     Medium:
     8:
     0,0,0,0,0:
0000
0000
0000
0000
,
0000
0000
0000
0000
,
0000
0000
0000
0000
,
0001
1000
0000
0000
,
0010
0100
0000
0000
,
1000
0100
0000
0000
,
0001
0010
0100
0000
,
1000
0001
0000
0000
,
0100
0010
0000
0000
,
1000
0101
0000
0000
,
0010
1000
0010
0000
,
1000
0001
1000
0000
,
0100
0000
0001
0000
,
0010
1000
0010
0100
,
0001
0000
1000
0001
0100
0000
0010
0000
,
1000
0001
0100
0000
,
0010
0001
1000
0000
,
0010
1000
0001
0100
,
0010
0000
1000
0000
0001
0010
0001
0000
,
2000
0000
0000
3000
0002
0000
0000
0003
,
0200
0000
0000
0000
0000
0300
0000
0000
,
1000
0000
0001
0100
,
0010
0000
1000
0000
,
0001
0000
1000
0001
,
0100
0000
0000
1000
,
0010
0000
0100
0010
0000
0001
0000
1000
,
0202
0000
0000
0000
0000
0000
0000
0303
,
1000
0010
1000
0000
,
0100
0000
0001
0100
,
0010
1000
0001
0000
,
0010
0000
0001
0000
1000
0001
0100
0000
,
0010
1000
0010
0000
,
1000
0001
0100
0010
,
1000
0000
0000
0101
0000
0000
0010
0000
,
0000
1010
0000
0000
0100
0000
0001
0000
,
0000
1000
1000
0001
,
0100
0010
1000
0001
,
0000
0100
0100
0001
,
1000
0010
0100
0001
,
0000
1000
0010
1000
,
0001
0100
0010
1000
,
0001
0000
0000
0000
1000
0000
0010
0200
,
0000
0000
0000
0000
0000
0000
0000
0300
,
0001
0000
1000
0000
0010
0000
1000
0001
,
0100
0001
1000
0000
,
0010
0000
0001
0010
0001
0000
1000
0100
,
1000
0000
0010
0100
0010
0000
1000
0000
,
0001
0000
0100
0010
,
1000
0000
0001
0100
,
0010
0000
0100
0000
1000
0001
0000
0100
,
0101
0010
1010
0000
,
0010
0000
0100
0000
0010
1000
0010
0000
,
0100
0001
1000
0000
,
0001
0000
0100
0000
1000
0001
1000
0000
,
0100
0000
0010
1000
,
0010
1000
0010
0000
0100
0001
0100
0000
,
0010
1000
0001
0000
,
0100
0000
1000
0000
,
0001
0100
0010
0000
,
0001
1000
0001
0100
,
0010
1000
0010
0000
,
0100
0001
1000
0010
,
0200
0000
0000
0000
0000
0000
0000
0300
,
0001
1000
0010
0000
,
1000
0000
0001
0000
1000
0000
0001
0100
,
0001
1000
0010
0000
,
0100
0000
0010
0000
1000
0000
0001
0100
,
0010
1000
0010
0000
,
1000
0001
0100
0000
,
1000
0010
1000
0001
,
0100
0000
0010
1000
0010
0000
0100
0000
,
0001
0000
0000
1000
0000
0000
0001
0000
,
0000
0010
0000
0000
0001
1000
0100
0000
,
0001
0000
0000
0100
0000
0000
0010
0000
,
0000
1000
0000
0000
0001
0100
0010
1000
,
0020
0000
0000
0000
,
0000
0000
0000
0000
0000
0000
0000
0030
;

//--------------- dance-single - XLev450X。-ESP ----------------
#NOTES:
     dance-single:
     XLev450X。:
     Hard:
     11:
     0,0,0,0,0:
0000
0000
0000
0000
,
0000
0000
0000
0000
,
0000
0000
0000
0000
,
0001
0000
0002
0000
0003
0000
0000
0010
,
1000
2000
3000
0000
,
0001
0000
2000
0000
3000
0000
0000
1000
,
0010
0000
0100
0000
0001
0000
1000
0010
,
0100
0000
0002
0000
0003
0000
0000
0001
,
1000
0000
0020
0000
0030
0100
0000
0001
,
1000
0002
0003
0000
,
0010
0000
1000
0000
0001
1000
0001
0010
,
0100
0000
1000
0000
0001
0000
0000
1000
,
0001
0100
0010
0000
,
0010
0000
1000
0000
0001
0000
0000
1000
,
0010
0000
0100
0000
0001
0000
1000
0010
,
0100
0000
0001
0000
0010
0000
0000
0001
,
1000
0010
0100
0000
,
1000
0000
0001
0000
0100
0001
0100
0010
,
1000
0001
0010
1000
0100
0001
1000
0010
,
0200
0000
0000
0300
0002
0000
0000
0003
,
2000
0000
0000
0000
0000
3000
0100
0010
,
1000
0000
0001
0100
0000
0010
0000
1000
,
0000
0002
0000
0003
0100
0001
1000
0100
,
2000
0000
0000
3000
0020
0000
0000
0030
,
0200
0000
0000
0000
0000
0300
1000
0001
,
0100
0000
0010
1000
0000
0001
0000
0202
,
0000
0000
0000
0000
0000
0303
0000
0000
,
1000
0000
1000
0001
1000
0000
0010
0100
,
0000
1000
0000
0200
0000
0000
0310
0000
,
0100
0000
0001
1000
0010
0000
0100
0001
,
0000
1000
0000
0020
0000
0000
0130
0000
,
0001
0000
1000
0001
0100
0000
0010
1000
,
0000
0001
0000
0010
0100
0000
1000
0010
,
0100
0000
0010
2000
0000
3000
0001
0000
,
0100
0020
0030
0100
1000
0100
0002
0000
,
1003
0000
0000
0000
1000
0001
1000
0000
0100
0000
0000
0001
0010
0000
0001
0000
,
0100
0000
1000
0000
0001
1000
0200
0000
,
0301
0000
0000
0000
0010
1000
0010
0000
0100
0000
0000
0100
0001
0000
0010
0000
,
1000
0100
0001
1000
0100
0001
0020
0000
,
1030
0000
0000
0000
1000
0010
1000
0000
0010
0000
0000
0010
0100
0000
1000
0000
,
0001
1000
0100
0001
0010
0001
1000
0000
,
0001
0000
0100
0010
0000
0001
0100
2000
,
0000
0000
0000
3000
0001
0000
1000
0000
,
0010
0000
0100
0010
0000
0001
0010
1000
,
0001
0000
0100
0000
0001
0000
1000
0001
,
0020
0030
0000
0010
2000
0000
3000
0001
,
0100
0000
0010
0000
1000
0000
0001
0000
0100
0000
0000
0001
0000
0000
0100
0000
,
2000
0000
3000
0001
1000
0000
0010
0000
,
0200
0000
0300
0001
0020
0000
0030
0001
,
1000
0000
0010
1000
0000
0001
0010
0200
,
0300
0000
0001
0000
0200
0000
0300
0000
0001
0010
1000
0000
0100
0000
0010
0000
,
0001
0000
1000
0010
0000
0100
0000
0001
,
0000
0100
2000
0000
3001
0000
0010
1000
,
0010
0000
0100
0000
1000
0000
0010
0001
,
0020
0000
0030
0100
1000
0001
1000
0100
,
0001
0000
1000
0001
0200
0000
0000
0000
0310
0000
0000
0000
0001
0000
0000
0000
,
2000
0000
3000
0001
2000
0000
3000
0001
,
0010
0000
0100
0001
0000
1000
0010
0000
,
0101
0000
1010
0000
0010
0001
0010
0000
,
1000
0100
0001
0010
0100
0000
1000
0001
,
0020
0030
1000
0100
,
0010
0001
0010
0100
0000
0010
1000
0000
,
0010
0100
0001
0100
2000
0001
0010
3000
,
0010
0000
1000
0000
0001
0000
0000
0100
,
0001
1000
0010
0000
,
1000
0000
0010
0000
0100
0000
0000
0001
,
1000
0000
0010
0000
0001
0010
0001
1000
,
0010
0000
0100
0000
0001
0000
0000
1000
,
0001
1000
0010
0000
,
1000
0000
0001
0100
0000
0010
1000
0000
,
0010
0100
0000
0010
0001
0010
1000
0100
,
0001
0000
0100
0000
,
1000
0000
0010
0000
,
1000
0000
0001
0000
,
0010
0000
1000
0000
0001
0100
0010
1000
,
0020
0000
0000
0000
,
0000
0000
0000
0000
0000
0000
0000
0030
;
