#TITLE:Remember Me;
#ARTIST:Leslie Parrish;
#GENRE:SUPER EUROBEAT;
#MUSIC:Remember Me.ogg;
#BANNER:Remember Me.png;
#BACKGROUND:Remember Me-bg.png;
#CDTITLE:./CDTitles/StepManiaX.png;
#SAMPLESTART:39.352;
#SAMPLELENGTH:15;
#OFFSET:-0.332;
#BPMS:0=153.766;
#DISPLAYBPM:153;
#BGSTAGE:17;

//--------------- dance-single - XLev450X-bSP ----------------
#NOTES:
     dance-single:
     XLev450X:
     Beginner:
     3:
     0,0,0,0,0:
0000
0000
0000
0000
,
0000
0000
0000
0000
,
0000
0000
0000
0000
,
0000
0000
0000
0000
,
0000
0000
0000
1000
,
0000
1000
0000
1000
,
0000
0000
0000
0001
,
0000
0001
0000
0001
,
0000
0000
0000
1000
,
0000
0001
0000
1000
,
0000
0000
0000
0001
,
0000
1000
0000
0001
,
0000
0000
0000
1000
,
0000
0000
0000
0001
,
0000
0000
0000
1000
,
0000
0001
0000
1000
,
0000
0000
0000
1000
,
0000
1000
0000
1000
,
0000
0000
0000
0001
,
0000
1000
0000
0001
,
0000
0000
0000
1000
,
0000
1000
0000
1000
,
0000
0001
0000
0001
,
0000
0001
0000
1000
,
0000
0001
0000
0000
,
0000
0000
0000
1000
,
0000
0001
0000
1000
,
0000
0000
0000
0001
,
0000
1000
0000
0001
,
0000
0000
0000
1000
,
0000
1000
0000
1000
,
0000
1000
0000
0001
,
0000
1000
0000
0001
,
0000
0000
0000
0001
,
0000
1000
0000
0001
,
1000
1000
0000
0001
,
0000
1000
0000
0001
,
1000
1000
0001
1000
,
0000
0001
0000
1000
,
0000
0001
0000
1000
,
0000
0001
0000
1000
,
0001
1000
0000
1001
,
0000
0000
0000
0000
,
0000
0000
0000
0000
,
0000
0000
0000
0000
,
0000
0000
0000
0000
,
0000
0000
0000
0000
,
0000
0000
0000
0000
,
0000
0000
0000
0000
,
0000
0000
0000
1000
,
1000
1000
0000
0001
,
0001
0001
0000
1000
,
0001
1000
0001
1000
,
0000
0001
0000
1000
,
0001
0000
1000
0001
,
1000
0000
0000
0001
,
1000
0001
0000
1000
,
0001
1000
0000
1001
;

//--------------- dance-single - XLev450X-BSP ----------------
#NOTES:
     dance-single:
     XLev450X:
     Easy:
     5:
     0,0,0,0,0:
0000
0000
0000
0000
,
0000
0000
0000
0000
,
0000
0000
0000
0000
,
0000
0000
0000
0000
,
0000
0000
0000
0001
,
1000
1001
0000
0010
,
1000
0110
0000
1000
,
0001
0100
1000
0001
,
0100
0000
0020
0000
0000
0030
0001
0000
,
0001
0001
0001
0001
,
0001
0001
1000
0010
,
1000
0010
1000
1000
,
1000
1000
0001
0100
,
1000
0000
0001
0010
0001
0000
1000
0000
,
0100
0000
1000
0000
0100
0000
0010
1000
,
0010
0100
0001
0100
,
0000
0010
0000
0000
1000
0000
0001
0000
,
1000
0000
1000
0000
0010
1000
0000
0001
,
0000
0100
0010
0000
0100
0000
1000
0000
,
0001
0010
0000
1000
,
0100
0001
0000
1000
,
0001
0000
0100
0000
1000
0000
0010
1000
,
0010
0100
0001
0100
,
0010
1000
0000
0001
,
0100
0000
0010
0000
0001
0020
0000
0000
,
0000
0000
0000
0000
0000
0030
0001
0000
,
0001
1000
0010
1000
,
0100
1000
0000
1000
,
0001
0100
0010
1000
,
0010
0100
0000
1001
,
0000
1001
0000
0000
1001
0000
0010
0000
,
1000
0100
0000
1000
,
0001
0100
0010
1000
,
0001
0010
0000
0001
,
1000
0010
0000
0100
,
1000
0001
0100
1000
,
0010
0100
0000
0001
,
0010
1000
0001
0110
,
0000
0110
0000
0000
0110
0000
1000
0000
,
0100
1000
0100
0010
,
1000
0001
0010
0100
,
0010
0000
2000
0000
0000
3000
0001
0000
,
0000
1000
0000
0001
,
0000
0100
0010
0100
,
0000
1000
0000
0001
,
0000
0100
1000
0010
,
0000
0100
0000
0001
,
0000
1000
0010
0100
,
0000
0001
0000
1000
,
0010
0100
0000
0001
,
1000
0001
1000
0010
,
0100
1000
0001
0100
,
1000
0010
1000
0001
,
0010
0100
0000
1000
,
0010
1000
0001
0100
,
1000
0001
0100
0010
,
1000
0010
0100
0001
,
0010
0100
0010
1001
;

//--------------- dance-single - XLev450X-DSP ----------------
#NOTES:
     dance-single:
     XLev450X:
     Medium:
     8:
     0,0,0,0,0:
0000
0000
0000
0000
,
0000
0000
0000
0000
,
0000
0000
0000
0000
,
0000
0000
0000
0000
,
0000
0000
0000
0010
,
1000
0000
0001
0010
0001
0000
0100
0000
,
1000
0000
0001
0100
0001
0000
1000
0000
,
0010
0000
1000
0000
0010
0000
0100
0001
,
0010
0100
2002
0000
0000
3003
0010
0000
,
1000
0010
0100
0001
,
0010
1000
0000
0010
0000
0100
0001
0000
,
0001
1000
0010
0100
,
1000
0010
0000
0100
0000
1000
0001
0000
,
0000
0010
1000
0010
,
0100
0010
0000
1000
0001
0010
0001
0000
,
1000
0100
1000
0001
,
1000
0010
0000
0001
,
1000
0000
0010
1000
0010
0000
0100
0000
,
0001
0000
0010
0001
0010
0000
0100
0000
,
0010
1000
0010
0001
,
0010
0000
1000
0001
0010
0000
1000
0000
,
0010
0010
0010
0100
,
1000
0000
0001
0000
0010
0000
0001
0010
,
0001
0000
1000
0100
1000
0000
0010
0000
,
0100
0000
0010
1000
0010
0100
0000
0000
,
0011
0000
1100
0000
0010
0100
0001
0000
,
1000
0000
0010
0100
1000
0000
0001
0000
,
0010
0100
0001
1000
,
0010
1000
0000
0001
,
0010
0000
1000
0001
0010
0000
1001
0000
,
0010
1001
0000
0100
1001
0000
0010
0000
,
1000
0000
0010
1000
0010
0000
0100
0000
,
1000
0000
0010
0000
1000
0010
0011
0000
,
0000
1100
0000
0000
0110
0000
0001
0000
,
1000
0000
0010
1000
0010
0000
0100
0000
,
1000
0001
0000
0100
,
1000
0001
0100
0010
,
1000
0010
0100
0000
0100
0000
1001
0000
,
0100
1001
0000
0100
1001
0000
0100
0000
,
0001
0000
1000
0000
0100
1000
0001
0000
,
1000
0000
0010
0000
0100
0000
0010
0001
,
0010
0100
2002
0000
0000
3003
0001
0000
,
0000
1000
0000
0000
0010
0000
0100
0000
,
0000
0001
0000
0000
1000
0000
0010
0000
,
0000
1000
0000
0000
0001
0000
0100
0000
,
0000
0010
0000
0000
1000
0000
0001
0000
,
1000
0000
0010
0000
1000
0000
0010
0001
,
0010
0000
0100
1000
0100
0000
0010
0000
,
0100
0000
0001
1000
0000
0010
0000
0100
,
0010
0100
2002
0000
0000
3003
0001
0000
,
1000
0000
0010
0000
1000
0010
0100
0000
,
0001
0000
0010
0000
0001
0000
1000
0010
,
0001
0000
2002
3003
0220
0330
0010
0000
,
0010
0000
1000
0010
1000
0000
0010
0000
,
0100
0000
1000
0001
0100
0000
0010
0000
,
1000
0000
0001
0010
0001
0000
1000
0000
,
0100
0000
1000
0001
0010
0000
1000
0001
,
0100
0010
1000
0001
0010
0000
1001
0000
;

//--------------- dance-single - XLev450X-ESP ----------------
#NOTES:
     dance-single:
     XLev450X:
     Hard:
     12:
     0,0,0,0,0:
0000
0000
0000
0000
,
0000
0000
0000
0000
,
0000
0000
0000
0000
,
0000
0000
0000
0000
,
0000
0000
0000
0001
,
1000
0000
0000
0000
0010
0000
0000
0100
0000
0000
0001
0000
0010
0000
0001
0000
,
1000
0000
0010
0000
0100
0000
0000
0001
0000
0000
0100
0000
1000
0000
0000
0000
,
0010
0000
0000
0000
1000
0000
0000
0001
0000
0000
0010
0000
0001
0010
0001
0000
,
1000
0010
0200
0000
0000
0300
0001
0000
,
1000
0000
0010
0001
0010
0001
0010
0000
,
1000
0100
0000
0001
0000
1000
0001
0000
,
0101
1010
0010
0100
,
0001
0000
1000
0000
0000
0000
0010
0000
0000
0000
1000
0001
0100
0000
0000
0000
,
0010
1000
0010
0000
0100
0000
0010
0001
,
0010
0001
0000
1000
0001
0100
0000
1000
,
0001
0000
0000
0000
0100
0000
0010
0000
1000
0000
0000
0000
0001
0100
0000
1000
,
0100
0000
0010
0001
1000
0000
0001
0000
0010
0000
0000
0000
0001
0000
0000
0000
,
1000
0000
0010
0000
0001
1000
0000
0110
,
0000
0001
0010
0000
1000
0000
0100
1000
,
0001
0000
0100
0000
0010
0000
1000
0010
,
1000
0000
0000
0001
0010
0001
1000
0000
,
0101
0000
1010
0000
0010
0001
0010
0010
,
0100
1000
0000
0001
0010
0100
0000
1000
,
0001
0000
1000
0000
0010
0100
0001
0000
,
1000
0000
0000
0000
0010
0000
0000
0100
0000
0000
2001
0000
0000
0000
0000
0000
,
0001
0000
0001
0000
0001
3001
0001
0000
,
1000
0000
0010
1000
0100
1000
0000
0010
,
0001
0000
0101
0000
0010
1000
0000
0001
,
0010
1000
0010
0100
0000
0001
0000
1000
,
0100
0010
0100
0110
,
1001
0110
0000
1001
0100
0110
0001
0000
,
1000
0000
0010
0001
1000
0000
0001
0000
,
1000
0000
0000
0000
0100
0000
0001
0000
0010
0000
0001
0000
1000
0000
0000
0001
,
0000
0000
0100
0000
0000
1000
0000
0000
0010
0000
0001
0000
1000
0000
0000
0000
,
0010
0000
1000
0001
0010
0001
0000
0100
,
0001
0000
1000
0000
0010
1000
0000
0001
,
0010
1000
0001
0100
0000
0101
0000
0010
,
1000
0010
0100
0000
0010
0000
1001
0000
,
0110
1001
0000
0110
0100
1001
0010
1000
,
0100
0000
0010
0001
0010
1000
0000
0001
,
0000
0000
0100
0000
0010
0000
1000
0000
0001
0000
0000
0000
0010
1000
0001
0000
,
0010
0000
1000
0001
0010
1000
0200
0000
0001
0000
0300
0000
0001
0000
0000
1000
,
0000
0000
0010
0000
0100
0000
0000
0001
0000
0000
1000
0000
0010
0000
0000
0100
,
0000
0000
1000
0000
0001
0000
0000
0100
0000
0000
0010
0000
1000
0000
0000
0001
,
0000
0000
0100
0000
0010
0000
0000
1000
0000
0000
0001
0000
0010
0000
0000
1000
,
0000
0000
0001
0000
0100
0000
0000
0010
0000
0000
1000
0000
0001
0000
0000
0000
,
1000
0000
0001
0000
0010
0001
0010
0000
,
1000
0000
0000
0000
0001
0000
0000
0000
0100
0000
0001
0000
1000
0000
0000
0001
,
0000
0100
0010
1000
0001
0100
0000
0010
,
1000
0000
0001
1000
0020
0000
0000
0000
0000
0000
0030
0000
0001
0000
0000
0000
,
1000
0000
0000
0000
0010
0000
0000
1000
0000
0000
0001
0000
0100
0000
0010
0000
,
0001
0010
0000
1000
0100
0000
1000
0000
,
0001
0000
0000
0000
0100
0000
0000
0010
0000
0000
1000
0000
0001
0000
0010
0000
,
0001
0000
0010
0000
0000
0000
0001
0000
0010
0100
1000
0000
0100
0000
0000
0000
,
0001
0000
0000
0000
0100
0000
0000
1000
0000
0000
0010
0000
0100
0000
0010
0000
,
1000
0001
0000
0100
1000
0010
0100
0000
,
0001
0000
0000
0000
1000
0000
0000
0100
0000
0000
0010
0000
0001
0010
0001
0000
,
1000
0000
0100
1000
0100
0000
0010
0000
0100
0010
0001
0010
1001
0000
0000
0000
;

//--------------- dance-single - XLev450X!-CSP ----------------
#NOTES:
     dance-single:
     XLev450X!:
     Challenge:
     14:
     0,0,0,0,0:
0000
0000
0000
0000
,
0000
0000
0000
0000
,
0000
0000
0000
0000
,
0000
0000
0000
0000
,
0000
0000
0000
1001
,
0010
0000
1000
0010
0000
1000
0001
0000
0100
0001
0100
0001
1000
0001
0100
0001
,
1000
0000
0001
0010
0000
0001
1000
0000
0100
1000
0100
1000
0001
0000
0000
0000
,
0100
0000
0001
0100
0000
0001
1000
0000
0100
1000
0100
1000
0001
1000
0001
0000
,
0100
0000
0001
1000
0000
0000
0000
0000
0000
0000
0000
0000
0001
0000
1000
0000
,
0100
1000
0010
1000
0001
1000
0010
0100
,
0001
0000
0020
0000
0000
0000
0230
0000
0000
0000
1300
0000
0010
1000
0001
0000
,
0100
0001
0100
0001
1000
0001
0100
0010
,
1000
0200
0000
0320
0000
0031
1000
0100
,
0010
0001
1000
1000
0010
0100
0001
0010
,
0100
0000
1000
0000
0001
0000
0010
0000
0100
0000
1000
0001
1000
0000
0001
0000
,
0001
0000
1000
0000
0010
0000
0100
0000
0001
0000
0100
0000
0001
1000
0000
0001
,
0010
0000
0100
1000
0000
0010
0100
0000
0001
0000
1000
0000
0200
0000
0000
0000
,
0320
0000
0032
0000
1003
0100
1000
0001
,
0100
0010
1000
0001
0010
0100
2000
0000
,
3020
0000
0230
0000
0301
0100
0001
1000
,
0100
0000
1000
0100
1000
0000
0001
1000
0001
1000
0001
1000
0001
0000
1000
0000
,
0100
0010
0001
0001
1000
0001
0100
0010
,
0100
0000
0001
0000
0100
0000
0001
0000
1000
0010
0100
0001
1000
0000
0100
0000
,
1000
0001
0010
0100
1000
1000
0001
1000
,
0010
0000
0100
0000
0000
0000
0001
0100
0010
0000
2002
0000
0000
0000
0000
0000
,
3003
0000
0000
0000
0000
0000
0001
1000
,
0001
0100
1000
0100
0001
1000
0000
0001
,
1000
0100
0010
0001
0100
0010
0000
1000
,
0010
0100
0001
1000
0100
0010
0000
0001
,
0010
0000
0100
1000
0100
0000
1000
0000
0001
0000
0000
0000
1001
0000
0100
0000
,
0010
1001
0100
0010
1001
0000
1000
0001
,
0100
0001
1000
1000
0001
0020
0000
0031
,
0000
0000
1000
0000
0100
0000
1000
0000
0001
0000
1000
0000
0100
1000
0000
0010
,
0100
0000
0001
0100
0000
0001
1000
0000
0010
0000
1000
0000
1010
0000
0000
0000
,
0001
0010
0001
0000
1000
0100
1000
0000
0001
0000
0100
0000
0010
0000
1000
0000
,
0001
1000
0001
0000
0010
0000
0100
0000
1000
0000
0010
1000
0010
0000
0100
0000
,
0001
0010
0001
0000
1000
0000
0100
0000
0010
0000
0001
1000
0001
0000
1000
0000
,
0010
0000
1000
0001
0100
0000
0001
0000
1000
0000
0000
0000
1001
0000
0010
0000
,
0100
1001
0010
0100
1001
0000
0001
1000
,
0010
1000
0001
0010
0100
2000
0000
3100
,
1000
0000
0001
0000
0100
0000
0001
0000
0100
0000
0010
0000
1000
0100
0000
0010
,
0001
0000
0010
0100
1000
0000
0100
0000
1000
0000
0001
0000
1000
0000
0010
0000
,
0100
0001
1000
0010
0100
0001
1000
0010
,
0100
0001
1000
1000
0010
0100
0001
0010
,
0100
1000
0001
0010
0100
1000
0001
0100
,
0100
1000
0001
0001
0010
0100
1000
0010
,
0100
0001
1000
0100
0010
0001
1000
0010
,
0100
0001
0010
0100
1000
0010
0200
0000
,
0301
0020
0000
0130
1000
0020
0000
1030
,
0001
0200
0020
0000
0330
0000
1001
0000
,
0100
0000
0001
0100
0000
0001
1000
0000
0010
1000
0010
1000
0100
1000
0001
1000
,
0100
0000
1000
0010
0000
0100
0001
0000
1000
0001
0010
0001
1000
0000
0000
0000
,
0010
0000
1000
0100
0000
0010
0001
0000
0100
0001
0100
0001
0010
0001
1000
0001
,
0010
0000
0001
0100
0000
0010
0100
0000
0001
1000
0100
1000
0001
0000
0000
0000
,
1000
0000
0001
0010
0000
0100
1000
0000
0100
1000
0100
1000
0010
1000
0001
1000
,
0010
0000
1000
0001
0000
1000
0100
0000
1000
0001
1000
0001
0010
0000
0000
0000
,
0001
0000
1000
0010
0000
0100
0001
0000
1000
0001
1000
0001
0100
0001
1000
0000
,
0100
0000
1000
0100
0000
1000
0001
1000
0001
1000
0001
1000
0001
0000
0000
0000
;
