#TITLE:Recession;
#ARTIST:Jeff Allen Ft. Naoko & Noelle;
#MUSIC:Recession.ogg;
#BANNER:Recession.png;
#BACKGROUND:Recession-bg.png;
#SAMPLESTART:17.732;
#SAMPLELENGTH:15;
#OFFSET:-0.081;
#BPMS:0=136;

//--------------- dance-single - XLev450X-bSP ----------------
#NOTES:
     dance-single:
     XLev450X:
     Beginner:
     4:
     0,0,0,0,0:
0000
0000
0000
0000
,
0000
0000
0000
0000
,
0000
0000
0000
0000
,
0000
0000
0000
0000
,
0000
0000
0000
0000
,
0000
0000
0000
0000
,
0000
0000
0000
0000
,
0000
0000
0000
0000
,
0000
0000
0000
0000
,
0000
0000
0001
0000
,
0001
0000
0000
0000
,
1000
0000
1000
0000
,
0010
0000
0100
0000
,
0000
0000
0001
0000
,
1000
0000
0100
0000
,
0000
0000
0001
0000
,
0100
0000
1000
0000
,
0000
0000
0010
0000
,
0010
0000
0010
0000
,
0000
0000
1000
0000
,
0010
0000
0100
0000
,
0000
0000
1000
0010
,
0100
0001
0100
1000
,
0010
0100
0001
0000
,
1000
0000
0001
0000
,
1000
0000
0010
0000
,
0100
0000
0010
0000
,
0000
0000
0001
1000
,
0100
0010
1000
0001
,
0100
0010
0100
0000
,
0000
0000
0000
0000
,
0000
0000
0001
0001
,
0001
0000
1000
1000
,
1000
0000
0100
1000
,
0100
0000
0010
0001
,
0010
0000
0100
1000
,
0001
0010
0100
0010
,
1000
0000
0010
1000
,
0100
0010
0001
0000
,
0000
0000
1000
1000
,
1000
0000
0100
0010
,
0100
0000
0001
0001
,
0001
0000
0010
0100
,
0010
0000
1000
0000
,
0001
1000
0100
0000
,
0010
0001
1000
0000
,
0100
0010
0001
0000
,
0000
0000
1001
0000
,
0000
0000
0000
0011
,
0000
0000
0000
0000
,
1100
0000
0000
0000
,
0000
0010
0010
0010
,
0000
1000
1000
1000
,
0000
0001
0001
0001
,
0000
0100
0010
1000
,
0001
0000
0000
0000
,
0000
0000
0000
0000
,
0000
1000
0001
1000
,
0100
0010
0001
0000
,
1000
0000
0001
0000
,
0100
0010
1000
0010
,
0001
1000
0100
0010
,
0000
1000
0100
0000
,
0000
0001
0010
1000
,
0100
0010
0001
1000
,
0100
0010
1000
0000
,
0000
0001
1000
0100
,
0010
0001
1000
0100
,
0010
1000
0001
0000
,
0000
0110
0000
0000
,
0000
0000
0000
1001
,
0000
0000
0000
0000
0000
0000
0000
1001
;

//--------------- dance-single - XLev450X-BSP ----------------
#NOTES:
     dance-single:
     XLev450X:
     Easy:
     8:
     0,0,0,0,0:
0000
0000
0000
0000
,
0000
0000
0000
0000
,
0000
0000
0000
0000
,
1000
0001
1000
0010
,
1000
0000
0001
0010
1000
0000
0001
0000
,
1000
0000
0010
1000
0001
0100
0010
1000
,
0001
0000
1000
0000
0100
0000
0001
0000
1000
0000
0100
0000
,
0010
0000
0001
0000
1000
0000
0001
0000
0000
1000
0000
0000
,
0010
0000
0000
1000
0000
0001
0000
0100
,
0010
0000
0000
1000
0000
0000
0000
0000
0001
0000
0000
0000
1000
0000
0000
0000
,
0010
0000
0100
0000
0001
0000
0100
0000
0000
0001
0000
0000
1000
0000
0000
0000
,
0010
1000
0000
0000
0010
0000
1000
0000
,
0010
0001
0010
0001
0000
1000
0010
0000
,
1000
0000
0000
0000
0010
0000
0100
0010
,
0100
0000
0000
0000
0010
0000
0001
0010
,
0001
0000
1000
0010
,
1000
0010
0100
0001
0000
0000
1000
0000
,
0010
0000
0100
0000
0010
0010
0010
0000
,
0001
0001
0001
0000
1000
1000
0010
1000
,
0010
0100
0001
0000
0100
0100
0001
0000
,
1000
1000
0010
0000
0100
0010
1000
0000
,
0001
0000
1000
0000
0010
1000
0001
0000
,
0010
0001
1000
0010
,
0100
0010
1000
0010
0100
0000
0001
0000
,
1000
0000
0001
0000
0100
0010
0001
0000
,
1000
0000
0010
0000
1000
0010
1000
0000
,
0100
0001
0100
0010
1000
0000
0000
0000
,
0000
0000
0001
0000
0010
0000
0000
0100
,
0010
1000
0001
0100
,
0010
1000
0010
0000
0001
0000
0100
0000
,
0010
0000
1000
0000
0010
0000
1000
0001
,
0100
0010
0000
0000
0001
0000
1000
0000
,
0010
0000
0100
0000
0010
0001
0010
0001
,
1000
0010
0100
0000
1000
0000
0001
0000
,
1000
0000
0010
0000
1000
0010
0100
0001
,
1000
0000
1000
0010
,
0100
0000
0010
0000
0001
1000
0001
0000
,
0100
0001
0100
0000
0010
1000
0010
0100
,
0001
1000
0010
0000
0010
0000
1000
0000
,
0010
0000
0001
0000
0001
0001
0001
0001
,
0001
0001
1000
0000
0010
0000
0100
0010
,
0100
0000
0001
0000
1000
1000
1000
1000
,
1000
1000
0010
0000
0100
0000
0010
0000
,
1000
0001
0100
0000
0010
0010
0010
0100
,
0100
0100
0001
1000
0001
0100
0010
0000
,
1000
0010
1000
0000
0100
0100
1000
1000
,
0001
0001
0100
0000
0010
0000
1000
0000
,
0010
0001
0010
0000
1000
0000
0001
0000
,
0100
1000
0100
1000
0100
0001
0010
0000
,
1000
0000
0001
0100
0010
1000
0001
0000
,
0100
0000
0010
0000
1000
0010
1000
0010
,
0100
0000
0001
0000
0010
0000
0000
1000
0000
0000
0001
0000
0000
0010
0000
0000
,
1000
0000
0000
0010
0000
0000
0100
0000
0001
0000
0010
0000
1000
0000
0000
0001
,
0000
0000
0100
0000
0000
0010
0000
0000
1000
0000
0000
0010
0000
0000
0100
0000
,
0001
0000
1000
0000
0010
0000
0000
0100
0000
0000
0001
0000
0000
1000
0000
0000
,
0020
0000
0000
2000
,
0000
0000
0000
0000
0000
0000
3030
0000
0001
0000
0000
0100
0000
0000
0010
0000
,
1000
0000
0001
0000
0010
0000
0000
0001
0000
0000
1000
0000
0010
0000
0100
0000
,
0001
0000
0000
0100
0000
0000
1000
0000
0010
0000
0001
0000
0100
0000
0000
0010
,
0000
0001
1000
0100
0001
0010
1000
0000
,
0010
1000
0010
0000
0100
0000
0010
0001
,
0010
0000
1000
0000
0100
0010
1000
0000
,
0001
0000
0100
0010
1000
0000
0001
0000
,
0100
0000
0000
0000
1000
0000
0000
0001
0000
0000
0100
0000
0010
0000
1000
0000
,
0001
0000
0000
0100
0000
0000
0010
0000
1000
0000
0001
0000
0010
0000
0000
0010
,
0000
0001
1000
0010
0001
0000
1000
0000
,
0010
0000
1000
0000
0010
0000
0000
0100
0000
0000
0001
0000
1000
0000
0010
0000
,
0100
0000
0000
0001
0000
0000
1000
0000
0001
0000
0100
0000
0010
0000
0000
1000
,
0000
0000
0100
0000
0001
0000
0010
0000
1000
0000
0000
0010
0000
0000
0100
0000
,
0001
0000
0000
1000
0000
0000
0010
0000
0000
0000
1000
0000
0000
0000
0001
0000
0000
0000
0100
0000
0000
0000
0010
0000
,
0000
1000
0000
0001
0000
0100
0000
0010
0000
1000
0000
0000
,
0001
0000
1000
0000
0000
0010
0000
0200
,
0000
0000
0000
0000
,
0000
0000
0000
0000
,
0000
0000
0000
0000
,
0000
0000
0000
0000
0000
0000
0000
0300
;

//--------------- dance-single - XLev450X-DSP ----------------
#NOTES:
     dance-single:
     XLev450X:
     Medium:
     12:
     0,0,0,0,0:
0000
0000
0000
0000
,
0000
0000
0000
0000
,
0000
0000
0000
0000
,
1000
0000
0000
0001
0000
0000
1000
0000
0010
0000
0100
0000
0001
0000
0000
1000
,
0000
0000
0010
0000
0100
0000
0001
0000
1000
0000
0000
0010
0000
0000
0100
0000
,
0001
0000
1000
0000
0010
0100
0010
0000
1000
0100
0001
0000
1000
0001
0010
0001
,
1000
0000
0001
0000
0100
0000
0010
0000
1000
0000
0001
0000
,
0100
0000
0000
0000
0010
0000
0000
0000
1000
0000
0000
0000
0001
0000
0000
1000
0000
0000
0010
0000
0000
0000
0000
0000
,
1001
0000
0000
0000
0000
0000
0010
0000
0000
0000
1000
0000
0000
0000
0010
0100
,
0001
0000
0000
1000
0000
0000
0000
0000
0010
0000
0000
0100
0000
0000
1000
0000
,
0001
0000
1000
0000
0001
0000
0100
0000
0000
0010
0000
0000
0001
0000
0000
0000
,
1000
0010
0000
1000
0010
0000
0001
0000
,
0010
0001
0010
1000
0000
0010
0100
0000
,
1000
0000
0000
0100
0001
0000
1000
0000
0000
0000
0100
0000
0010
0000
0001
0000
,
1000
0000
0010
1000
0000
0010
0000
0100
,
0001
1000
0010
0000
1000
0000
0100
0000
,
1000
0010
0001
0010
0000
1000
0001
0100
,
0010
0000
1000
0100
0001
0000
0000
0000
1000
0000
0000
0000
0001
0000
0000
0000
,
0010
1000
0001
0000
0100
0000
1000
0000
,
0010
0100
0010
1000
0001
0000
1000
0000
,
0010
0100
0010
0000
1000
0000
0001
0000
,
0100
0010
1000
0000
0001
0000
1000
0010
,
0000
1000
0001
0100
0000
0000
0010
1000
,
0001
0100
0010
1000
0000
0010
1000
0001
,
0010
0001
1000
0000
0100
0000
1000
0000
,
0010
1000
0010
0000
0100
0000
0001
0010
,
0001
1000
0010
0000
0000
0100
1000
0000
,
0000
0000
0000
0001
1000
0010
0100
0000
,
1000
0001
0100
0000
0010
1000
0001
0000
,
0100
0000
0010
0000
1000
0001
0100
0000
,
0010
1000
0010
0000
0010
1000
0001
0100
,
0010
1000
0000
0000
0001
0000
1000
0010
,
0000
0100
1000
0000
0010
0001
0000
0100
,
0010
0000
1000
0000
0001
0000
0000
0000
0100
0000
0000
0001
0000
0000
1000
0000
,
0000
0010
1000
0000
0010
0100
0000
1000
,
0001
0000
1100
0000
0010
1000
0001
0000
,
0100
0000
0010
0000
1000
0001
0010
0001
,
1000
0000
0010
0000
0100
1000
0001
0000
,
0100
0000
0010
0000
1000
0001
0100
0000
,
0010
0000
0000
0000
1000
0000
0000
0000
0001
0000
0000
1000
0000
0000
0010
0000
,
0000
0100
0001
0000
1000
0000
0010
0000
,
0100
0000
0010
0000
1000
0000
0000
0000
0001
0000
0000
0100
0000
0000
0001
0000
,
0000
1000
0010
0000
0100
0000
1000
0000
,
0001
0000
0100
0000
0010
0000
0000
0000
1000
0000
0000
0001
0000
0000
0100
0000
,
0000
0010
1000
0000
0010
0000
0100
0000
,
1000
0000
0001
0000
0100
0000
0000
0000
0001
0000
0000
1000
0000
0000
0010
0000
,
0000
0000
0100
0000
0001
0000
0000
0000
1000
0000
0000
0010
0000
0000
0100
0000
,
0001
1000
0010
0000
1000
0001
1000
0000
,
0010
1000
0010
0000
0110
0000
0001
1000
,
0001
0000
0100
0010
0100
0000
0011
0000
,
1000
0001
0100
0000
0010
0001
0010
0000
,
1010
0000
0010
0000
0100
0001
1000
0000
,
0100
0000
1000
0000
0001
0100
0010
0000
,
1000
0000
0010
1000
0001
0100
0010
0000
,
1000
0000
0010
0000
0100
0001
1000
0010
,
0100
0010
0001
1000
,
1000
0000
0010
0000
0100
0010
1000
0001
,
0100
0000
0010
0000
1000
0000
0000
0001
0000
0000
0100
0000
0010
0000
1000
0000
,
0001
0000
0000
0100
0000
0000
0010
0000
1000
0000
0001
0000
1000
0000
0000
0010
,
0000
0100
1000
0001
0100
0010
1000
0001
,
0100
0000
0010
0000
1000
0000
0000
0001
0000
0000
0010
0000
1000
0000
0001
0000
,
0010
0000
0000
1000
0000
0000
0001
0000
0100
0000
0010
0000
0001
0000
0000
1000
,
0000
0000
0001
0000
0100
0000
0010
0000
1000
0000
0000
0001
0000
0000
1000
0000
,
0010
0000
0100
0000
0001
0000
0000
1000
0000
0000
0010
0000
1000
0000
0001
0000
,
0100
0000
0000
0001
0000
0000
1000
0000
0010
0000
1000
0000
0010
0000
0000
0100
,
0000
0000
0001
0000
1000
0000
0010
0000
0100
0000
0000
0001
0000
0000
1000
0000
,
0001
0000
0100
0000
0010
0000
0000
1000
0000
0000
0001
0000
0100
0000
0010
0000
,
1000
0000
0000
0001
0000
0000
1000
0000
0001
0000
0100
0000
0010
0000
0000
1000
,
0000
0000
0010
0000
0100
0000
0010
0000
0001
0010
0001
0000
1000
0010
1000
0000
,
0010
0000
0000
1000
0000
0000
0100
0000
0000
0010
0000
0000
0001
0000
0000
0000
0000
0000
0000
0000
1000
0000
0000
0000
0000
0000
0000
0000
0010
0000
0000
0000
0000
0000
0000
0000
0100
0000
0000
0000
0000
0000
0000
0000
0001
0000
0000
0000
,
0000
0000
1000
0000
0000
0000
0010
0000
0000
0000
0100
0000
0000
0000
0001
0000
0000
0000
1000
0000
0000
0010
0000
0000
,
0100
0000
0001
0000
1000
0010
0000
0220
,
0000
0000
0000
0000
,
0000
0000
0000
0000
,
0000
0000
0000
0000
,
0000
0000
0000
0000
0000
0000
0000
0330
;

//--------------- dance-single - XLev450X-ESP ----------------
#NOTES:
     dance-single:
     XLev450X:
     Hard:
     16:
     0,0,0,0,0:
0000
0000
0000
0000
,
0000
0000
0000
0000
,
0000
0000
0000
0000
,
0001
0000
0000
1000
0010
0000
0100
0000
0001
0000
1000
0000
0010
0000
0000
0100
,
0001
0000
1000
0000
0010
0000
0100
0000
0001
0000
0000
0100
0001
0000
1000
0000
,
0010
0000
0100
0000
0001
0010
0100
1000
0100
0010
0001
0010
0100
1000
0100
0010
,
0001
0000
0010
0000
0100
0000
0010
0000
1000
0000
0001
0000
,
0010
0000
0000
0000
0100
0000
0000
0000
1000
0000
0000
0000
0100
0000
0000
0001
0000
0000
0010
0000
0000
0000
0000
0000
,
0100
0000
1000
0000
0010
0000
0101
0000
0000
0000
1100
0000
0001
0000
0100
0010
,
0001
0000
0000
1000
0000
0000
0001
0000
0010
0000
0000
0100
0000
0000
1000
0000
,
0001
0000
0100
0010
0001
0000
1000
0000
0000
0001
0000
0000
0100
0000
0000
0000
,
0001
0010
0001
1000
0001
0100
0010
0000
,
1000
0000
0000
0010
0001
0000
0010
0000
0000
0000
0100
0000
1000
0000
0001
0000
,
0100
0001
0010
0100
1000
0000
0001
0000
1000
0000
0010
0000
0001
0000
1000
0000
,
0100
0000
0000
0010
1000
0000
0001
0000
0000
0000
0010
0000
0100
0000
1000
0000
,
0001
0000
0100
1000
0010
0000
0001
0000
1000
0000
0000
0000
0010
0000
0000
0000
,
0100
0001
1000
0010
0000
0100
1000
0001
,
0010
0000
1000
0001
0100
0000
0000
1000
0001
0000
1000
0000
0010
0000
0100
0000
,
0001
0000
0000
0000
1000
0000
0001
0100
0010
0000
0100
0000
0001
0000
0000
0000
,
1000
0000
0000
0100
0001
0000
0010
0000
0100
0000
0010
0000
1000
0000
0001
0000
,
0010
0000
0001
1000
0100
0000
0010
0000
0001
0000
1000
0000
0010
0000
0100
0000
,
0001
0000
0010
0000
1000
0001
0100
1000
0010
0000
0000
0001
0100
0000
1000
0000
,
0001
0000
0000
0010
1000
0000
0100
0000
0001
0000
0000
1000
0001
0000
0100
0000
,
0010
0000
1000
0001
0100
0000
0010
0000
0010
0000
0000
0100
0000
0000
1000
0000
,
0001
0000
0100
0010
0001
0000
1000
0000
0000
0001
0000
0000
0100
0000
0000
0000
,
0001
0010
0001
1000
0001
0100
0010
0000
,
1000
0000
0000
0010
0001
0000
0010
0000
0000
0000
0100
0000
1000
0000
0001
0000
,
0100
0001
0010
0100
1000
0000
0001
0000
1000
0000
0000
0010
0100
0000
0001
0000
,
1000
0000
0000
0001
0100
0000
0010
0000
1000
0000
0000
0001
0100
0000
0010
0000
,
1000
0000
0001
0010
0100
0000
1000
0000
0001
0000
1000
0000
0001
0000
0100
0000
,
0010
1000
0001
0100
0010
1000
0001
0100
,
0010
0001
1000
0020
0000
0000
0030
0000
1000
0100
1000
0100
1000
0000
0010
0000
,
0000
1000
0011
0000
0000
0001
0000
1000
,
0010
0001
1000
0000
0100
0000
0000
0000
0010
0001
0010
0001
0010
0000
1000
0000
,
0000
0010
0100
0000
0000
0001
1000
0010
,
0100
0010
0001
0000
1000
0000
0000
0000
0010
0100
0010
0100
0010
0000
1000
0000
,
0000
0001
0100
0000
0000
0001
1000
0010
,
0100
0000
0001
0000
1000
0000
0000
0000
0010
0001
0010
0001
0010
0000
1000
0000
,
0000
0000
0010
0000
0100
0000
0000
0000
0001
0000
1000
0000
0010
0100
0010
0000
,
0001
1000
0010
0100
0001
0000
0010
0000
1000
0001
1000
0001
1000
0000
0100
0010
,
0100
0010
1000
0000
0001
0000
0000
0000
0000
0000
0100
0000
1000
0000
0001
0000
,
0100
0000
0000
0010
0000
0000
1000
0000
0001
0100
0001
0100
0001
0000
1000
0010
,
1000
0010
1000
0000
0100
0000
0000
0000
0001
0000
1000
0000
0000
0010
0000
0000
,
0100
0000
0001
0000
1000
0000
0000
0000
0001
0100
0001
0100
0001
0000
1000
0010
,
1000
0010
0100
0000
0001
0000
1000
0000
0010
0000
0100
0000
0001
0000
1000
0000
,
0100
0000
0010
0000
0100
0000
0000
0000
0001
0010
0001
0010
0001
0000
1000
0100
,
1000
0100
1000
0000
0010
0000
0100
0000
0001
0000
1000
0000
0010
0000
0000
0000
,
0001
1000
0010
0100
1000
0001
0010
0000
0100
0001
1000
0000
0010
0000
0100
1000
,
0010
0000
0001
0000
0100
0000
1000
0000
0001
0100
1000
0000
0010
0001
0010
0000
,
0100
0000
1000
0100
1000
0000
0100
0000
0010
0000
0100
0000
0001
1000
0100
0000
,
0010
0001
0010
0001
0000
0000
1000
0100
1000
0100
0000
0000
0010
0000
0100
0001
,
1000
0000
0010
0000
0100
0000
0000
0000
0001
0000
0000
1000
0010
0000
0100
0000
,
0001
0000
0000
0000
1000
0000
0000
0001
0100
0000
0001
0000
1000
0000
0000
0000
,
0010
0000
0000
1000
0001
0000
0100
0000
0010
0000
0000
0000
1000
0000
0000
0001
,
0100
0000
1000
0000
0001
0000
0100
0001
0100
0000
1000
0000
0010
0000
1000
0010
,
1000
0000
0000
0000
0100
0001
0100
0001
0100
0000
0000
0000
1000
0000
0000
0000
,
0010
1000
0010
1000
0010
0000
0000
0000
0001
0000
0000
0100
0001
0100
0001
0000
,
1000
0000
0010
0000
0100
0000
0000
0001
0000
0000
1000
0000
0010
0000
0100
0000
,
0001
0000
0000
1000
0000
0000
0001
0000
1000
0000
0001
0000
0100
0000
0000
0001
,
1000
0000
0010
0000
0100
0000
0001
0000
1000
0000
0001
0100
0001
1000
0010
0100
,
0001
1000
0010
0100
0001
0000
0000
1000
0001
0000
0100
0000
0010
0000
1000
0000
,
0001
0000
0000
0100
0001
0000
1000
0000
0010
0000
0100
0000
0001
0000
0000
1000
,
0010
0000
0100
0000
0001
0000
1000
0000
0001
0100
0010
1001
0100
0010
0001
1000
,
0010
0001
1000
0010
0100
0000
0000
1000
0001
0000
0100
0000
0010
0000
1000
0000
,
0100
0000
0000
0001
0100
0000
1000
0000
0001
0000
0100
0000
0001
0000
0000
0010
,
1000
0000
0001
0000
0100
0000
0001
0000
1000
0010
0100
0001
1000
0000
0010
0000
,
0100
0000
1000
0000
0001
0000
0000
1000
0010
0000
0100
0000
0001
0000
1000
0000
,
0010
0000
0000
0100
0001
0000
1000
0000
0010
0000
0100
0000
0001
0000
0000
0100
,
0001
0000
1000
0000
0010
0000
0100
0000
0001
0010
0100
1000
0100
0010
0001
0010
,
0100
0000
0000
1000
0000
0000
0100
0000
0000
0010
0000
0000
0001
0000
0000
0000
0000
0000
0000
0000
0010
0000
0000
0000
0000
0000
0000
0000
0100
0000
0000
0000
0000
0000
0000
0000
0010
0000
0000
0000
0000
0000
0000
0000
1000
0000
0000
0000
,
0000
0000
0001
0000
0000
0000
0010
0000
0000
0000
0100
0000
0000
0000
1000
0000
0000
0000
0100
0000
0000
0001
0000
0000
,
0010
0000
0100
1000
0010
0101
0000
2200
,
0000
0000
0000
0000
,
0000
0000
0000
0000
,
0000
0000
0000
0000
,
0000
0000
0000
0000
0000
0000
0000
3300
;
