#TITLE:ランカーキラーガール (STARDOM Remix);
#ARTIST:中島由貴 × いちか;
#TITLETRANSLIT:Ranker killer girl (STARDOM Remix);
#ARTISTTRANSLIT:Yuki Nakashima x Ichika;
#MUSIC:Ranker killer girl (STARDOM Remix).ogg;
#BANNER:Ranker killer girl (STARDOM Remix).png;
#BACKGROUND:Ranker killer girl (STARDOM Remix)-bg.png;
#CDTITLE:./CDTitles/DANCERUSH STARDOM.png;
#SAMPLESTART:16.084;
#SAMPLELENGTH:15;
#SELECTABLE:YES;
#OFFSET:-0.084;
#BPMS:0=135;
#BGSTAGE:31;

//--------------- dance-single - バツ-bSP ----------------
#NOTES:
     dance-single:
     バツ:
     Beginner:
     2:
     0,0,0,0,0:
0000
0000
0000
0000
,
0000
0000
0000
0000
,
0000
0000
0000
0000
,
0000
0000
0000
0000
,
0000
0000
0000
0000
,
0001
0000
0000
0000
,
0010
0000
0000
0000
,
0110
0000
0000
0000
,
0000
0000
0000
0000
,
1000
0000
0001
0000
,
0100
0000
0000
0000
,
0010
0000
0100
0000
,
0010
0000
0000
0000
,
0001
0000
0000
0000
,
1000
0000
0000
0000
,
0100
0000
0000
0000
,
0010
0000
0000
0000
,
1000
0000
0100
0000
,
0001
0000
0000
0000
,
0001
0000
0010
0000
,
1000
0000
0000
0000
,
0100
0000
0010
0000
,
0100
0000
0000
0000
,
0001
0000
0010
0000
,
0001
0000
0000
0000
,
1001
0000
0000
0000
,
0000
0000
0000
0000
,
0110
0000
0000
0000
,
0000
0000
0000
0000
,
1000
0000
0001
0000
,
1000
0000
0001
0000
,
1000
0000
0001
0000
,
1000
0000
0000
0000
,
0010
0000
0000
0000
,
0100
0000
0000
0000
,
0001
0000
0000
0000
,
1000
0000
0000
0000
,
0010
0000
0000
0000
,
0100
0000
0000
0000
,
0001
0000
1000
0000
,
0010
0000
0100
0000
,
1001
0000
0000
0000
,
0000
0000
0000
0000
,
0010
0000
1000
0000
,
0001
0000
0000
0000
,
1000
0000
0100
0000
,
1000
0000
0000
0000
,
0010
0000
0100
0000
,
0001
0000
0000
0000
,
1000
0000
0001
0000
,
0100
0000
0000
0000
,
0001
0000
1000
0000
,
0001
0000
0100
0000
,
0110
0000
0000
0000
,
0001
0000
1000
0000
,
0001
0000
0000
0000
,
0100
0000
0000
0000
,
0010
0000
0000
0000
,
1000
0000
0001
0000
,
1000
0000
0000
0000
,
0010
0000
0100
0000
,
0010
0000
0000
0000
,
0001
0000
1000
0000
,
0001
0000
0000
0000
;

//--------------- dance-single - バツ-BSP ----------------
#NOTES:
     dance-single:
     バツ:
     Easy:
     6:
     0,0,0,0,0:
0000
0000
0000
0000
,
0000
0000
0000
0000
,
0000
0000
0000
0000
,
0000
0000
0000
0000
,
0000
0000
0000
0000
,
0100
0010
0100
0000
,
0001
1000
0001
0000
,
0001
0001
1000
1000
,
0010
0100
0020
0030
,
0001
0001
0001
0000
,
1000
1000
1000
0000
,
0001
0010
1000
0010
,
0100
0010
0001
0000
,
1001
0000
0011
0000
,
1010
0000
0110
0000
,
1000
0100
0010
0001
,
2000
0000
0000
3000
,
0001
1000
0010
0100
,
1000
0010
0100
0000
,
0010
0001
1000
0001
,
0010
0000
0100
0001
,
1000
0010
1000
0000
,
0100
0001
0100
0000
,
0010
1000
0001
0100
,
0010
0000
0000
0000
,
1000
1000
0000
0001
,
0100
0100
0000
0010
,
0100
0001
0000
1000
,
0000
0010
0000
1000
0000
0001
0000
0100
,
0010
1000
0001
0000
,
0100
0010
0001
0000
,
1000
0010
0100
0000
,
1000
0001
0100
0000
,
0010
0010
0001
0001
,
1000
1000
0100
0000
,
0100
1000
0100
0010
,
0001
0100
0010
0000
,
1100
0001
0010
0000
,
0011
0100
1000
0000
,
0101
0010
1010
0100
,
0011
1100
0110
1001
,
0101
0000
0000
0000
,
1000
0001
0200
0300
,
1000
1000
1000
0000
,
0001
0001
0001
0000
,
1000
0100
0001
0100
,
0010
0100
1000
0000
,
1001
0000
1100
0000
,
0101
0000
0110
0000
,
0001
0010
0100
1000
,
0002
0000
0000
0003
,
0001
0001
0001
0000
,
1000
1000
1000
0000
,
0110
0000
0000
0000
,
0001
1000
0001
0000
,
1000
1000
1000
0000
,
0010
0100
0010
0000
,
0001
0010
0001
0100
,
0000
1000
0000
0001
0000
0100
0000
0010
,
1000
0010
0100
0000
,
0001
0010
0001
0000
,
1000
0010
0100
0001
,
1000
0010
0100
0010
,
1001
0000
0000
0000
;

//--------------- dance-single - バツ-DSP ----------------
#NOTES:
     dance-single:
     バツ:
     Medium:
     10:
     0,0,0,0,0:
0000
0000
0000
0000
,
0000
0000
0000
0000
,
0000
0000
0000
0000
,
0000
0000
0000
0000
,
0000
0000
0000
0000
,
0001
0000
1000
0000
0010
0001
0010
0000
,
1000
0000
0100
0000
0010
1000
0010
0000
,
0101
1010
0110
1001
,
0010
0010
0100
0001
2000
0000
3001
0000
,
1000
0010
0001
1000
0100
0001
1000
0000
,
1000
0010
0001
1000
0100
0001
1000
0000
,
1000
0010
0001
1000
0100
0001
1000
0000
,
1001
0110
2002
3003
,
0001
1100
0010
0101
,
0100
0000
1100
0000
1001
0000
0001
1000
,
1000
1000
0000
1001
0000
0110
0000
1001
,
0100
0001
0100
0010
2000
0000
0000
3000
,
0010
0000
1000
0000
0010
0001
0010
0000
,
0100
1000
0001
0100
0010
1000
0001
0000
,
1000
0000
0100
0000
1000
0010
0100
0000
,
1000
0101
1010
0000
,
0010
0100
1000
0001
,
0010
0000
0001
0000
0100
0010
0100
0000
,
1000
0000
0001
0000
0100
0001
1000
0000
,
0010
0100
1001
0000
,
0100
0000
0010
0000
0000
1000
0001
0000
,
0100
0000
1000
0000
0000
0010
0100
0000
,
0001
0000
0010
0000
0000
1000
0100
0000
,
0000
0101
0000
1010
0000
0110
1001
0010
,
0100
0001
1000
0100
,
1000
0000
0010
0000
0100
0001
0100
0000
,
1000
0010
0100
0000
,
1000
0000
0001
0000
0010
1000
0001
0100
,
0010
1000
0001
0000
,
1000
0010
1000
0000
,
0001
0100
0001
0000
,
0100
0000
0010
0000
0000
1000
0001
0100
,
0010
0000
1000
0000
0010
0100
0001
1000
,
0010
0000
0100
0000
0001
1000
0010
0000
,
1000
0010
0100
0000
0000
0010
0001
0010
,
1000
0001
0100
0010
1000
0001
0100
0010
,
2000
0000
0000
3000
,
0001
0000
0100
0000
0000
0010
1000
0010
,
0001
0100
1000
0001
0010
1000
0001
0000
,
0001
0100
1000
0001
0010
1000
0001
0000
,
0001
0100
1000
0001
0010
1000
0001
0000
,
1001
0110
2002
3003
,
1000
0011
0100
1010
,
0010
0000
0011
0000
1001
0000
1000
0001
,
0001
0001
0000
1001
0000
0110
0000
1001
,
0010
1000
0001
0100
1000
0010
0001
0000
,
1000
0010
0001
1000
0100
0001
1000
0000
,
1000
0010
0001
1000
0100
0001
1000
0000
,
0110
0000
0000
0000
,
1000
0001
0100
0010
,
1000
0100
0010
0000
,
1000
0001
0100
0000
,
0010
0000
1000
0000
0010
0001
0010
0000
,
0000
0101
0000
1010
0000
0010
0100
0001
,
1000
0010
0100
0000
,
1000
0010
1000
0000
,
0100
0001
1000
0010
,
0100
0001
1000
0010
0100
0001
1000
0010
,
0100
0000
0000
0000
;

//--------------- dance-single - バツ-ESP ----------------
#NOTES:
     dance-single:
     バツ:
     Hard:
     14:
     0,0,0,0,0:
0000
0000
0000
0000
,
0000
0000
0000
0000
,
0000
0000
0000
0000
,
0000
0000
0000
0000
,
0000
0000
0000
0000
,
1000
0000
0001
0000
0100
0001
0000
0100
0000
0000
0010
0000
1000
0010
0000
1000
,
0000
0000
0001
0000
0100
0010
0000
0100
0000
0000
1000
0000
0100
0010
0000
0100
,
0001
0000
1000
0100
1000
0000
0010
0001
0010
0000
0100
1000
0100
0000
1000
0001
,
1000
0000
0000
0101
0000
0000
0101
0000
0000
0101
0000
0000
0100
1000
0001
0010
0100
1000
0010
0000
0000
0100
0000
0000
,
0010
0000
0001
0000
1000
0010
0000
0100
0000
0000
0001
0000
0100
0001
0000
1000
,
0000
0000
0010
0000
0100
0010
0000
1000
0000
0001
0000
0100
0000
0000
0000
0010
,
0000
1000
0001
0000
0100
0000
0010
1000
0000
0001
0000
0100
0000
0000
0000
0001
,
0100
0001
0000
0100
0000
1000
0000
0010
0000
0100
0002
0000
1000
0000
0003
0000
,
1000
0001
1000
0000
0010
1000
0000
0001
1000
0001
0100
0000
0010
0100
0000
0001
,
1000
0001
1000
0000
0001
0100
0000
1000
0000
0010
0000
0100
0000
0000
0000
0010
,
0000
1000
0001
0000
0100
0000
0010
1000
0000
0001
0000
0100
0000
0000
0000
0010
,
1000
0010
0000
0001
0000
0100
0000
0020
0000
0000
0000
0000
0000
0000
0030
0000
,
0001
0000
0001
0100
1000
0000
0100
0000
0001
0000
1000
0000
1001
0000
0000
0000
,
0001
0100
1000
0000
0100
0000
0001
0000
1000
0000
1001
0000
0110
0000
0000
0000
,
0001
0100
1000
0000
0100
0000
0001
0000
1000
0000
0000
0000
1010
0000
0000
0001
,
0100
0001
0000
0100
0000
1000
0000
0010
0000
0100
0002
0000
0000
0000
0003
0000
,
1000
0000
1000
0100
0001
0000
0100
0000
1000
0000
0001
0000
1001
0000
0000
0000
,
1000
0100
0001
0000
0100
0000
1000
0000
0001
0000
1001
0000
0110
0000
0000
0000
,
1000
0100
0001
0000
0100
0000
1000
0000
0001
0000
1000
0000
0001
0000
1000
0100
,
0001
0100
0000
1000
0000
0010
0000
0200
0000
0000
0000
0000
0000
0000
0300
0000
,
0001
0000
1000
0000
0010
0000
0000
0100
0000
0000
0001
0000
1000
0000
0000
0000
,
0010
0000
0001
0000
1000
0000
0000
0100
0000
0000
0001
0000
1000
0000
0000
0000
,
0100
0000
0010
0000
1000
0000
0000
0100
0000
0000
0010
0000
1000
0000
0010
0000
,
0000
0000
0101
0000
0000
0000
1010
0000
0000
0000
0110
0000
0001
0000
1000
0010
,
0000
0000
0100
0000
0001
0000
0000
1000
0000
0000
0010
0000
0100
0000
0000
0000
,
0010
0000
0001
0000
1000
0000
0000
0001
0000
0000
0100
0000
0010
0000
0000
0000
,
1000
0000
0001
0000
0100
0000
0000
0010
0000
0000
1000
0000
0001
0000
0000
0000
,
0100
0000
0001
0000
0100
0000
0000
1000
0000
0000
0010
0000
0100
0000
0010
1000
,
0001
1000
0010
0100
,
1000
0000
0001
0000
0010
0001
0010
1000
,
0010
0100
1000
0001
,
0100
0000
0000
0000
0010
0000
0000
0000
1000
0000
0001
0000
0100
0000
0010
0001
,
1000
0000
0000
0000
0010
0000
0000
0000
0100
0000
1000
0000
0001
0000
0100
1000
,
0010
0000
1000
0000
0100
0001
1000
0010
,
0001
0010
0001
0000
1000
0000
0010
0000
1000
0100
1000
0000
0010
0000
0100
0000
,
0010
0100
0010
1000
0010
1000
0100
0001
0100
0001
0100
0001
0010
1000
0010
0100
,
0010
0000
0001
0000
1000
0010
0000
0100
0000
0000
0001
0000
1000
0010
0000
0100
,
0000
0000
1000
0000
0001
0100
0000
0010
0000
1000
0000
0001
0000
0000
0000
0000
,
0010
0000
0100
0000
0001
0000
1000
0000
0010
0000
0010
0000
0001
0010
0001
0000
,
1000
0000
0010
1000
0100
1000
0000
0010
0000
1000
0000
0100
0001
0000
0100
0000
,
1000
0000
0010
0000
0100
0000
1000
0001
0100
0000
0001
0000
1000
0000
0000
0000
,
0010
0000
0100
0010
1000
0000
0001
0100
0010
0000
1000
0000
0010
0000
0000
0000
,
0010
0000
0001
0000
0010
0001
0000
0100
0000
0000
0010
0000
0100
0010
0000
1000
,
0000
0000
0001
0000
0100
0010
0000
1000
0000
0001
0000
0100
0000
0000
0000
0010
,
0100
0000
1000
0000
0001
0000
0000
0100
0000
0010
0000
1000
0000
0001
0000
1000
,
0010
0000
0000
0100
0000
0001
0000
1000
0000
0000
0010
0000
0100
0000
0000
0000
,
2000
0000
0000
0000
3010
0000
0001
1000
0100
0000
0001
0000
0100
0000
0000
0000
,
0020
0000
0030
0000
0100
0001
0000
1000
0000
0001
0010
0000
0000
0000
0000
0000
,
0010
0000
1000
0000
0010
0100
0000
0001
0000
0000
1000
0000
0001
0100
0000
0010
,
0000
0000
1000
0000
0001
0000
0100
0000
0010
0100
0001
0100
1000
0100
0001
1000
,
0010
0001
1000
0010
0100
1000
0010
0000
,
1000
0000
0100
0000
0010
0000
0001
0000
1000
0000
0001
0010
0001
0000
1000
0000
,
0010
0100
1000
0010
0100
1000
0010
0000
,
1000
0000
0001
0000
0100
0000
0010
0000
1000
0000
0001
0000
0100
0000
0010
1000
,
0010
0001
1000
0001
0100
0010
1000
0000
,
0001
0000
0100
0000
0010
0000
1000
0000
0010
0100
0010
0000
1000
0000
0000
0000
,
0010
0001
0010
0000
1000
0100
1000
0000
0010
0000
0100
0000
1000
0000
0100
0000
,
0001
0100
0001
0000
1000
0000
0010
0000
0100
1000
0100
0001
0010
1000
0100
0010
,
0001
0000
0000
0000
;

//--------------- dance-single - バツ-CSP ----------------
#NOTES:
     dance-single:
     バツ:
     Challenge:
     16:
     0,0,0,0,0:
0000
0000
0000
0000
,
0000
0000
0000
0000
,
0000
0000
0000
0000
,
0000
0000
0000
0000
,
0000
0000
0000
0000
,
0010
0000
1000
0000
0001
0100
0000
0010
0000
0000
1000
0000
0010
0100
0000
1000
,
0000
0000
0001
0000
0100
0010
0000
1000
0000
0000
0010
0000
0100
1000
0000
0100
,
0001
0100
0010
1000
0001
0100
0010
1000
0001
0100
0010
1000
0001
0100
0010
1000
,
0010
0000
0000
0000
0100
0000
0000
0000
0001
0000
0000
0000
1000
0000
0000
0000
0010
1000
0001
0100
1000
0001
0100
0010
1000
0000
0000
0000
0010
0000
0000
0000
,
0100
0000
0001
0000
1000
0010
0000
0100
0000
0000
1000
0000
0001
0100
0000
0010
,
0000
0000
1000
0000
0010
0001
0000
1000
0000
0010
0000
0100
0000
0000
0000
1000
,
0000
0001
0100
0000
0010
0000
1000
0001
0000
0100
0000
0010
0000
0000
0000
0001
,
1000
0100
0000
0010
0000
1000
0000
0001
0000
0010
0100
0010
0200
0000
0300
0000
,
0001
0000
1000
0000
0010
0100
0000
1000
0100
0010
0001
0010
1000
0001
0000
0010
,
0000
0000
0100
0000
1000
0100
0000
0010
0000
1000
0000
0002
0000
0003
0000
0010
,
0000
0100
0001
0000
1000
0000
0010
0100
0001
1000
0010
0200
0010
0000
0300
0000
,
1000
0001
1000
0010
0000
0100
0000
1000
0001
1000
0010
0000
0100
0000
1000
0000
,
0001
0000
1000
0000
0010
0000
0100
1000
0000
0010
0000
0100
0001
0000
1000
0000
,
0010
0000
0100
0000
0001
1000
0000
0001
0000
0100
0000
0010
0000
1000
0001
0100
,
0010
0000
1000
0000
0001
0000
0000
0100
0000
0000
1000
0000
0010
0000
0100
0000
,
1000
0100
0000
0001
0000
0100
0000
0001
1000
0010
0100
0001
0000
1000
0010
0100
,
0010
0000
0001
0000
1000
0001
0000
0010
0000
0100
0000
0010
1000
0000
0001
0000
,
1000
0000
0100
0000
0010
0001
0000
1000
0000
0001
0000
0100
0000
0010
0001
0100
,
1000
0001
1000
0000
0100
0000
0001
0000
1000
0100
0001
0000
0100
0000
0010
0000
,
1000
0000
0001
0000
0100
0000
0010
0000
1000
0000
0010
0000
1000
0000
0010
0000
0100
0010
0001
0100
1000
0100
0010
0001
0100
1000
0010
0001
1000
0100
0001
0000
,
0100
0000
0010
0000
1000
0100
0000
0001
0000
0100
0000
1000
0010
0000
1000
0000
,
0001
0000
0100
0000
0010
1000
0000
0001
0000
0100
0000
0001
0010
0000
1000
0000
,
0001
0000
0100
0000
0010
0000
1000
0001
0000
0100
0000
0010
1000
0000
0100
0000
,
0001
0010
0100
0000
1001
0000
1010
0000
0101
0000
1010
0000
0001
0000
0010
1000
,
0010
0000
1000
0000
0001
0100
0000
0010
0000
1000
0000
0001
0100
0000
0010
0000
,
1000
0000
0010
0000
0100
0000
0001
0010
0000
1000
0000
0010
0100
0000
0001
0000
,
1000
0000
0010
0000
0100
0000
0001
1000
0000
0010
0000
0100
1000
0000
0001
0000
,
0100
0000
0010
0000
1000
0000
0001
0010
0000
0100
0000
1000
0001
0000
1000
0001
,
0100
1001
0101
1010
,
0110
0000
0000
0000
0101
0000
0000
0000
1010
0000
0000
0101
0000
0000
1010
0000
,
0110
1001
0110
0101
,
1010
0000
0000
0000
0110
0000
0000
0000
1001
0000
0001
0000
0100
0010
0100
1000
,
0001
0000
0100
0000
0010
0000
1000
0000
0001
0000
0010
0000
0001
0100
1000
0001
,
0100
0000
0001
0000
0010
0000
0100
0000
0001
1000
0001
1000
0010
0000
0100
0000
,
0001
1000
0010
0000
0100
0000
0001
0000
1000
0010
0100
0000
0001
0000
1000
0000
,
0001
0000
0100
0000
0010
0000
1000
0000
0001
0000
0100
0000
0010
0000
1000
0000
0001
0000
0100
0000
0010
0100
1000
0000
0001
0000
0100
0000
0010
0001
1000
0000
,
0010
0000
1000
0000
0010
0100
0000
0001
0000
0000
1000
0000
0010
0100
0000
0010
,
0100
0000
1000
0000
0010
0100
0000
0001
0000
1000
0000
0010
0000
1000
0010
0001
,
0100
0000
0010
0001
1000
0100
0001
1000
0010
0000
0100
0000
0001
0100
1000
0001
,
0010
0000
0100
0000
1000
0001
0000
0100
0000
0010
0000
1000
0000
0000
0001
0100
,
0001
1000
0010
0000
0100
0000
0001
1000
0000
0010
0000
0100
0001
0000
1000
0000
,
0010
0000
0100
0000
0001
0000
1000
0000
0010
0001
0010
1000
0010
0100
0001
1000
,
0010
0000
0100
0000
0001
1000
0000
0010
0000
0100
0001
0000
1000
0001
0000
0010
,
0000
0100
0010
0001
1000
0001
0000
0010
0000
0100
0000
0010
0000
0000
0000
1000
,
0000
0010
0100
0000
0000
0000
0001
0000
0000
1000
0000
0010
0000
0000
0000
0100
,
0001
1000
0000
0010
0000
0100
0000
0001
0000
0000
1000
0000
0010
0000
0000
0000
,
0001
0000
0010
0001
0010
0000
1000
0010
1000
0000
0010
0100
0010
0000
1000
0000
,
0001
0000
0100
0010
1000
0000
0001
0000
0100
0010
1000
0001
0100
0010
1000
0001
,
0100
0000
0001
0000
1000
0001
0000
0010
0000
0100
1000
0100
0001
0010
1000
0100
,
0010
0000
0010
0001
0010
0100
1000
0010
1000
0100
0001
0100
0010
1000
0001
0100
,
0010
0000
1000
0000
0001
0000
0100
0000
1000
0001
0010
0000
0100
0000
1000
0000
,
0001
0010
0001
0000
1000
0000
0010
0000
0100
0000
1000
0000
0010
0000
0000
0000
,
1000
0010
1000
0000
0001
0000
0100
0000
0010
0000
1000
0001
1000
0010
0100
0001
,
1010
0000
1100
0000
0101
0000
0110
0000
1010
0000
0011
0000
1100
0000
0011
1100
,
0010
0000
1000
0000
0001
0000
0100
0000
0010
1000
0010
0000
0100
0000
0000
0000
,
0010
0001
0010
0000
1000
0000
0010
0000
0100
0001
1000
0000
0010
0000
1000
0000
,
0100
0000
0001
0000
1000
0000
0010
0000
1000
0010
1000
0000
0100
0000
0010
0000
,
1000
0000
0100
0000
0010
0000
0001
0000
1000
0000
0100
0000
0001
0000
0010
0000
0100
0001
0010
0100
1000
0100
0001
1000
0010
0001
0100
0010
1000
0001
0010
1000
,
0100
0000
0000
0000
;
