#TITLE:RAGE feat.H14 of LEONAIR;
#ARTIST:DJ Mass MAD Izm*;
#GENRE:MIXTURE;
#MUSIC:RAGE feat.H14 of LEONAIR.ogg;
#BANNER:RAGE feat.H14 of LEONAIR.png;
#BACKGROUND:RAGE feat.H14 of LEONAIR-bg.png;
#CDTITLE:./CDTitles/bm IIDX 29 CastHour.png;
#SAMPLESTART:77.583;
#SAMPLELENGTH:15;
#OFFSET:0.474;
#BPMS:0=166;
#STOPS:199.5=0.723;
#BGCHANGES:4=RAGE feat.H14 of LEONAIR.mp4=1.000=0=0=0=StretchNoLoop====,
99999.000=-nosongbg-=1.000=0=0=0=StretchNoLoop====;
#BGSTAGE:29;

//--------------- dance-single - XLev450X-bSP ----------------
#NOTES:
     dance-single:
     XLev450X:
     Beginner:
     4:
     0,0,0,0,0:
0000
0000
0000
0000
,
0000
0000
0000
0000
,
0000
0000
0000
0000
,
0000
0000
0000
0000
,
0000
0000
0000
0000
,
0000
0000
0000
0000
,
0000
0000
0000
0000
,
0000
0000
0000
0000
,
0000
0000
0000
0000
,
0000
0000
0000
0000
,
0001
1000
0001
0000
,
0010
0100
0010
0000
,
1000
0010
1000
0000
,
0001
0100
0001
0000
,
0001
1000
0001
0000
,
0001
0100
0001
0000
,
0010
1000
0010
0000
,
0100
0010
0100
0000
,
0001
0000
1000
0000
,
0001
0000
1000
0000
,
0010
0000
0100
0000
,
1000
0000
0001
0000
,
0100
0000
0010
0000
,
1000
0000
0001
0000
,
0100
0000
0010
0000
,
2002
0000
0000
3003
,
0010
0010
0001
1000
,
1000
0100
0001
0100
,
0010
0010
1000
0001
,
0100
0000
1000
0000
,
0010
0010
1000
0100
,
0001
1000
0001
1000
,
0010
1000
0100
0001
,
0020
0000
0000
0030
,
1000
0000
0001
0000
,
0100
1000
0010
0000
,
0100
0000
0001
0000
,
1000
0100
0001
0000
,
0010
1000
0010
0000
,
0001
0100
0001
0000
,
1000
0001
1000
0000
,
2002
0000
0000
3003
,
0010
0000
1000
0000
,
0001
0000
1000
0100
,
1000
0000
0001
0000
,
0010
0001
0010
0000
,
0100
0000
1000
0000
,
0010
1000
0010
0000
,
0100
0001
0100
0000
,
0010
1000
0010
0000
,
0001
1000
0100
0000
,
0001
0100
0010
0000
,
1000
1000
0100
0001
,
1000
0000
0010
0000
,
1000
0000
0010
0100
,
0010
0000
1000
0001
,
0100
1000
0001
0100
,
1000
0000
0001
0000
,
1000
0000
0001
0000
,
0010
0000
1000
0000
,
0100
0000
0001
0000
,
0010
0000
1000
0000
,
0100
0000
0010
0000
,
0001
0000
1000
0001
,
1000
0010
0100
0000
,
0000
0000
0001
0000
,
1000
0000
0001
0000
,
0000
0000
0010
0000
,
1000
0000
0010
0000
,
0000
0000
0100
0000
,
0001
0000
0100
0000
,
0000
0000
1000
0000
,
0100
0000
0001
0000
,
0000
0000
0001
0001
,
1000
0000
0010
0010
,
0100
0000
1000
1000
,
0100
0000
0010
0100
,
0010
0000
0001
0010
,
0001
0000
1000
0100
,
1000
0000
0010
1000
,
0010
0000
0100
0001
,
0200
0000
0000
0000
0300
0000
0000
0000
;

//--------------- dance-single - XLev450X-BSP ----------------
#NOTES:
     dance-single:
     XLev450X:
     Easy:
     8:
     0,0,0,0,0:
0000
0000
0000
0000
,
0000
0000
0000
0000
,
0000
0000
0000
0000
,
0000
0000
0000
0000
,
0000
0000
0000
0000
,
0000
0000
0000
0000
,
0000
0000
0000
0000
,
0000
0000
0000
0000
,
0000
0000
0000
0000
,
0000
0000
0000
0000
,
0001
1000
0010
0000
,
1000
0000
0100
0000
0001
0010
0001
0000
,
1000
0100
1000
0000
,
0010
0000
1000
0000
0100
1000
0100
0000
,
0010
1000
0001
0100
,
1000
0001
1000
0000
0010
1000
0010
0000
,
0100
1000
0001
0100
,
0001
0000
1000
0000
0001
0010
0100
1000
,
0001
1000
0010
0000
,
1000
0000
0100
0000
0010
0100
0010
0000
,
1000
0010
1000
0000
,
0001
0000
0010
0000
0100
1000
0001
0100
,
0010
1000
0010
0000
,
1000
0000
0100
0000
0001
0100
0001
0000
,
1000
0010
1000
0100
,
0002
0000
0000
1003
,
1000
0100
0010
1000
,
0001
0000
0010
1000
0010
0000
0100
0000
,
1000
0000
0001
0010
0001
0000
0100
0000
,
1000
0000
0001
1000
0001
0000
0100
0000
,
1000
0000
0010
0100
0010
0000
1000
0010
,
1000
0000
0001
0010
0001
0000
1000
0000
,
0001
0100
1000
0001
,
0100
0000
0010
0000
,
1000
0000
0100
0000
0001
0000
0010
1000
,
0010
0000
0001
0000
0010
0000
0001
0010
,
0001
0000
0100
0000
1000
0000
0100
0010
,
0100
1000
0001
0100
,
1000
0001
1000
0000
0010
1000
0010
0000
,
0100
0010
0100
0000
0001
0010
0001
0010
,
1000
0000
0001
0000
0100
1000
0001
0010
,
2000
0001
0001
3001
,
0001
0000
1000
0000
0010
1000
0010
0000
,
0100
1000
0001
0100
,
0001
0010
0001
0000
1000
0100
1000
0000
,
0001
1000
0010
0000
,
1000
0000
0010
0000
0100
0000
0010
0100
,
0010
0000
0001
0000
0010
0000
0001
0010
,
0001
1000
0100
1000
,
0001
1000
0010
0000
,
0001
1000
0001
1000
,
0100
0000
1000
0000
0010
1000
0010
0000
,
0100
0000
0001
0000
0001
0010
0001
0000
,
1000
0001
1000
0000
0001
0000
1000
0000
,
0100
0000
0001
0000
0010
0100
0010
0000
,
1000
0010
1000
0000
0010
0000
0100
0000
,
1000
0001
0100
1000
,
0001
0000
1000
1000
,
0100
0010
0001
1000
,
0001
0010
1000
0010
,
1000
0100
0001
1000
,
0010
1000
0010
0000
0001
0000
0100
0000
,
1000
0000
0001
0010
0001
0000
1000
0000
,
0010
0000
0100
0010
0100
0000
1000
0000
,
0010
0000
1000
0010
1000
0000
0001
0000
,
0100
0000
0001
1000
,
1000
0100
0001
1000
,
0001
0010
1000
0100
,
1000
0000
0010
1000
0010
0000
0100
0000
,
0001
0000
0010
0000
0100
0000
0001
0010
,
0001
0000
1000
0010
1000
0000
0100
0000
,
1000
0000
0001
0000
0100
0000
1000
0001
,
1000
0000
0100
0010
0100
0000
1000
0000
,
0001
1000
0010
0000
,
1000
0000
0100
0010
,
0001
0000
1000
0100
,
0001
1000
0010
1000
,
0100
0000
0001
0000
0001
0010
0001
0000
,
1000
0100
1000
0000
0010
0000
0100
0000
,
0001
0000
0010
1000
,
0001
0000
0010
0100
0010
0000
1000
0000
,
0001
1001
0000
0000
;

//--------------- dance-single - XLev450X-DSP ----------------
#NOTES:
     dance-single:
     XLev450X:
     Medium:
     12:
     0,0,0,0,0:
0000
0000
0000
0000
,
0000
0000
0000
0000
,
0000
0000
0000
0000
,
0000
0000
0000
0000
,
0000
0000
0000
0000
,
0000
0000
0000
0000
,
0000
0000
0000
0000
,
0000
0000
0000
0000
,
0000
0000
0000
0000
,
0000
0000
0000
0000
,
0001
0010
0001
1000
0010
0000
1000
0000
,
0010
1000
0010
0000
0001
0010
0002
0000
,
1003
0000
0100
0001
1000
0001
1000
0010
,
1000
0000
0010
0000
1000
0100
0001
0010
,
0100
1000
0001
1000
,
0010
1000
0100
0001
1000
0010
1000
0010
,
1000
0000
0001
0000
0010
0000
0001
1000
,
0010
0100
0001
0010
2002
0000
0000
3003
,
0001
1000
0010
1000
0010
0000
0100
0000
,
1000
0001
0010
0001
0100
1000
0001
0100
,
1000
0000
0001
0000
1000
0000
0100
0001
,
0100
0000
0010
1000
0010
0000
0100
0000
,
1000
0000
0001
0010
0001
0000
1000
0100
,
0001
1000
0001
1000
0010
0000
1000
0000
,
0100
0000
0001
0100
0010
1000
0001
0100
,
0020
1000
1000
1030
,
0001
0100
0001
1000
0010
1000
0001
1000
,
0020
0000
1000
0000
1030
0000
0001
1000
,
0002
0000
1000
0000
0013
0000
1000
0010
,
1000
0100
0001
1000
0010
1000
0001
0100
,
0002
0000
0100
0000
1003
0000
0100
0001
,
0200
0000
0010
0000
0310
0000
1000
0010
,
2000
0000
0001
0000
3001
0000
0001
1000
,
0001
0000
0100
1000
0001
0000
0100
0000
,
0001
0010
0001
0100
1000
0001
1000
0010
,
1000
0000
0100
0000
1000
0100
0202
0303
,
0010
0000
1000
0010
1000
0100
0001
0000
,
0010
0000
0001
0000
0010
0001
2002
3003
,
0001
0000
1000
0010
1000
0000
0001
0000
,
0010
0000
0001
0000
0100
1000
2200
3300
,
0001
0000
1000
0000
0010
0000
0100
0000
1000
0100
0001
0000
0010
1000
0100
0000
,
2002
0000
0000
3003
,
0100
0001
0010
0100
0110
0000
0100
1000
,
0010
0100
0110
0000
2020
3030
0022
0033
,
1000
0100
0001
0100
1000
0000
1001
0000
,
0001
0100
1000
0100
0001
0000
1001
0000
,
0001
0010
0001
0100
0110
0000
1000
0010
,
1000
0100
0110
0000
2200
3300
0202
0303
,
1000
0010
0001
0010
1000
0000
1001
0000
,
0001
0000
0000
0000
0010
0000
0000
0000
1000
0000
0000
0000
0010
0000
0000
0000
0001
0000
0000
0000
0000
0000
0000
0000
2002
0000
0000
0000
0000
3003
0000
0000
,
0001
1000
0010
1000
0010
0000
0100
0000
,
1000
0001
0010
0000
0100
0000
1000
0001
,
1000
0010
1000
0010
0000
0000
0100
1000
,
0001
0100
0010
0000
1000
0000
0001
0010
,
0001
0000
1000
0100
1000
0000
0001
0000
,
0010
1000
0010
0000
1000
0000
0100
0001
,
0100
0000
0001
0000
1000
0000
0010
1000
,
0100
0010
0001
0000
1001
0000
0000
0000
0001
0000
0100
0000
1000
0000
0100
0000
,
0001
0000
0010
0000
0001
0000
0100
0010
1000
0000
0100
0000
0001
0000
0010
0000
,
0110
0000
1001
0000
1000
0100
0001
0100
,
1000
0000
0010
0000
1000
0001
0100
0000
0001
0000
0100
0000
1000
0000
0010
0000
,
0110
0000
1001
0000
0001
0010
1000
0001
,
0100
0000
1000
0000
0001
0000
0010
0100
1000
0000
0001
0000
0100
0000
1000
0000
,
1001
0000
0110
0000
1000
0010
0001
1000
,
0100
0000
0001
0000
1000
0001
0010
0000
0001
0000
1000
0000
0100
0000
0001
0000
,
1001
0000
0110
0000
0001
1000
0010
1000
,
0010
1000
0010
0010
0100
1000
0001
0010
,
0100
1000
0001
0000
0100
0000
1000
1000
,
0001
0100
1000
0001
1000
0010
1000
0010
,
0100
0000
0000
0000
0101
0000
0000
0000
0001
0000
0010
0100
1000
0000
0010
0000
,
1000
0100
0001
0000
0100
0000
1000
0000
0001
0000
0010
0000
1000
0100
0001
0000
,
0010
0000
0101
0000
0010
0000
1000
0100
,
1000
0100
0001
0000
0010
0000
1000
0000
0001
0000
0100
0000
0001
0000
1000
0000
,
0101
0000
1001
0000
1000
0000
0010
1000
,
0010
0000
0100
0000
1000
0000
0001
0010
,
0001
0000
0100
0000
1000
0000
0010
0100
,
0010
0000
1000
0010
1000
0000
0001
0000
,
0010
0000
0100
0000
1000
0001
1000
0000
,
0010
1000
0010
0000
0100
1000
0100
0010
,
0100
0000
0001
0000
1000
0000
0001
0100
,
0001
0000
1000
0000
0010
0000
0100
0001
,
0020
0000
0000
0030
0000
0000
1001
0000
0000
0000
0000
0000
0000
0000
0000
0000
0000
0000
0000
0000
0000
0000
0000
0000
;

//--------------- dance-single - XLev450X-ESP ----------------
#NOTES:
     dance-single:
     XLev450X:
     Hard:
     16:
     0,0,0,0,0:
0000
0000
0000
0000
,
0000
0000
0000
0000
,
0000
0000
0000
0000
,
0000
0000
0000
0000
,
0000
0000
0000
0000
,
0000
0000
0000
0000
,
0000
0000
0000
0000
,
0000
0000
0000
0000
,
0000
0000
0000
0000
,
0000
0000
0000
0000
,
0001
1000
0010
1000
0010
0100
1000
0001
,
0010
0000
0001
0000
0010
0000
1000
0000
0001
1000
0010
0000
0001
0000
0100
0000
,
1000
0000
0001
1000
0010
1000
0010
0100
,
1000
0000
0001
0000
0010
0000
0100
0000
1000
0100
0001
0000
0010
0000
0001
0000
,
0202
0303
0010
1000
0010
1000
0100
1000
,
0001
0000
0010
0000
1000
0000
0001
0000
0010
1000
0001
0000
2002
0000
3003
0000
,
0020
0030
1000
0010
1000
0100
0001
1000
,
0010
0001
0100
0000
0001
1000
0010
0000
2002
0000
0000
0000
0000
0000
3003
0000
,
1000
0001
0100
0010
0001
0000
0001
0000
0100
0001
1000
0000
0010
0000
2000
0000
,
3001
0000
0000
0000
0100
0000
0001
0000
0100
1000
0001
0000
1000
0000
0002
0000
,
0103
1000
0010
1000
0100
1000
0001
0010
,
0100
0000
1000
0000
0001
0000
0010
0000
0100
0010
1000
0000
0001
0000
0200
0000
,
0320
0000
0030
0000
0010
0000
0100
0000
1000
0000
0001
1000
0010
0000
0002
0000
,
0103
0000
0000
0000
1000
0000
0100
0000
0001
0000
1000
0001
0010
0000
1000
0000
,
0010
1000
0010
0000
0100
0000
1000
0000
0001
0000
0010
0000
0100
0000
1000
0000
,
0001
0000
0010
0000
1000
0100
0001
0000
0010
0001
0100
0000
2000
0000
3001
0000
,
0001
0000
0000
1000
0000
0000
0001
0000
0010
0000
1000
0000
0010
0000
1000
0000
,
0100
0000
0000
0001
0000
0000
0010
0000
0100
0000
1000
0000
0100
0000
0001
0000
,
0010
0000
0000
1000
0000
0000
0100
0000
0001
0000
1000
0000
0001
0000
1000
0000
,
0010
0000
0000
0001
0000
0000
0100
0000
0010
0000
0000
1000
0000
0000
0100
0000
,
0001
0000
0000
1000
0000
0000
0001
0000
0100
0000
1000
0000
0001
0000
1000
0000
,
0010
0000
0000
0100
0000
0000
0010
0000
0100
0000
0010
0000
1000
0000
0001
0000
,
0010
0000
0000
0001
0000
0000
0010
0000
0100
0000
0001
0100
1000
0000
0001
0000
,
1000
0000
0001
0000
1000
0000
0010
0000
2000
0000
0100
0000
3100
0001
1000
0100
,
0001
0010
0100
1000
0100
0001
0010
1000
,
0001
0000
0100
0000
1000
0000
0001
0000
0100
0001
0100
0000
0202
0000
0303
0000
,
2002
3003
0010
1000
0100
1000
0001
0010
,
1000
0100
0001
0000
0100
0000
0001
0000
0001
0000
0100
0000
2000
0000
3000
0000
,
0022
0000
0033
0000
1000
0000
0100
0000
1000
0000
0010
0000
0001
0010
0100
0000
,
1000
0100
0001
1000
0200
0001
0301
0000
,
2002
0000
3003
0000
0010
0000
0100
0000
0001
0000
1000
0100
0010
0000
0001
0000
,
1000
0000
0000
0001
0000
0000
0100
0000
0010
0000
0000
1000
0000
0000
0001
0000
,
0001
0100
0001
1000
0100
0010
0100
1000
0100
0010
0001
0100
0010
0100
0001
0010
,
0100
0010
0001
0100
0001
0100
0010
1000
0022
0000
0033
0000
2200
0000
3300
0000
,
0001
1000
0010
1000
0100
1000
0001
0020
,
0000
0000
0000
0130
0000
0000
1000
0000
0000
0100
0000
0000
0001
0000
0000
1000
0000
0000
0020
0000
0000
0130
0000
0000
,
0010
0100
0010
0100
0001
1000
0010
1000
0100
0010
0001
0100
0010
1000
0001
0010
,
0100
0010
0001
1000
0010
0100
0010
1000
0002
0000
0003
0000
2002
0000
3003
0000
,
0010
1000
0100
1000
0001
0010
1000
0002
,
0000
0000
0000
0103
0000
0000
1000
0000
0000
0001
0000
0000
0020
0000
0000
1000
0000
0000
1030
0000
0000
0000
0000
0000
,
0100
0010
0001
0100
0001
1000
0010
1000
0001
1000
0100
0010
0100
1000
0100
0010
,
0002
0000
0000
0003
0000
0000
2020
0000
0000
3030
0000
0000
0010
0000
0000
0100
0000
0000
1000
0000
0000
0001
0000
0000
,
0010
0000
0000
1000
0000
0000
0001
0000
0000
0200
0000
0000
0000
0000
0000
0310
0000
0000
1000
0000
0000
0001
0000
0000
,
1000
0000
0010
0000
0200
0000
0310
0000
0100
0010
0001
0100
0010
0100
0001
0010
,
0001
1000
0001
1000
0100
0010
0001
1000
0100
1000
0100
0010
0100
1000
0010
0100
,
0022
0000
0000
0033
0000
0000
2002
0000
0000
3003
0000
0000
0100
0000
0000
1000
0000
0000
0010
0000
0000
0100
0000
0000
,
1000
0000
0000
0001
0000
0000
0010
0000
0000
2000
0000
0000
0000
0000
0000
3001
0000
0000
0100
0000
0000
1000
0000
0000
,
0002
0000
0103
0000
2002
0000
3003
0000
0010
1000
0100
0010
0001
0010
0100
1000
,
0010
0100
0010
0100
0010
1000
0100
1000
0010
0100
0001
1000
0010
0100
0001
1000
,
0100
0000
0001
0000
0200
0000
0310
0000
0100
1000
0001
0100
0001
1000
0001
0010
,
0100
1000
0100
0010
0001
1000
0100
0010
0100
1000
0001
0010
0100
0010
0100
1000
,
0001
0000
1000
0000
0020
0000
0130
0000
0100
0010
0100
0010
0001
1000
0010
1000
,
0100
0010
0100
1000
0010
0100
0010
1000
0100
0010
0001
1000
0010
1000
0010
1000
,
0100
0000
0001
0000
0200
0000
0301
0000
0010
1000
0001
0100
0010
0100
0001
1000
,
0100
0010
0001
0100
0001
1000
0100
0010
0001
1000
0100
0010
0001
0010
0100
0010
,
0001
1000
0010
0100
0001
1000
0100
0010
0100
0000
0100
0010
0001
0000
0100
0000
,
0100
0010
1000
0000
0100
0000
1000
0000
0001
0100
0001
0000
0100
0010
0100
0000
,
0010
1000
0010
1000
0002
0000
0000
0000
0013
0000
0010
0100
1000
0000
0010
0000
,
0010
0100
0001
0000
0010
0000
0100
0000
1000
0010
1000
0000
0001
0010
0001
0000
,
0100
0010
0100
0010
2000
0000
3002
0000
0013
0000
0010
0001
0100
0000
0010
0000
,
0010
1000
0100
0000
0010
0000
0001
0000
1000
0100
1000
0000
0001
0100
0001
0000
,
0010
0100
0010
0100
2000
0000
0000
0000
3010
0000
0010
1000
0100
0000
0010
0000
,
0010
0001
0100
0000
0010
0000
1000
0000
0100
0010
0001
0010
0100
0000
1000
0000
,
0001
0100
0001
0100
0010
1000
0010
1000
0001
0000
0000
0001
0010
0000
0100
0000
,
1100
0000
0000
0000
1000
0000
0010
0000
1000
0000
0001
0100
0001
0000
1000
0000
,
0002
0000
0023
0000
0031
0100
2000
0000
,
3100
0001
0010
0100
2000
3020
0032
0023
,
0230
0000
0302
0000
2003
0000
0000
0000
3100
0000
0000
0100
0010
0000
0001
0000
,
0101
0000
0000
0000
1000
0000
0010
0000
1000
0000
0100
0010
0100
0000
1000
0000
,
0020
0230
0302
0000
1003
0100
0002
0000
,
0103
1000
0001
0100
2000
0000
3100
0010
,
1000
1001
0000
0000
;
