#TITLE:R5 (RGR-Special);
#SUBTITLE:;
#ARTIST:tiger YAMATO with ultrabeatbox;
#TITLETRANSLIT:;
#SUBTITLETRANSLIT:;
#ARTISTTRANSLIT:;
#GENRE:RAVE;
#CREDIT:;
#MUSIC:R5 (RGR-Special).ogg;
#BANNER:R5 (RGR-Special).png;
#BACKGROUND:R5 (RGR-Special)-bg.png;
#CDTITLE:./CDTitles/bm IIDX 3rd style.png;
#SAMPLESTART:20.449;
#SAMPLELENGTH:15.000;
#SELECTABLE:YES;
#OFFSET:-0.118;
#BPMS:0.000=180.023;
#STOPS:;
#BGSTAGE:29;
#DISPLAYBPM:180;
#BGCHANGES:;
#FGCHANGES:;

//--------------- dance-single - XLev450X ----------------
#NOTES:
     dance-single:
     XLev450X:
     Challenge:
     17:
     0,0,0,0,0:
0000
0000
0000
0000
,
0000
0000
0000
0000
,
0000
0000
0000
0000
,
0000
0000
0000
0000
,
0001
0000
1000
0000
0010
0100
0001
1000
,
0010
0100
1000
0001
,
0100
0010
0000
1000
0001
0010
1000
0000
,
0001
0000
0100
0000
0010
0000
1000
0010
,
0000
0000
0001
0000
0100
0000
0000
0000
0010
0000
1000
0000
0001
1000
0010
1000
,
0100
0001
1000
0100
0010
0000
0100
0000
0001
0000
0000
0000
1000
0000
0000
0000
,
0010
0100
0001
0000
1000
0001
0100
0000
,
0010
0000
0100
0000
1000
0001
0100
0000
,
0001
1000
0010
0200
,
0000
0000
0300
0000
0010
0100
1000
0100
0010
0001
0010
0100
2000
0000
0000
0000
,
0000
0000
0000
0000
,
3000
0000
0000
0000
0010
0100
0010
0100
0001
0100
0001
0010
0001
0100
0010
1000
,
0001
1000
0001
0100
0010
1000
0001
0100
0010
1000
0001
0100
0010
1000
0010
1000
,
0100
0010
0100
1000
0010
0100
0001
0100
0010
1000
0100
0010
0001
1000
0010
1000
,
0001
0010
0001
1000
0100
0010
0001
0010
0100
1000
0001
0100
0010
1000
0001
0100
,
0010
1000
0100
0010
0001
1000
0001
0010
0100
0010
0001
0100
0001
0100
0001
0010
,
0100
0010
0100
0010
0001
0100
0010
1000
0001
0100
0010
0100
0001
1000
0010
0100
,
0010
1000
0100
1000
0010
0100
0010
1000
0100
0010
0100
0010
0100
1000
0010
0100
,
0001
1000
0100
0010
0001
1000
0100
1000
0001
0010
0100
0010
0100
0010
0001
0100
,
0001
0100
0010
1000
0001
0100
0010
1000
0010
1000
0001
0010
0100
1000
0100
1000
,
0001
0010
0100
1000
0001
0000
0000
0000
1000
0000
0000
0000
0010
0000
0100
0000
,
0001
1000
0010
0000
0100
0000
0001
0000
,
1000
0000
0010
0100
0000
0001
0000
0000
,
1000
0000
0000
0000
0001
0000
0100
0000
0010
0000
1000
0000
0001
0010
1000
0000
,
0100
0001
1000
0010
1000
0000
0010
0000
0100
0000
0000
0000
0001
0000
0000
0000
,
1000
0000
0001
0100
0000
0010
0000
0000
,
1000
0000
0000
0000
0100
0000
0001
0000
0100
0000
0010
0000
0001
0000
1000
0100
,
0010
0000
0001
0000
1000
0000
0001
0000
0100
1000
0001
0100
0010
0000
0001
0000
,
0100
0010
0000
0010
0000
1000
0000
0000
,
0100
0000
0000
0000
0010
0000
0001
0000
0100
0000
0000
0000
0010
0000
1000
0001
,
0100
0001
0100
0010
1000
0000
0001
0000
,
0100
0010
0000
0001
0000
0100
0000
0000
,
0010
1000
0001
0000
0000
0000
0100
0010
0001
0000
0000
0000
1000
0001
0100
0010
,
1000
0000
0010
0000
0001
0000
0000
0000
0100
1000
0010
0100
0001
0000
0000
0000
,
1000
0001
0100
0010
1000
0000
0001
0100
,
1000
0000
0000
0000
0010
0000
0100
0000
0001
0000
0000
0000
1000
0010
0001
1000
,
0100
0001
0010
0000
1000
0000
0000
0000
0010
0000
0100
0000
0001
0000
0000
0000
,
1000
0000
0001
0100
0010
0000
1000
0000
,
0001
0000
0100
0000
0010
0000
0000
0000
0100
0000
0000
0000
0010
0001
1000
0010
,
0100
0000
1000
0100
0010
0000
0001
0010
,
1000
0100
0010
0001
0100
0010
0001
0100
,
1000
0010
0001
0100
0010
0001
1000
0001
,
0100
0010
0001
1000
0010
0100
0001
0010
,
1000
0010
0100
1000
0001
1000
0010
0001
,
0100
0001
1000
0001
0010
0100
1000
0010
,
0001
0100
0010
1000
0001
0010
1000
0100
,
0010
0000
0100
0000
0001
1000
0010
0000
,
0100
0000
0000
0000
0001
1000
0100
0000
0010
0000
0000
0000
0001
0000
0100
0000
,
1000
0000
0000
0000
0001
0000
0000
0000
0100
0000
0000
0000
0010
0001
0100
0000
,
1000
0000
0001
0100
0010
1000
0100
0000
,
0001
1000
0010
0000
0000
0000
0100
0000
0000
0000
0001
0000
0000
0000
1000
0000
,
0010
0000
0100
0000
0000
0000
0001
0000
0000
0000
1000
0000
0010
1000
0001
0010
,
0100
1000
0001
0010
1000
0100
0001
1000
0010
0000
0000
0000
0100
0000
1000
0000
,
0001
0100
0010
0000
1000
0000
0010
0000
,
1000
0000
0000
0000
0001
0000
0100
0000
0010
0000
0000
0000
1000
0010
0100
1000
,
0001
0000
0100
0000
0010
0000
0000
0000
1000
0000
0000
0000
0001
1000
0100
0001
,
0010
0100
0001
0010
1000
0010
0100
1000
0001
0000
0100
0000
0010
0000
1000
0000
,
0001
0100
0010
0000
1000
0000
0001
0000
,
0010
1000
0001
0100
,
0010
1000
0001
0000
0100
1000
0001
0000
,
0010
0000
0100
0000
0001
0000
0000
0000
1000
0000
0010
0000
0100
1000
0010
0000
,
0001
1000
0010
0100
1000
0000
0001
0000
,
1000
0000
0000
0000
0010
1000
0100
0000
0001
0010
1000
0000
0010
1000
0100
0000
,
0001
0010
0100
0000
1000
0100
0001
0000
0010
1000
0001
0000
0100
1000
0100
0010
,
0001
1000
0100
0010
0001
1000
0100
0010
0001
0010
0100
1000
0001
0010
0100
1000
,
0100
1000
0001
0010
0002
0000
0000
0000
0000
0000
0000
0000
0000
0000
0000
0000
,
0003
0000
0000
0000
;
