#TITLE:R3 (IIDX ANOTHER Ver.) (RGR-Special);
#ARTIST:tiger YAMATO;
#GENRE:RAVE;
#MUSIC:R3 (IIDX ANOTHER Ver.) (RGR-Special).ogg;
#BANNER:R3 (IIDX ANOTHER Ver.) (RGR-Special).png;
#BACKGROUND:R3 (IIDX ANOTHER Ver.) (RGR-Special)-bg.png;
#CDTITLE:./CDTITLES/BEATMANIA IIDX.PNG;
#SAMPLESTART:55.032;
#SAMPLELENGTH:15;
#SELECTABLE:YES;
#OFFSET:0.000;
#BPMS:0.000=157.000;

//--------------- dance-single - XLev450X ----------------
#NOTES:
     dance-single:
     XLev450X:
     Challenge:
     16:
     0,0,0,0,0:
0000
0000
0000
0000
,
0000
0000
0000
0000
,
0000
0000
0000
0000
,
0000
0000
0000
0000
,
0000
0000
0000
0000
,
0000
0000
0000
0000
0000
0000
0000
0000
0010
1000
0001
0100
1000
0000
0010
0000
,
0100
0000
0000
0000
0010
0000
0000
0000
0001
0000
1000
0000
0010
0000
0100
0001
,
0100
1000
0100
1000
0001
1000
0100
0010
0001
1000
0010
0100
0010
0100
0010
0000
,
0001
0100
0001
1000
0001
1000
0010
1000
0100
0010
0100
0010
0001
0010
0100
0000
,
0100
0010
0001
0010
0100
0010
0001
0100
0001
1000
0010
0100
0001
0100
0010
0000
,
0010
0100
0010
0100
0001
0100
0001
0010
0100
0010
0001
0100
0010
1000
0001
0100
,
0010
0000
0000
0100
0000
0000
0010
0000
0000
1000
0000
0000
0010
0000
0100
1000
,
0100
0000
0000
0010
0000
0000
1000
0000
0100
0010
0001
1000
0100
0010
0100
0000
,
0001
0100
0010
1000
0001
0010
0001
1000
0010
0100
0001
0010
0100
0010
0100
0000
,
0010
0100
0001
0100
0010
0100
0001
1000
0100
0010
0100
0010
0001
0100
0010
0100
,
0001
0000
0010
0000
0100
0001
0000
0000
0000
0000
1000
0000
0010
1000
0000
0100
,
1000
0001
0000
0000
1000
0000
0000
0010
,
0000
0000
0000
0000
1000
0000
0000
0000
0010
0000
0001
0010
0001
0000
0000
0000
,
0000
1000
0000
0000
0010
0000
0000
0100
,
0000
0000
0000
0000
0001
0000
0000
0000
1000
0000
0010
1000
0010
1000
0010
1000
,
0001
0100
0000
0000
0001
0000
0000
1000
,
0000
0000
0000
0000
0010
0000
0000
0000
0100
0000
0010
0100
0010
0000
0000
0000
,
0000
1000
0000
0000
0001
0000
0000
0100
,
0000
0000
0000
0000
0010
0000
0000
0000
1000
0000
0001
0010
0100
1000
0001
0100
,
0010
0000
1000
0100
0000
0000
0001
0010
0000
0000
0100
1000
0000
0000
0010
0001
,
0000
0000
1000
0010
0000
0000
0001
1000
0000
0000
0010
0000
1001
0000
0000
0000
,
0000
0000
0010
0100
0000
0000
0100
0001
0000
0000
0001
0100
0000
0000
1000
0001
,
0010
0000
0000
0000
0100
0000
0000
0000
0010
0000
0001
0000
1000
0000
0010
0100
,
0010
0000
1000
0001
0000
0000
0001
0100
0000
0000
0100
0010
0000
0000
0010
1000
,
0000
0000
1000
0001
0000
0000
0100
0001
0000
0000
1000
0100
0001
0000
0000
0000
,
0000
0000
0010
0001
0000
0000
1000
0100
0000
0000
0010
0001
0000
0000
0100
1000
,
0001
0000
0000
0000
1000
0000
0000
0000
0010
0000
0001
0000
0010
0000
0001
0010
,
0001
0000
1000
0001
0000
0000
0010
0100
0000
0000
0100
0010
0000
0000
0001
1000
,
0000
0000
1000
0001
0010
0000
0100
0000
0001
0000
1000
0000
0010
0100
0001
1000
,
0100
0000
0000
0000
,
0010
0000
0000
0100
0000
0000
0001
0000
1000
0001
0010
1000
0100
0000
0001
0000
,
0100
0010
0001
0010
0100
0010
0100
1000
0001
0100
0010
1000
0001
1000
0010
0100
,
0001
1000
0100
1000
0100
1000
0001
0100
0010
1000
0100
0010
0100
1000
0001
0100
,
0010
1000
0001
0010
0100
0010
0100
1000
0001
1000
0010
1000
0010
0100
0010
0100
,
0001
1000
0010
1000
0100
1000
0010
0100
0001
0100
0010
1000
0001
0010
0001
1000
,
0100
0010
0100
0010
0001
0100
0010
1000
0001
0100
0001
0100
0010
0100
0001
1000
,
0001
0010
0100
1000
0001
0010
0100
1000
0001
0100
0010
1000
0001
0010
0001
0010
,
0001
1000
0010
0100
0001
1000
0100
1000
0001
1000
0001
0010
0100
1000
0001
0010
,
0100
1000
0001
0010
0001
0100
0010
0100
0010
1000
0010
1000
0100
0010
0001
0000
,
1000
0000
0001
0100
0000
0000
1000
0001
0000
0000
0010
1000
0000
0000
0100
0010
,
0000
0000
0001
0100
0000
0000
1000
0001
0000
0000
0010
0000
0100
0001
1000
0000
,
0100
0000
0001
0010
0000
0000
1000
0001
0000
0000
0010
1000
0000
0000
0100
0010
,
0000
0000
0001
0100
0000
0000
1000
0001
0000
0000
0010
1000
0000
0000
0001
0010
,
1000
0001
0100
1000
0000
0000
0001
0010
0000
0000
1000
0001
0000
0000
0010
0100
,
0000
0000
0100
0001
0000
0000
0001
0100
0000
0000
1000
0000
0001
1000
0100
0001
,
0010
0000
0100
1000
0000
0000
0001
0010
0000
0000
1000
0001
0000
0000
0010
0100
,
0001
0000
0000
0000
1000
0000
0000
0000
0010
0000
0001
0000
0010
0000
0001
0010
,
0001
0000
0010
1000
0010
0000
0110
0000
0000
0000
0001
0100
0001
0000
1010
0000
,
0000
0100
0000
0000
0000
0000
0000
0000
;
