#TITLE:R壱萬 (RGR-Special);
#SUBTITLE:;
#ARTIST:tiger YAMATO;
#TITLETRANSLIT:R10K (RGR-Special);
#SUBTITLETRANSLIT:;
#ARTISTTRANSLIT:;
#GENRE:RAVE;
#CREDIT:;
#MUSIC:R10K (RGR-Special).ogg;
#BANNER:R10K (RGR-Special).png;
#BACKGROUND:R10K (RGR-Special)-bg.png;
#CDTITLE:./CDTITLES/BEATMANIAIIDX.PNG;
#SAMPLESTART:40.727;
#SAMPLELENGTH:15.000;
#SELECTABLE:YES;
#OFFSET:-0.420;
#BPMS:0.000=190.000
,56.000=191.000
,58.000=192.000
,60.000=193.000
,62.000=194.000
,64.000=195.000
,66.000=196.000
,68.000=197.000
,70.000=198.000
,74.000=199.000
,76.000=196.000
,78.000=195.000
,80.000=194.000
,82.000=193.000
,84.000=192.000
,86.000=191.000
,88.000=190.000
,90.000=189.000
,92.000=188.000
,130.000=189.000
,132.000=190.000
,134.000=191.000
,136.000=192.000
,138.000=193.000
,140.000=194.000
,142.000=195.000
,144.000=196.000
,176.000=197.000
,178.000=198.000
,180.000=199.000
,182.000=200.000
,184.000=201.000
,186.000=202.000
,188.000=203.000
,190.000=204.000
,256.000=197.000
,258.000=198.000
,260.000=199.000
,262.000=200.000
,264.000=201.000
,266.000=202.000
,268.000=203.000
,270.000=204.000
;
#STOPS:;
#BGSTAGE:27;
#DISPLAYBPM:188:204;
#BGCHANGES:;
#FGCHANGES:;

//--------------- dance-single - XLev450X ----------------
#NOTES:
     dance-single:
     XLev450X:
     Challenge:
     15:
     0,0,0,0,0:
0000
0000
0000
0000
,
0000
0000
0000
0000
,
0000
0000
0000
0000
,
0000
0000
0000
0000
,
0001
0010
1000
0001
0100
0000
0100
0001
,
1000
0010
0000
0100
1000
0000
0001
1000
,
0010
0001
1000
0100
0001
0100
0010
0000
,
1000
0100
0000
0001
0100
0010
1000
0000
,
0001
0100
0010
1000
0001
0000
0200
0300
,
0000
0010
0001
1000
0010
0000
0200
0300
,
0000
0001
1000
0010
0100
0000
0002
0003
,
0000
0010
0001
0100
1000
0000
0020
0030
,
0100
0001
1000
0000
0010
0100
1000
0000
,
0001
0100
0010
1000
0001
0100
0010
0000
,
0001
1000
0010
0000
0100
0001
1000
0000
,
0010
0100
0001
1000
0010
0000
0100
0000
,
0001
1000
0010
0000
0100
0000
0001
0000
,
1000
0010
0001
1000
0010
0001
1000
0000
,
0100
0010
0001
0100
0001
1000
0010
0100
,
0001
1000
0100
0010
0001
0000
1000
0000
,
0202
0303
2020
3030
,
0220
0330
2002
3003
,
0001
1000
0010
0100
0001
1000
0010
0100
,
0010
1000
0010
0100
0001
0010
0100
1000
0100
1000
0010
1000
0001
0100
0010
0100
,
0001
1000
0010
0000
0100
0001
1000
0000
,
0010
0100
1000
0001
0100
0000
0010
1000
,
0000
0001
0100
1000
0010
0000
1000
0000
,
0001
0100
0010
0001
1000
0001
0200
0300
,
0000
0010
1000
0001
0100
0000
1000
0000
,
0010
0000
0100
0000
0001
1000
0010
0100
,
0000
0001
1000
0000
0010
0100
0000
0001
,
1000
0000
0010
0100
0001
1000
0010
0000
,
0200
0000
0000
0300
0002
0000
0003
0000
,
2000
3000
0020
0030
0200
0300
0002
0003
,
0100
1000
0001
1000
0010
1000
0001
0100
0010
0100
0001
1000
0010
0100
0001
1000
,
0001
0010
0001
0100
0010
1000
0100
1000
0100
0010
0001
1000
0001
0100
0010
0100
,
0001
1000
0010
0100
0001
0000
1000
0010
,
0100
0001
1000
0010
0100
0000
0010
1000
,
0001
0100
0001
0010
1000
0001
0100
0010
,
1000
0001
0100
0010
,
0001
1000
0010
0100
1000
0000
0001
0010
,
0000
0100
1000
0000
0010
0100
0000
0001
,
1000
0010
0100
0001
1000
0010
0000
0100
,
0001
1000
0010
0100
0001
1000
0010
0000
,
2000
0000
0010
0000
,
0100
0000
0001
0000
,
0010
0000
0010
0100
,
0001
0000
0010
3000
,
0010
0000
0100
0000
0001
1000
0010
0000
,
0100
1000
0001
0000
0100
0010
1000
0000
,
0001
1000
0100
0010
1000
0001
0100
0000
,
0010
1000
0001
0100
0010
0000
1000
0000
,
0001
1000
0000
0100
0010
0000
2002
0000
,
3003
0000
2000
0000
3000
0000
0002
0003
,
0100
0000
0001
1000
0000
0010
0100
0000
,
2002
3003
0220
0330
,
0010
1000
0001
0000
0010
0000
1000
0000
,
0001
0100
0010
0000
1000
0100
0001
0000
,
0100
0000
0010
0001
0000
1000
0010
0000
,
0100
1000
0001
0100
0001
0010
1000
0000
,
0001
0100
0010
0000
1000
0001
0100
0000
,
0010
1000
0001
0010
0100
0010
0001
1000
,
0001
0100
0010
1000
0001
0000
0100
0010
,
0001
1000
0100
1000
0010
1000
0010
0100
0010
0100
0001
1000
0010
0100
0010
0100
,
2002
3003
0010
0100
,
0002
0003
1000
0010
,
0100
0001
1000
0010
,
0100
0001
1000
0010
0001
0000
0100
0000
,
0001
1000
0000
0010
0100
0000
0001
0000
,
1000
0010
0000
0100
0001
0000
0010
1000
,
0010
0000
0000
0000
0101
0000
0000
0000
0010
0100
0001
0100
0001
0010
0100
1000
,
0220
0000
0000
0000
,
0330
0000
0000
0000
;
