#TITLE:Pounding Overdrive;
#ARTIST:StormTaker21;
#MUSIC:Pounding Overdrive.ogg;
#BANNER:Pounding Overdrive.png;
#BACKGROUND:Pounding Overdrive-bg.png;
#SAMPLESTART:34.070;
#SAMPLELENGTH:15;
#SELECTABLE:YES;
#OFFSET:-0.054;
#BPMS:0.000=127;

//--------------- dance-single - XLev450X-bSP ----------------
#NOTES:
     dance-single:
     XLev450X:
     Beginner:
     4:
     0,0,0,0,0:
0000
0000
0000
0000
,
0000
0000
0000
0000
,
0001
0000
1000
0000
,
0010
0000
0000
0000
,
0100
0000
0001
0000
,
1000
0000
0000
0000
,
0010
0000
0001
0000
,
1000
0000
0000
0000
,
0100
0000
0001
0000
,
1000
0010
0100
0001
,
1000
0010
0001
0100
,
0001
1000
0010
1000
,
0001
0100
0010
0000
,
0001
1000
0001
1000
,
0010
0100
1000
0001
,
0010
0100
1000
0001
,
0100
0000
0010
0000
,
0001
0010
0001
0001
,
1000
0100
1000
0000
,
0010
0100
0001
0000
,
1000
0001
0100
0000
,
0010
1000
0001
0000
,
0010
0100
0001
1000
,
0010
1000
0001
0100
,
0010
1000
0001
0000
,
0100
0010
0001
1000
,
0010
0100
0001
0000
,
1000
0001
0100
0010
,
1000
0010
0100
0000
,
0001
0001
0001
1000
,
1000
1000
0010
0100
,
0001
0010
1000
0001
,
0100
0010
0001
0000
,
0010
1000
0001
0000
,
0100
0010
1000
0000
,
0010
0100
0001
0000
,
1000
0001
0100
0000
,
0010
0001
1000
0000
,
1000
0010
0100
0000
,
0010
0001
1000
0010
,
0200
0000
0000
0000
0000
0000
0000
0000
0000
0300
0000
0002
0000
0000
0000
0000
,
0000
0000
0000
0000
,
0000
0000
0000
0000
,
0000
0000
0000
0000
0000
0000
0000
0003
,
1000
0000
0001
0010
,
1000
0000
0010
0100
,
0001
0000
1000
0010
,
0100
0001
1000
0010
,
0100
0001
1000
0100
,
0001
1000
0010
0100
,
0001
1000
0010
0100
,
0001
1000
0010
0100
,
0001
1000
0010
0000
,
0100
0001
0010
0200
,
0300
0000
0000
0000
;

//--------------- dance-single - XLev450X-BSP ----------------
#NOTES:
     dance-single:
     XLev450X:
     Easy:
     8:
     0,0,0,0,0:
0000
0000
0000
0000
,
0000
0000
0000
0000
,
1000
0001
0010
1000
,
0001
0000
0010
0000
0100
0001
1000
0000
,
0010
0001
1000
0010
,
0100
0000
0001
0000
1000
0001
0100
0010
,
1000
0000
0010
0000
0001
1000
0010
0000
,
0001
0000
0010
0000
0001
1000
0010
0000
,
0010
0001
1000
0001
,
0010
0001
0010
0000
1000
0000
0100
0000
,
0010
1000
0010
0100
,
0001
0000
1000
0000
0010
0100
0001
0000
,
1000
0010
0100
0000
0010
0000
1000
0000
,
0001
0100
0010
0000
1000
0001
0100
0000
,
0010
0001
0010
0000
1010
0000
0101
0000
,
0010
1000
0001
0100
,
0001
1000
0001
0000
0100
0000
0010
0000
,
1000
0000
0000
0000
0001
0000
0100
0010
,
1000
0000
0010
0001
,
1000
0000
0001
0000
0010
0100
1000
0000
,
0001
0000
0000
0000
0100
0000
0001
1000
,
0010
0000
0000
0000
1000
0000
0001
0100
,
0010
0000
1000
0000
0001
0100
0010
0000
,
0001
1000
0101
1010
,
0010
0100
0001
0000
1010
0000
0110
0000
,
0001
1000
0110
1001
,
0001
0100
0010
0000
1000
0000
0001
0000
,
0200
0000
0000
0300
1000
0000
0001
0000
,
1000
0001
0100
0000
0010
0000
0001
0000
,
1000
0001
1000
0010
,
0100
0000
0001
0000
0010
0001
0010
0000
,
1000
0000
0010
0000
2000
0000
0000
3000
,
0001
0010
0100
0000
,
1000
0001
0100
0010
,
0001
0000
0000
0000
0000
0000
0000
0000
0000
0000
0000
0000
0000
0000
0000
0000
0000
0000
0000
0000
0000
0000
0000
0000
1000
0000
0000
0000
0000
0000
0000
0000
0000
0000
0000
0000
0000
0000
0000
0000
0000
0000
0000
0000
0000
0000
0000
0000
0020
0000
0000
0000
0000
0000
0000
0000
0000
0000
0000
0000
0000
0000
0000
0000
0000
0000
0000
0000
0000
0000
0000
0000
0000
0000
0000
0000
0000
0000
0000
0000
0000
0000
0000
0000
0000
0030
0000
0000
0000
0000
0000
0000
0000
0000
0000
0000
,
1000
0001
0010
0100
,
0001
1000
0010
0100
,
0001
0000
1000
0000
0020
0000
0000
0030
,
1000
0001
0010
0100
,
0001
0000
1000
0000
0001
0100
0010
0000
,
2002
0000
0000
0000
0000
0000
3003
0001
,
0100
0001
1000
0010
,
0100
0001
0010
0000
1000
0010
0100
0000
,
2002
0000
0000
0000
0000
0000
0000
3003
,
1000
0000
0001
0000
0010
0001
0100
0000
,
0010
0000
1000
0000
0001
0100
0010
1000
,
0001
0000
0010
0000
1000
0001
0100
0000
,
0001
0000
1000
0000
0001
0100
0001
0000
,
0010
0000
1000
0000
0001
0100
0010
0000
,
0001
0000
1000
0000
0020
0000
0000
0030
,
1000
0001
0100
0010
,
1000
0000
0001
0000
0020
0000
0000
0030
,
0100
0001
1000
0010
,
0100
0001
1000
0000
1000
0010
0100
0002
,
0003
0000
0000
0000
;

//--------------- dance-single - XLev450X-DSP ----------------
#NOTES:
     dance-single:
     XLev450X:
     Medium:
     11:
     0,0,0,0,0:
0000
0000
0000
0000
,
0000
0000
0000
0000
,
0001
0000
0000
1000
0000
0000
0010
0000
0000
0100
0000
0000
0001
0000
0000
0000
,
0001
0000
0000
1000
0000
0000
0010
0000
0000
0100
0000
0000
1000
0000
0000
0000
,
1000
0000
0000
0010
0000
0000
0100
0000
0000
0001
0000
0000
1000
0000
0000
0000
,
0010
0000
0000
0100
0000
0000
0001
0000
0000
1000
0000
0000
0010
0000
0000
0000
,
0100
0000
0000
0001
0000
0000
1000
0000
0000
0010
0000
0000
0100
0000
0000
0000
,
0001
0000
0000
1000
0000
0000
0010
0000
0000
0100
0000
0000
0001
0000
0000
0000
,
1000
0000
0000
0001
0000
0000
0100
0000
0000
0010
0000
0000
1000
0000
0000
0000
,
0010
0000
1000
0000
0001
0100
0010
0000
,
1000
0000
0001
0000
1000
0010
0100
0000
,
0001
0000
0010
0000
1000
0001
0100
0010
,
1000
0000
0010
0000
0001
1000
0010
0000
,
0001
0010
0001
0000
1000
0010
1000
0000
,
0010
0100
0001
0000
1000
0001
0100
0000
,
0010
0001
1000
0000
0010
0100
0001
0000
,
1000
0000
0001
0000
0100
0010
0001
0000
,
1000
0000
0010
0000
0100
1000
0001
0100
,
0010
0000
0001
0000
0010
0000
0001
1000
,
0001
0000
0100
0000
0010
0000
0001
1000
,
0010
0100
0001
0010
,
1000
0001
0100
0000
0010
0000
1000
0000
,
0001
0000
1000
0000
0010
0000
0000
0000
0001
0000
0000
0100
0000
0000
1000
0000
,
0001
0000
0100
0000
0010
0000
0000
0000
0001
0000
0000
0010
0000
0000
1000
0000
,
0001
0000
0100
0000
0010
0000
0000
0000
1000
0000
0000
0100
0000
0000
0001
0000
,
1000
0000
0010
0000
0100
0000
0000
0000
1000
0000
0000
0001
0000
0000
0100
0000
,
0001
1000
0010
0000
0001
0000
0010
0000
,
0001
1000
0010
0000
0100
0001
1000
0000
,
0010
0000
0100
0000
0001
1000
0010
0000
,
0101
0000
1010
0000
0010
0100
0001
1000
,
1001
0000
0110
0000
0001
0010
0001
0000
,
1010
0000
0101
0000
0010
1000
0001
0100
,
1100
0000
0011
0000
0010
1000
0001
0100
,
0010
0000
0001
0000
1000
0001
0100
0000
,
0010
0000
0001
0000
1000
0010
0100
0001
,
1000
0001
1000
0001
,
0010
0001
0010
0000
1000
0010
0100
0000
,
0001
0000
1000
0000
0001
0100
0010
1000
,
0001
0000
0100
0000
0010
0001
1000
0000
,
0010
0000
0100
0000
0001
1000
0010
0000
,
0100
0000
0000
0001
0000
0000
1000
0000
0000
0010
0000
0100
1000
0000
0000
0001
,
0000
0100
1000
0001
0100
0000
0010
0000
,
0001
1000
0010
0001
0100
1000
0001
0100
,
0010
0000
1000
0001
0000
0000
0010
0000
0001
0000
0100
0000
1000
0000
0001
0010
0000
0000
0100
0000
1000
0000
0100
0000
,
0001
0000
1000
0000
0010
0100
0001
0000
,
1000
0000
0010
0000
0100
0001
1000
0010
,
0100
0000
0001
0000
1000
0001
0100
0000
,
0010
0000
1000
0000
0001
0000
0000
0000
0010
0000
0000
1000
0000
0000
0001
0000
,
0100
0010
1000
0000
0001
0100
0010
0000
,
0001
0000
1000
0000
0010
0000
0000
0000
0100
0000
0000
0001
0000
0000
1000
0000
,
0010
1000
0001
0100
0010
0001
0010
0000
,
1000
0010
0100
0000
0001
0010
0001
0000
,
1000
0010
0100
0001
1000
0010
0100
0000
,
0001
0010
1000
0001
0100
0010
1000
0020
,
0030
0000
0000
0000
;

//--------------- dance-single - XLev450X-ESP ----------------
#NOTES:
     dance-single:
     XLev450X:
     Hard:
     15:
     0,0,0,0,0:
0000
0000
0000
0000
,
0000
0000
0000
0000
,
0001
0000
0000
1000
0000
0000
0010
0000
0000
0100
0000
0001
1000
0000
0010
0000
,
0100
0000
0000
0001
0000
0000
0010
0000
0000
0100
0000
0001
1000
0000
0010
0000
,
0100
0000
0000
0001
0000
0000
1000
0000
0000
0010
0000
1000
0010
1000
0010
0000
,
0100
0000
0000
0001
0000
0000
0010
0000
0000
0001
0000
0100
0001
0100
0001
0000
,
1000
0000
0000
0010
0000
0000
0100
0000
0000
0001
0000
0000
1000
0001
1000
0010
,
0100
0000
0001
0000
1000
0000
0010
0000
0100
0000
0001
0000
1000
0001
0100
1000
,
0001
0000
0010
0000
0001
0000
1000
0000
0010
0000
0100
0000
0001
1000
0010
0001
,
0100
0000
0001
0000
1000
0000
0001
0000
0100
0000
0001
0100
0001
0000
1000
0000
,
0010
0000
1000
0010
1000
0000
0001
0000
0100
0000
0010
0000
2000
0000
3000
0000
,
0001
0000
0010
0000
0001
0000
0100
0000
0010
0000
1000
0001
0100
0000
0010
0000
,
1000
0000
0001
0100
0010
0000
1000
0000
0001
0000
0100
0010
2000
0000
3000
0000
,
0001
0010
0001
0000
1000
0010
0100
0000
,
0001
0000
1000
0000
0010
0000
0100
0000
0001
0000
1000
0010
2000
0000
3000
0000
,
0001
0000
0100
0010
0200
0000
0300
0000
0001
0000
1000
0001
1000
0000
0001
0000
,
0100
0010
0001
1000
0010
0100
0002
0003
,
1000
0000
0010
1000
0010
0000
0100
0000
0001
0000
0010
0001
0010
0000
0100
0000
,
0010
0000
1000
0001
0100
0000
0010
0000
0002
0000
0003
0000
0100
0000
0001
0000
,
1000
0000
0010
0000
0100
0000
0001
1000
0000
0010
0000
0100
0010
0000
0001
0000
,
1000
0000
0010
0001
0100
0000
1000
0000
0010
0000
0000
0100
0000
0000
0010
0000
,
1000
0000
0000
0000
0001
0000
0100
0000
0010
0000
0000
1000
0000
0000
0001
0000
,
0100
0000
0010
0000
1000
0000
0001
0000
0100
0001
0000
1000
0000
0010
0000
0000
,
0100
0000
0001
0000
1000
0000
0010
0000
0100
0001
0000
1000
0000
0010
0000
0100
,
0001
1000
0001
0100
0010
1000
0001
0000
,
0010
0000
0001
1000
0100
0000
0010
0000
0001
0000
1000
0001
0000
0010
0000
0100
,
0001
0000
1000
0000
0010
0000
0100
0000
0001
0000
1000
0010
0000
0100
0000
0001
,
1000
0000
0010
0000
0100
0000
0001
0000
1000
0001
0000
0100
0000
0001
0000
0100
,
0001
0000
1000
0000
0010
0000
0100
0000
0001
1000
0000
0010
0000
0100
0000
1000
,
0010
0000
0100
0000
0001
0000
0010
0000
0001
0010
0001
0000
1000
0010
1000
0000
,
0010
0000
1000
0000
0001
0000
0100
0000
0001
0100
0001
0100
0001
1000
0100
0001
,
0010
0100
0001
1000
0010
0100
0001
1000
,
0010
0000
0100
0000
0001
0000
1000
0000
0010
1000
0010
0000
0100
0001
0100
0000
,
0010
0000
1000
0000
0001
0000
0010
0000
0001
0010
0001
0000
1000
0100
1000
0000
,
0010
0000
0100
0000
0001
0000
1000
0000
0100
0010
1000
0000
0001
0000
0100
0000
,
0010
0001
0010
0000
1000
0010
1000
0000
0100
0001
0100
0000
0010
1000
0001
0000
,
0010
0100
0010
0000
1000
0001
1000
0000
0100
0001
0100
0000
0010
1000
0010
0000
,
0001
0000
1000
0000
0010
0000
0100
0000
0001
0000
1000
0010
0000
0100
0000
0001
,
1000
0000
0010
0000
0100
0001
0000
1000
0010
0001
1000
0010
0100
0000
0001
0000
,
1000
0000
0100
0000
0001
0000
0100
0000
0010
0000
1000
0001
0000
0010
0100
0000
,
0010
0000
0001
0000
1000
0000
0001
0000
0010
0000
0100
0010
0000
0001
0000
1000
,
0000
0001
0010
0000
0100
0000
0001
0000
1000
0000
0010
0000
0100
0000
0001
0000
,
1000
0010
0100
0000
0001
1000
0001
0000
0100
0010
0100
0000
1000
0001
1000
0000
,
0010
0100
0001
0100
0010
0100
0001
0010
0001
0100
0001
1000
0100
1000
0001
1000
,
0010
0000
1000
0000
0001
0000
0100
0000
0010
0000
0001
0010
0000
1000
0000
0010
,
0100
0000
0001
0000
1000
0000
0010
0000
0100
0000
0001
0010
0001
0000
1000
0000
,
0010
0000
0100
0000
0001
0000
1000
0000
0010
0000
1000
0010
0000
0100
0000
0001
,
1000
0000
0010
0100
0000
0001
0000
0000
1000
0000
0010
1000
0010
1010
0000
0000
,
0100
0000
0001
0000
1000
0000
0010
0000
0100
0000
0001
1000
0000
0010
0000
0100
,
0001
1000
0000
0000
0010
0000
0100
0000
0001
0010
0011
0001
0000
0000
1000
0000
,
0010
0000
0100
0000
0001
0000
1000
0000
0010
1000
0000
0001
0000
0100
0000
0010
,
1000
0001
0000
0000
0010
0000
0001
0000
1000
0010
1000
0001
0100
0001
0000
0000
,
1000
0000
0010
0000
0100
0000
0001
0000
1000
0010
1000
0000
0001
0100
0010
0000
,
1000
0001
1000
0000
0010
0100
0000
0001
1000
0000
0001
1000
0010
0000
0200
0000
,
0300
0000
0000
0000
;
