#TITLE:Playing With Fire;
#ARTIST:Nissy;
#GENRE:J-POP;
#MUSIC:Playing With Fire.ogg;
#BANNER:Playing With Fire.png;
#BACKGROUND:Playing With Fire-bg.png;
#SAMPLESTART:57.229421;
#SAMPLELENGTH:15;
#OFFSET:-0.036;
#BPMS:0=117.955;
#DISPLAYBPM:117;
#BGSTAGE:30;

//--------------- dance-single - XLev450X-bSP ----------------
#NOTES:
     dance-single:
     XLev450X:
     Beginner:
     3:
     0,0,0,0,0:
0000
0000
0000
0000
,
0000
0000
0000
0000
,
0000
0000
0000
0000
,
0000
0000
0000
0000
,
0000
0001
0001
0000
,
0000
0010
0010
0000
,
0000
1000
1000
0000
,
0000
0100
0100
0000
,
0000
0001
0000
1000
,
0000
0001
0000
0000
,
0000
0010
0000
0100
,
0000
0010
0000
0000
,
0000
0001
0001
0001
,
0000
1000
0000
0010
,
0000
0100
0100
0100
,
0000
1000
0000
0001
,
0000
1000
1000
1000
,
0000
0100
0000
0001
,
0000
0010
0010
0010
,
0000
0100
0000
0001
,
0000
1001
0000
0000
,
0000
0000
0000
0000
,
0000
1010
0000
0000
,
0000
0000
0000
0000
,
0000
0101
0000
0000
,
0000
0000
0000
0000
,
0000
0110
0000
0000
,
0000
0000
0000
0000
,
0000
1000
1000
1000
,
0000
0010
0000
0100
,
0000
0001
0001
0001
,
0000
0100
0000
1000
,
0000
0010
0010
0010
,
0000
0100
0000
0001
,
0000
0100
0100
0100
,
0000
1000
0000
0001
,
0000
0010
0000
1000
,
0000
0100
0000
0010
,
0000
0001
0000
0000
,
0000
1001
0000
0000
,
0000
1000
0000
0010
,
0000
0100
0000
0001
,
0000
0101
0000
0000
,
0000
1010
0000
0000
,
0000
1000
0000
0010
,
0000
0100
0000
0000
,
0000
0010
0000
0001
,
0000
0010
0000
0000
,
0000
0100
0000
1000
,
0000
0010
0000
0000
,
0000
0001
0000
0100
,
0000
0010
0000
0000
,
0000
1000
0000
1000
,
0000
0001
0000
0000
,
0000
0100
0000
0100
,
0000
1000
0000
0000
,
0000
0010
0000
0010
,
0000
1000
0000
0000
,
0000
0001
0000
0001
,
0000
0010
0000
0000
;

//--------------- dance-single - XLev450X-BSP ----------------
#NOTES:
     dance-single:
     XLev450X:
     Easy:
     6:
     0,0,0,0,0:
0000
0000
0000
0000
,
0000
0000
0000
0000
,
0000
0000
0000
0000
,
0000
0000
0000
0000
,
0000
0001
1000
0010
,
0100
0001
0010
1000
,
0000
1000
0010
0100
,
0001
0010
0100
1000
,
0000
0001
1000
0010
,
0100
0001
1000
0010
,
0000
1000
0100
0010
,
0000
0001
1000
0001
,
0000
1000
0010
0100
,
0000
0000
0001
0000
0001
0000
1000
0001
,
1000
0010
0100
0010
,
0000
0000
1000
0000
1000
0000
0010
1000
,
0010
0100
0001
0010
,
0000
0001
1000
0010
,
0000
1000
0100
0001
,
0000
0010
0100
1001
,
0000
0001
0000
1000
,
0000
0010
0000
0100
,
0000
1000
0000
0001
,
0000
0100
0000
0010
,
0000
1000
0001
1000
,
0000
0010
0100
1000
,
0000
0010
1000
0010
,
0000
0001
0100
0001
,
0000
0000
0000
0000
1000
0000
0000
0001
0000
0000
0000
0000
1000
0000
0000
0000
,
0100
0000
0000
0000
0001
0000
0000
0010
0000
0000
0000
0000
0100
0000
0000
0000
,
0000
0000
0000
0000
1000
0000
0000
0001
0000
0000
0000
0000
0100
0000
0000
0000
,
1000
0000
0001
1000
0001
0000
0010
1000
,
0010
0000
0000
0000
0100
0000
0000
0010
0000
0000
0000
0000
0010
0000
0000
0000
,
0000
0000
0000
0000
1000
0000
0000
0100
0000
0000
0000
0000
0100
0000
0000
0000
,
0000
0000
0000
0000
0010
0000
0000
1000
0000
0000
0000
0000
1000
0000
0000
0000
,
0000
0100
1000
0001
,
0000
0002
0003
0020
,
0030
0200
0300
2000
,
3000
0200
0300
0020
,
0030
0002
0003
2002
,
3003
0000
2000
3000
0020
0030
0200
0000
,
0310
0000
0002
0003
0020
0030
2000
0000
,
3001
0000
0200
0300
0002
0003
0200
0000
,
1300
0000
0020
0030
0200
0300
2020
0000
,
3030
0010
1000
0001
,
0010
0100
0000
0001
,
0000
1000
0010
0100
,
1000
0010
0000
1000
,
0000
0001
1000
0010
,
0000
0100
0001
1000
,
0000
0010
1000
0100
,
0001
0010
0100
1000
,
0000
0001
0010
0100
,
0010
0000
0001
0000
1000
0000
0001
1000
,
0001
1000
0100
0010
,
0100
1000
0010
0100
,
0000
0100
0010
0001
,
0010
0100
1000
0001
,
0000
1000
0001
0100
,
0010
0000
1000
0001
1000
0000
0010
0100
,
0010
1001
0000
0000
;

//--------------- dance-single - XLev450X-DSP ----------------
#NOTES:
     dance-single:
     XLev450X:
     Medium:
     9:
     0,0,0,0,0:
0000
0000
0000
0000
,
0000
0000
0000
0000
,
0000
0000
0000
0000
,
0000
0000
0000
0000
,
0000
0001
0000
1000
,
0010
0100
0001
0010
,
0000
1000
0000
0100
,
0001
0010
1000
0010
,
0000
0100
0001
0100
,
0000
0010
1000
0010
,
0000
0100
0010
0100
,
0000
0001
1000
0010
,
0000
0001
1000
0010
,
0100
0000
0001
0000
0010
0000
1000
0010
,
1000
0100
0001
1000
,
0000
0000
0010
0000
0100
0000
0010
0100
,
0010
0001
0010
0001
,
0000
0000
1000
0000
0010
0000
0001
0010
,
0001
0100
1000
0001
,
0000
0000
1000
0000
0010
0000
0100
0010
,
0100
0002
0000
1003
,
0000
0020
0000
0130
,
0000
2000
0000
3001
,
0000
0020
0130
0002
,
1003
0010
0100
0001
,
0000
1000
0010
0100
,
0000
1000
0001
1000
,
0000
2002
0000
0000
,
3003
0000
0001
0000
1000
0000
0010
0100
,
0010
0001
1000
0001
,
0000
0000
1000
0000
0100
0000
0010
1000
,
0010
0001
1000
0001
,
0000
0000
0010
0000
0100
0000
0010
1000
,
0010
0000
0001
0010
0001
0000
0100
0010
,
0100
0001
1000
0010
,
0000
0000
1000
0000
0001
0000
1000
0001
,
1000
0000
0000
0000
0001
0000
0000
0000
1000
0000
0000
0000
0010
0000
0000
0100
,
0000
0001
0000
0000
1000
0000
0000
0000
0010
0000
0000
0000
0100
0000
0000
1000
,
0000
0010
0000
0000
0100
0000
0000
0000
0001
0000
0000
0000
1000
0000
0000
0001
,
0000
1000
0000
0000
0010
0000
0000
0000
0100
0000
0000
0000
0010
0000
0000
0000
,
1000
0000
0000
0000
0001
0000
0000
0000
0010
0000
0000
0000
1000
0000
0000
0001
,
0000
0100
0000
0000
0010
0000
0000
0000
1000
0000
0000
0000
0010
0000
0000
0001
,
0000
0010
0000
0000
0100
0000
0000
0000
1000
0000
0000
0000
0001
0000
0000
1000
,
0000
0001
0000
0000
0100
0000
0000
0000
0010
0000
0000
0000
1000
0000
0000
0010
,
0100
0001
1000
0010
,
0100
0000
0001
0010
0001
0000
1000
0010
,
1000
0100
0001
1000
,
0000
0000
0010
0000
1000
0000
0001
0010
,
0001
1000
0001
0100
,
0000
1000
0010
0100
,
0000
0010
1000
0001
,
0010
0000
0001
0100
0001
0000
1000
0001
,
1000
0010
1000
0001
,
0000
0010
0100
0001
,
1000
0000
0010
1000
0010
0000
0010
0000
,
0100
0000
0001
0010
0001
0000
1000
0000
,
0000
0001
1000
0001
,
0000
0100
0010
1000
,
0000
0010
1000
0010
,
1000
0001
1000
0000
0010
0000
0100
0010
,
0100
1001
0000
0000
;

//--------------- dance-single - XLev450X-ESP ----------------
#NOTES:
     dance-single:
     XLev450X:
     Hard:
     12:
     0,0,0,0,0:
0000
0000
0000
0000
,
0000
0000
0000
0000
,
0000
0000
0000
0000
,
0000
0000
0000
0000
,
0000
0000
0000
0000
0001
0000
0000
1000
0000
0000
0010
0000
0100
0000
0001
0010
,
0000
1000
0000
0000
0010
0000
0100
0000
0001
0000
1000
0010
0000
0000
0001
0000
,
1000
0000
0010
0000
0100
0000
0000
0001
0000
0000
1000
0000
0010
0000
0000
0100
,
0000
0000
0001
0000
0010
0000
1000
0000
0001
0000
0010
0001
0010
0000
1000
0000
,
0001
0000
0100
0000
1000
0000
0000
0001
0000
0000
0100
0000
0010
0000
0000
1000
,
0000
0000
0010
0000
0001
0000
1000
0000
0010
0000
0100
0001
0000
1000
0000
0000
,
0010
0000
1000
0100
0001
0000
1000
0010
0000
0100
0001
0000
2000
0000
0000
3000
,
0000
0010
0100
0001
1000
0000
0010
0100
0000
0001
1000
0000
0020
0000
0000
0000
,
0130
0000
0000
0000
0001
0000
0010
0001
0010
0000
1000
0000
0002
0000
0000
0000
,
0103
0000
0001
1000
0010
1000
0000
0100
,
0010
0000
0001
0000
1000
0000
0000
0001
0010
0100
1000
0001
0200
0000
0300
0000
,
0202
0303
1000
0010
1000
0010
0200
0000
,
0301
0000
0000
0000
1000
0000
0001
1000
0000
0010
1000
0000
0010
0000
0000
0000
,
0100
0000
0001
0000
0010
0000
1000
0001
0000
1000
0010
0000
0100
0000
0010
0000
,
0001
0000
1000
0000
0010
0000
0100
0001
0000
1000
0010
0000
2000
0000
0000
0000
,
3100
0000
0001
0000
1000
0000
0000
0010
0000
0000
0100
0000
0000
0000
0001
0000
,
1000
0010
0000
0100
0001
1000
0020
0000
,
0230
0000
0302
0000
1003
0010
0100
0001
,
0010
0000
0000
1000
0000
0000
0010
0000
0100
0000
0001
0000
0010
0000
0000
0000
,
0000
0000
1000
0000
0010
0000
0000
0100
0000
0000
0001
0000
0000
0000
1000
0000
,
0000
0000
0010
0000
0100
0001
1000
0000
,
0010
0000
0000
0000
0100
0000
0000
0000
0001
0000
0000
0000
1000
0000
0000
0010
,
0000
0100
0000
0001
1000
0000
0010
0000
,
0100
0000
0000
0000
1000
0000
0001
0000
0010
0000
0000
0000
1000
0000
0000
0010
,
0000
0000
0100
0000
0001
0000
0000
0000
1000
0000
0000
0000
0010
0000
0000
0100
,
0000
0000
0001
0000
1000
0000
0000
0000
0010
0000
0000
0000
0100
0000
0000
0001
,
0000
0000
1000
0000
0010
0000
0000
0000
0100
0000
0000
0000
0001
0010
0000
1000
,
0000
0001
0000
1000
0100
0001
0010
0000
1000
0000
0001
0000
0010
0000
0000
1000
,
0000
0000
0001
0000
0010
0000
0000
0000
0100
0000
0000
0000
0001
0000
0000
1000
,
0000
0000
0010
0000
0001
0000
0000
0000
1000
0000
0000
0000
0010
0000
0000
0100
,
0000
0000
0001
0000
0010
0000
0000
0000
1000
0000
0000
0000
0010
0000
0000
0100
,
0000
0000
0001
0000
1000
0000
0000
0000
0001
0000
0000
0000
1000
0000
0000
0010
,
0000
0000
0100
0000
0001
0000
0000
0000
0010
0000
0000
0000
1000
0000
0000
0010
,
0000
0100
0000
0001
0000
0000
0000
0000
1001
0000
0000
0000
0010
0000
0000
0001
,
0000
1000
0000
0010
0000
0000
0000
0000
0110
0000
0000
0000
1000
0000
0000
0010
,
0000
0100
0000
0001
0100
0000
0100
0000
1000
0000
0000
0000
0020
0000
0000
0000
,
0032
0000
0000
0000
1003
0000
0000
0000
0010
0000
0000
0000
0100
0000
0000
0001
,
0000
1000
0000
0010
0000
0000
0000
0000
0110
0000
0000
0000
0001
0000
0000
1000
,
0000
0010
0000
0100
0000
0000
0000
0000
0101
0000
0000
0000
1000
0000
0000
0001
,
0000
0100
0000
0010
0000
0000
0001
0000
1000
0000
0000
0000
0010
0000
0000
0100
,
0001
0010
1000
0000
0001
0000
0010
1000
,
0010
0000
0000
0000
0001
0000
1000
0000
0000
0010
0000
0000
0100
0000
0000
0001
,
0000
1000
0010
0100
1000
0000
0001
0000
,
0010
0000
1000
0000
0010
0000
0100
0000
0000
0001
0000
0000
1000
0000
0000
0010
,
0000
0000
0100
0000
0000
0000
0001
0000
1000
0000
0010
0000
0100
0000
0010
1000
,
0000
0000
0001
0000
0000
0000
0100
0000
0010
0000
1000
0000
0010
0001
0000
1000
,
0000
0000
0000
0000
0010
0100
0000
0001
0000
1000
0000
0010
0000
0100
0000
0010
,
0001
0100
1000
0010
0000
0000
0100
0000
0001
0000
0000
0000
1000
0000
0000
0000
,
0010
0000
0000
0000
0001
0000
0000
0000
1000
0000
0000
0000
0010
0000
0000
0100
,
0000
0000
0001
0000
1000
0000
0010
0000
0000
0100
0000
0000
0001
0000
0000
1000
,
0000
0000
0100
0000
0001
0000
0000
0000
1000
0000
0000
0000
0010
0000
0000
0100
,
0000
0000
0001
0000
0010
0000
1000
0000
0000
0001
0000
0000
0100
0000
0000
1000
,
0000
0000
0010
0000
0001
0000
0000
0000
1000
0000
0000
0000
0010
0000
0000
0100
,
0000
0000
0001
0000
0010
0000
1000
0000
0000
0001
0000
0000
0100
0000
0000
0010
,
0000
0000
1000
0000
0001
0000
0000
0000
1000
0000
0000
0000
0010
0000
0000
0100
,
0000
0000
0001
0000
0010
0000
1000
0000
0000
0001
0000
0000
0100
0000
0000
0010
,
0000
2002
0000
3003
0000
0000
0000
0000
;
