#TITLE:Play Your Cards Right;
#ARTIST:Common feat. Bilal;
#MUSIC:Play Your Cards Right.ogg;
#BANNER:Play Your Cards Right.png;
#BACKGROUND:Play Your Cards Right-bg.png;
#SAMPLESTART:0.731;
#SAMPLELENGTH:15;
#SELECTABLE:YES;
#OFFSET:-0.092;
#BPMS:0.000=93.823;
#DISPLAYBPM:93;
#BGSTAGE:4;

//--------------- dance-single - XLev450X-bSP ----------------
#NOTES:
     dance-single:
     XLev450X:
     Beginner:
     3:
     0,0,0,0,0:
0000
0000
0000
0000
,
0000
0000
0000
0000
,
0000
0000
0000
0000
,
0000
0000
0000
0000
,
0000
1000
0001
0010
,
0000
1000
0001
0100
,
0000
0001
1000
0010
,
0000
0001
0100
0001
,
0000
1000
0010
1000
,
0001
0100
0000
0010
,
0000
0001
1000
0001
,
0010
0100
0000
0010
,
0000
1000
0001
0100
,
0000
0001
1000
0001
,
0000
0100
0001
0010
,
0000
1000
0010
1000
,
0000
0100
0010
0100
,
0000
0001
0010
0001
,
0000
1000
0010
1000
,
0000
0010
0001
1000
,
0000
0100
0001
1000
,
0000
1000
0010
0001
,
0000
0100
0001
1000
,
0010
0100
0001
1000
,
0000
0010
0100
0001
,
0000
1000
0001
0100
,
0000
0010
1000
0001
,
0000
0010
0100
0001
,
1000
0010
1000
0001
,
0000
0100
0010
1000
,
0000
0001
0100
0010
,
0000
0001
1000
0010
,
0100
0001
1000
0010
,
0000
1000
0001
0100
,
0000
0010
1000
0010
,
0100
0001
1000
0010
,
0100
2002
3003
0200
,
0300
0020
0030
2000
,
3000
0001
0001
0001
,
0000
1000
1000
1000
,
0000
0010
0100
0010
,
0000
1000
0001
0100
,
0000
0010
0100
0001
,
0000
1000
0001
0010
,
0200
0000
0300
0000
;

//--------------- dance-single - XLev450X-BSP ----------------
#NOTES:
     dance-single:
     XLev450X:
     Easy:
     7:
     0,0,0,0,0:
0000
0000
0000
0000
,
0000
0000
0000
0000
,
0000
0000
0000
0000
,
0000
0000
0000
0000
,
0000
1000
0001
0100
,
0001
0000
1000
0010
0100
0000
0010
0001
,
0010
0000
1000
0000
0010
0000
0100
0001
,
0010
0000
1000
0001
0100
0000
0010
0000
,
2002
3003
0010
0010
0010
0000
1000
1000
,
1000
0000
0001
0100
0001
0000
0010
1000
,
0010
0000
0100
0000
0001
0000
0010
1000
,
0001
0000
0100
0001
1000
0000
0010
1000
,
0001
0100
0010
0000
0001
0000
0010
0001
,
0010
0000
1000
0010
0100
0000
0002
0003
,
2000
3000
0001
0100
0010
0000
1000
0010
,
0100
0000
0002
0003
0200
0300
0010
1000
,
0001
0100
0020
0030
2000
3000
0001
1000
,
0002
0003
0200
0300
0020
0030
1000
0100
,
0002
0003
2000
3000
0002
0003
1000
0010
,
0100
0000
0002
0003
0020
0030
0001
0010
,
0002
0003
2000
3000
0200
0300
0002
0003
,
2000
3000
0010
1000
0001
0100
0010
0000
,
1000
0000
0001
0001
1000
0010
0100
0000
,
0001
0000
0100
0010
1000
0010
0101
0000
,
0220
0330
0001
1000
0001
0000
0100
0010
,
1000
0001
1000
0010
,
1000
0000
0001
0100
0010
1000
0001
1000
,
0002
0000
0203
0000
0300
0010
1000
0001
,
0100
0000
0010
0000
0001
0000
1000
0001
,
0100
0000
0020
0030
2000
3000
0100
0001
,
0100
0000
1000
0010
1000
0000
0100
0001
,
0100
0000
0020
0030
2000
3000
0002
0003
,
0200
0300
1000
0100
0001
0000
0010
0001
,
1000
0000
1000
0001
0100
0000
0020
0030
,
2000
3000
0001
1000
0001
0000
0100
0001
,
0100
0000
1000
0010
0100
0000
0001
1000
,
0010
0100
2002
0000
0000
3003
0002
0000
,
2003
3020
0230
0000
,
0302
0000
2003
0000
0000
3000
0200
0000
,
0320
0000
2030
0000
3002
0003
0000
0001
,
0100
0001
0020
0000
2030
0000
3002
0000
,
0203
0320
0032
0003
,
2000
3020
2030
3200
,
0302
0000
0023
0000
0230
0000
0300
2002
,
0000
0000
3003
0000
;

//--------------- dance-single - XLev450X-DSP ----------------
#NOTES:
     dance-single:
     XLev450X:
     Medium:
     9:
     0,0,0,0,0:
0000
0000
0000
0000
,
0000
0000
0000
0000
,
0000
0000
0000
0000
,
0000
0000
0000
0000
,
0000
0000
1000
0001
0100
0000
0010
0001
,
0010
0000
1000
0010
0100
0000
0001
0100
,
0010
1000
0001
0100
0010
0000
0001
1000
,
0010
0100
0001
0000
1000
0000
0001
0100
,
0010
0000
1000
0000
0001
0000
0100
1000
,
0001
0100
0010
1000
0001
0000
0010
1000
,
0001
0000
1010
0000
0101
0000
1000
0001
,
0100
0010
1000
0001
0010
0000
1000
0001
,
0100
0000
1000
0001
0100
0000
0010
0001
,
1000
0000
0001
1000
0010
0100
0001
0000
,
1001
0000
0001
1000
0010
0000
1000
0001
,
0100
0000
0010
0001
0010
0000
1000
0010
,
0100
0001
1000
0000
0010
0000
1000
0001
,
0100
0010
1000
0000
1001
0000
0101
0000
,
1010
0000
0010
1000
0001
0100
0010
1000
,
0001
0100
0010
1000
0001
0000
0100
0000
,
0001
0000
1000
0001
0100
0010
2000
0000
,
0000
3000
0001
0000
1000
0000
0001
0100
,
0010
0000
0001
0010
0001
0000
1000
0010
,
0100
0001
1000
0010
0100
0000
0001
0000
,
0100
0000
1000
0001
0100
0010
1000
0000
,
0110
0000
0001
1000
0010
0000
1000
0001
,
0100
0000
1000
0100
0001
0000
0100
0010
,
1000
0001
0100
0010
1000
0001
0100
0010
,
0001
0010
1000
0010
0100
0000
0001
0010
,
1000
0011
0110
1100
,
0101
0000
0100
0010
1000
0000
1000
0001
,
0100
0011
1100
1001
,
0110
0000
0010
0001
0010
0000
1000
0010
,
1000
0000
0100
0001
0100
0000
1000
0001
,
0100
0000
1010
0000
1001
0000
0001
0100
,
0010
0000
1000
0001
0100
0000
0010
0001
,
1000
0010
0202
0000
0000
0303
2000
0000
,
3002
0000
0203
0000
0320
0000
1030
0001
,
0100
0010
1000
0000
0101
0000
0010
0001
,
0010
0000
1000
0010
1000
0100
0001
0000
,
1001
0000
0010
0001
0010
0000
1000
0001
,
0100
0000
0010
0001
1000
0000
0100
0010
,
1000
0000
0001
1000
0010
0000
1100
0000
,
0011
0000
1010
0001
0100
0010
1000
0100
,
2002
0000
3003
0000
;

//--------------- dance-single - XLev450X-ESP ----------------
#NOTES:
     dance-single:
     XLev450X:
     Hard:
     13:
     0,0,0,0,0:
0000
0000
0000
0000
,
0000
0000
0000
0000
,
0000
0000
0000
0000
,
0000
0000
0000
0000
,
0000
0000
0001
0100
0020
0000
2030
0000
,
3001
0100
0020
0000
2030
0000
0100
3000
,
0001
1000
0100
0000
0010
0000
1000
0000
0002
0000
0000
0000
0103
0000
0000
0000
,
0010
1000
0001
0100
0020
0000
0030
2002
,
0000
3003
0000
0010
1000
0000
0010
0000
1000
0001
0100
0000
0010
0000
0001
0000
,
1000
0010
0100
0000
0001
0010
0001
0000
1000
0010
0000
0100
0001
1000
0010
0000
,
0100
0001
1000
0000
0010
0000
1000
0000
0001
0000
0100
0000
0010
0001
0010
0000
,
1000
0010
1000
0000
0001
0000
0100
0000
0010
0000
0000
0000
1000
0001
0000
0100
,
0010
0000
1000
0000
0001
0000
1000
0000
0010
0000
0100
0000
0001
0010
0001
0000
,
1000
0000
0010
0000
0100
0001
1000
0000
0010
0000
0100
0000
0010
0000
1000
0000
,
0001
0000
0100
0001
0010
1000
0001
0000
0100
0000
0010
0000
1000
0000
0001
0000
,
0100
0000
0010
0000
1000
0000
0001
0000
0100
0000
0000
0000
0001
1000
0010
0000
,
0100
0000
0001
0000
1000
0001
0100
0000
0010
0000
1000
0000
0001
0100
0000
0010
,
0000
0000
1000
0000
0001
0000
0000
0000
0100
0000
0010
0000
1000
0001
0000
0100
,
0000
1000
0001
0100
0010
0001
1000
0010
,
0100
0000
1000
0100
0001
0100
0010
1000
0001
0010
0000
1000
0100
0001
1000
0010
,
0100
0000
0000
0100
1000
0001
0000
1000
0000
0100
0001
0010
2000
0000
0000
0000
,
0000
0000
0000
3000
0001
0100
0010
0000
1000
0000
0001
0000
0100
0001
1000
0100
,
0020
0000
0000
0030
1000
0100
0001
0010
0200
0000
0000
0000
0300
0001
1000
0010
,
0100
0000
0001
0000
1000
0100
0010
0000
0100
0001
1000
0100
0001
0000
0010
0000
,
0100
1000
0001
0010
0100
0000
0001
0000
1000
0000
0001
0000
0010
0000
0001
0000
,
1000
0001
0100
0000
0010
0000
0001
0000
0010
0000
0000
0000
1000
0001
0100
0000
,
0010
0001
0010
0000
1000
0000
0010
0000
0100
0000
0000
0000
0001
0000
1000
0000
,
0001
0000
0100
0000
0010
0000
0001
0000
1000
0000
0001
0100
0001
0000
1000
0010
,
1000
0000
0001
0100
0010
0000
1000
0000
0001
0000
0000
0000
0100
0000
0010
0000
,
0001
1000
0010
0000
0100
0000
0001
0000
0010
0000
0000
0000
1000
0001
0000
0100
,
0010
0000
1000
0000
0001
0010
0001
0000
1000
0000
0010
0000
0100
0010
1000
0000
,
0001
0000
0010
0000
0100
0001
1000
0000
0010
0000
0000
0000
0100
0000
0001
0000
,
1000
0000
0001
1000
0010
0000
0100
0001
,
1000
0000
0010
0000
0100
0001
0100
0000
1000
0010
1000
0000
0001
0000
0100
0000
,
0010
0000
1000
0001
0100
0000
0010
1000
,
0001
0000
0000
0000
0100
0000
0010
0000
0100
0000
0010
0000
1000
0001
0000
0100
,
0010
0100
2002
0000
3003
0010
2000
0000
,
3002
0000
0203
0000
0320
0000
0000
0030
,
2000
0000
0000
3000
0001
0000
0100
0000
0020
0000
0000
0000
2030
0000
3000
0000
,
0100
0000
0001
0000
1000
0010
0000
0100
0000
0010
0002
0000
0000
0000
2003
0000
,
0000
3100
0001
0100
0020
0000
2030
0000
,
3001
0100
0020
0000
2030
0000
0000
3000
,
0001
1000
0100
0000
0010
0000
1000
0000
0002
0000
0000
0000
0103
0000
0000
0000
,
0010
1000
0001
0100
0020
0000
0030
2002
,
0000
0000
3003
0000
;

//--------------- dance-single - XLev450X-CSP ----------------
#NOTES:
     dance-single:
     XLev450X:
     Challenge:
     14:
     0,0,0,0,0:
0000
0000
0000
0000
,
0000
0000
0000
0000
,
0000
0000
0000
0000
,
0000
0000
0000
0000
,
0000
0000
0000
0000
,
0000
0000
0000
0000
,
0000
0000
0000
0000
,
0000
0000
0000
0000
,
0000
0000
0000
0000
1000
0000
0001
0000
0100
0010
0001
0010
1000
0000
0001
0100
,
0010
0000
1000
0000
0001
0100
0010
1000
0001
0100
0000
0001
1000
0001
0100
0000
,
0010
1000
0100
0001
0100
0000
0010
0001
0010
0000
1000
0000
0010
1000
0010
0000
,
0100
0001
0100
0000
0010
0000
1000
0001
0200
0000
0000
0300
0001
0010
0001
0000
,
1000
0000
0010
0000
1000
0001
0100
0010
1000
0001
0000
0100
0000
0000
0010
0001
,
0000
1000
0010
0000
0100
0000
0001
1000
0010
1000
0001
0100
0000
0000
0001
0000
,
1000
0000
0001
0100
0010
1000
0001
0000
0100
0000
0010
1000
0001
0000
0100
0000
,
0010
0000
1000
0000
0001
0000
0100
0001
1000
0000
0010
0000
0001
0010
0001
1000
,
0010
1000
0001
0100
0010
0000
1000
0000
0001
0000
0100
0000
0010
1000
0000
0001
,
0000
0100
0010
0000
1000
0000
0001
0000
0100
0010
1000
0000
0001
0100
0000
0010
,
0000
0000
1000
0001
0100
0000
0010
0001
0010
0000
1000
0010
1000
0000
0100
0001
,
0100
0000
0010
1000
0001
0000
0100
0000
0010
1000
0000
0001
0100
0010
1000
0001
,
0100
0000
0000
0001
1000
0000
0010
0100
0000
0001
0000
1000
0010
0000
1000
0000
,
0001
0100
0000
0010
1000
0001
0100
0010
1000
0000
0001
0000
0100
0000
0001
0000
,
1000
0000
0000
0000
0010
0001
1000
0010
0100
0010
0000
0000
0000
0001
1000
0010
,
0100
0000
0001
1000
0010
0100
0000
0001
1000
0010
0100
0001
1000
0100
0010
0100
,
0010
0000
0000
0000
1000
0000
0001
0000
0010
0000
1000
0000
0010
0001
0010
0000
,
1000
0010
0100
0000
0001
0000
0100
0000
0001
0000
0000
1000
0001
0000
0100
0010
,
0000
1000
0001
0000
0100
0000
0010
0000
1000
0001
1000
0000
0001
0000
0100
0000
,
0010
0000
0001
0000
1000
0001
1000
0000
0010
0000
0001
0010
0001
0000
1000
0010
,
0100
0000
0001
1000
0001
0000
0100
0000
0010
0000
1000
0000
0001
1000
0001
0100
,
0001
0000
1000
0000
0010
0001
1000
0000
0010
0000
0100
0000
1000
0010
1000
0010
,
0100
0000
0001
0000
0010
0001
1000
0000
0001
0000
0100
0000
0010
0001
0100
0000
,
1000
0000
0001
0000
0100
0010
1000
0001
0100
0000
0010
0000
1000
0000
0001
0000
,
0100
0000
0010
0000
1000
0001
0100
0010
1000
0000
0001
0000
1000
0010
0100
1000
,
0001
0000
0100
0000
0001
0000
1000
0000
0010
0000
0001
0000
1000
0001
0000
0100
,
0010
0000
0001
0010
1000
0000
0001
0000
0100
0010
0000
1000
0001
0000
0100
0000
,
0010
0000
1000
0000
0001
0100
0001
0000
1000
0000
0010
0000
1000
0001
0100
0000
,
0010
1000
0001
0000
0200
0000
0300
0000
0001
0000
1000
0000
0010
0001
0010
0000
,
1000
0010
1000
0000
0001
0000
0100
0000
0001
0000
0000
1000
0000
0000
0010
0000
,
0100
0000
0001
0000
0010
0001
0010
0000
1000
0000
0001
0000
0100
0000
0010
0000
,
1000
0000
0000
0000
0001
1000
0001
0000
0100
0000
0010
0000
0000
0000
0100
0000
,
0001
0000
1000
0000
0010
0001
0010
0000
1000
0010
1000
0000
0100
0010
0100
0000
,
0010
0001
0010
0000
1001
0000
0000
0000
0101
0000
0000
0000
1010
0000
0010
0000
,
0100
0000
0000
0000
0001
0000
1000
0000
0010
0000
0000
0000
0100
0001
0000
1000
,
0000
0010
0100
0000
0001
0000
1000
0000
0010
0000
0000
0100
0000
0000
0010
0000
,
2002
0000
3003
0000
;
