#TITLE:Pinky Happy Crazy;
#ARTIST:BEMANI Sound Team "Risk Junk";
#GENRE:HAPPY;
#MUSIC:Pinky Happy Crazy.ogg;
#BANNER:Pinky Happy Crazy.png;
#BACKGROUND:Pinky Happy Crazy-bg.png;
#CDTITLE:./CDTitles/bm IIDX 32 Pinky Crush.png;
#SAMPLESTART:61.894;
#SAMPLELENGTH:15;
#OFFSET:-0.315;
#BPMS:0=190;
#BGCHANGES:0=Pinky Happy Crazy.mp4=1.000=0=0=0=StretchNoLoop====,
99999=-nosongbg-=1.000=0=0=0 // don't automatically add -songbackground-;
#BGSTAGE:5;

//--------------- dance-single - XLev450X-bSP ----------------
#NOTES:
     dance-single:
     XLev450X:
     Beginner:
     4:
     0,0,0,0,0:
0000
0000
0000
0000
,
0000
0000
0000
0000
,
0000
0000
0000
0000
,
0000
0000
0000
0000
,
0000
0000
0000
0001
,
0000
1000
0000
0001
,
0000
0000
0000
0020
,
0000
0000
0000
0000
,
0000
0030
0000
1000
,
1000
1000
0000
0010
,
0010
0010
0000
0001
,
0000
0100
0000
0001
,
0000
0000
0000
0100
,
0100
0100
0000
0001
,
0001
0001
0000
0010
,
0000
1000
0000
0010
,
0000
0000
0000
0100
,
0000
0000
0000
0000
,
0000
0000
0000
0001
,
0000
0000
0000
0000
,
0000
0000
0000
1000
,
0000
0000
0000
0000
,
0000
0000
0000
0100
,
0000
0000
0000
0000
,
0000
0000
0000
0010
,
0000
0001
0000
0010
,
0000
0000
0000
1000
,
0000
0010
0000
1000
,
0000
0000
0000
0100
,
0000
1000
0000
0100
,
0000
0000
0000
0001
,
0000
0100
0000
0001
,
0000
0000
0000
0001
,
1000
0001
0000
0010
,
1000
0010
0000
0100
,
0010
0100
0000
0001
,
0010
0001
0000
1000
,
0000
0001
0000
0100
,
0000
0000
0000
1000
,
0000
0010
0000
1000
,
0000
0000
0000
0010
,
0010
0010
0000
0001
,
1000
0001
0000
0100
,
0100
0100
0000
1000
,
0001
1000
0000
0001
,
0000
0100
0000
0001
,
0000
0000
0000
1000
,
0000
0100
0000
1000
,
0000
0000
0000
0010
,
0000
0010
0000
1000
,
0000
0000
0000
0001
,
0000
0001
0000
1000
,
0000
0000
0000
0100
,
0000
0100
0000
0010
,
0000
0000
0000
0010
,
0000
1000
0000
0010
,
0000
0000
0000
0001
,
1000
0001
0100
0010
,
1000
0010
0000
0010
,
0001
0010
0001
1000
,
0001
0100
0000
0001
,
0000
1000
0000
0001
,
0000
0000
0000
0100
,
0000
0010
0000
0100
,
0000
0000
0000
2002
,
0000
0000
0000
0000
,
0000
0000
0000
3003
,
0000
0000
0000
0000
,
0000
0000
0000
0220
,
0000
0000
0000
0000
,
0000
0000
0000
0330
,
0000
0000
0000
0000
,
0000
0000
0000
1000
,
0000
0001
0000
1000
,
0000
0000
0000
0010
,
0000
1000
0000
0010
,
0000
0000
0000
0001
,
0000
0010
0000
0001
,
0000
0000
0000
0100
,
0000
1000
0000
0100
,
0000
0000
0000
0010
,
0000
0100
0000
0010
,
0000
0000
0000
1000
,
0000
0001
0000
1000
,
0000
0000
0000
0010
,
0000
1000
0000
0010
,
0000
0000
0000
0100
,
0000
0001
0000
0100
,
0000
0000
0000
0001
,
0000
0001
0000
1000
,
0000
0000
0000
0100
,
0000
0100
0000
1000
,
0000
0000
0000
0020
,
0000
0000
0030
0002
,
0000
0000
0003
2000
,
0000
0000
3000
0200
,
0000
0000
0000
0300
;

//--------------- dance-single - XLev450X-BSP ----------------
#NOTES:
     dance-single:
     XLev450X:
     Easy:
     7:
     0,0,0,0,0:
0000
0000
0000
0000
,
0000
0000
0000
0000
,
0000
0000
0000
0000
,
0000
0000
0000
0000
,
0000
0000
0000
0010
,
1000
0001
0100
1000
,
0010
0000
0001
0010
0001
0000
1001
0000
,
0000
0101
0000
0000
1010
0000
0000
0110
,
0000
1001
0000
1000
,
0001
0000
1000
0000
0010
1000
0010
0000
,
0001
1000
0100
0001
,
1000
0010
0001
0100
,
1000
0010
1000
0000
0001
0000
0001
0010
,
0001
0000
1000
0010
1000
0000
0100
0000
,
1000
0000
0001
0000
0010
0000
1000
0001
,
0100
0000
0001
0010
0001
0000
1000
0010
,
1000
0100
0001
1000
0010
0000
2002
0000
,
0000
0000
3003
0020
,
0000
0000
0030
0200
,
0000
0000
0300
0020
,
0000
0000
0030
2002
,
0000
0000
3003
0200
,
0000
0000
0300
0020
,
0000
0000
0030
0200
,
0000
0000
0300
1000
,
0000
0010
0000
1000
,
0000
0000
0000
0001
,
0000
0010
0000
0001
,
0000
0000
0000
1000
,
0000
0100
0000
0001
,
0000
0000
0000
0010
,
0000
1000
0000
0010
,
0000
0000
0000
1000
,
0001
1000
0010
1000
,
0100
0001
0000
0010
,
1000
0100
1000
0001
,
0010
1000
0000
0010
,
1000
0001
0000
1000
,
0100
0001
0000
1000
,
0000
0001
0000
0000
0100
0000
0000
0010
,
0000
1000
0000
0001
,
1000
0000
0001
0000
1000
0010
1000
0000
,
0010
0001
0010
1000
,
0001
0000
0010
0000
0001
0010
0001
0000
,
1000
0100
0000
0001
,
1000
0000
0001
0000
0100
0001
0100
0000
,
1000
0010
1000
0001
,
1000
0010
1000
0001
,
0000
0000
0000
1000
,
0001
0010
1000
0010
,
0011
0001
1000
0100
,
1000
0001
1000
0010
,
0000
0000
0000
1000
,
0100
0001
1000
0010
,
0100
1000
0001
0010
,
1000
0100
0001
1001
,
0000
0000
0000
0010
,
1000
0010
0100
1000
,
0001
0010
0000
0001
,
1000
0000
0100
0000
1000
0010
1000
0000
,
0001
1000
0001
0100
,
1000
0001
0010
1000
,
0000
0000
0000
0001
,
1000
0001
0100
1000
,
0001
1000
0001
2002
,
0000
0000
0000
0000
,
0000
0000
0000
0000
,
0000
0000
0000
3003
,
0000
0000
0000
0010
,
0000
1000
0000
0001
,
0000
0100
0000
0001
,
0000
1000
0000
0001
,
1000
0001
0000
0010
,
1000
0010
0000
0100
,
1000
0100
0000
0010
,
0001
1000
0001
1000
,
0001
0010
0000
1000
,
0100
1000
0001
0010
,
0100
1000
0000
0001
,
0000
1000
0000
0001
,
0000
0000
0000
0001
,
1000
0010
1000
0100
,
1000
0001
0000
0010
,
1000
0010
0000
0010
,
0100
0000
0001
0010
0001
0000
1000
0000
,
0100
1000
0001
0100
,
1000
0010
1000
0000
0001
0000
0100
0000
,
0000
1000
0000
0000
0001
0000
0000
0010
,
0000
0100
1000
0001
,
1000
0001
1000
0010
,
1000
0010
1000
0000
0001
0000
0010
0000
,
0100
0000
1000
0000
0001
0000
0010
0001
,
0010
0000
1000
0010
1000
0000
0001
0000
,
1000
1000
1000
1000
,
0010
0010
0010
0001
,
1000
0100
1000
2002
,
0000
0000
0000
0000
0000
0000
0000
3003
;

//--------------- dance-single - XLev450X-DSP ----------------
#NOTES:
     dance-single:
     XLev450X:
     Medium:
     10:
     0,0,0,0,0:
0000
0000
0000
0000
,
0000
0000
0000
0000
,
0000
0000
0000
0000
,
0000
0000
0000
0000
,
0000
0000
0000
0010
,
1000
0000
0100
0000
1000
0001
0010
0000
,
1000
0100
1000
0001
,
1000
0010
0000
0100
1000
0000
0001
0010
,
0000
1000
0001
0000
0000
0000
0001
0000
,
1000
0010
1000
0100
,
0001
0000
1000
0000
0001
1000
0001
0000
,
0010
0000
1000
0000
0100
0000
1000
0010
,
1000
0000
0001
0010
0001
0000
1000
0000
,
0100
0000
1000
0000
0001
1000
0001
0000
,
0010
0000
1000
0000
0010
0000
0001
0010
,
0001
0000
1000
0100
1000
0000
0001
1000
,
0001
1000
0001
1000
0001
0000
0001
0000
,
0000
1000
0000
0010
,
1000
0100
1000
0001
,
0000
0100
0000
0010
,
1000
0100
1000
0001
,
0000
0010
0000
1000
,
0010
0100
1000
0001
,
0000
0010
0000
1000
,
0100
0001
0010
1000
,
0001
0000
1000
0000
0010
1000
0010
0000
,
0001
0000
0010
0000
1000
0001
1000
0000
,
0010
0100
0010
0000
0001
0010
0001
0000
,
1000
0100
1000
0001
,
1000
0010
1000
0000
0010
0000
0100
0000
,
0001
0010
0001
0000
1000
0000
0010
0000
,
1000
0001
1000
0001
1000
0010
1000
0000
,
0000
0001
0000
0010
,
1000
0100
1000
0001
,
0100
0000
1000
0000
0010
1000
0010
0000
,
0010
0000
0100
0000
1000
0000
0001
1000
,
0001
1000
0010
1000
0010
0100
0001
0000
,
1000
0000
0001
0000
0010
0001
0010
0000
,
1000
0100
1000
0010
,
0001
0010
0000
1000
0010
0000
0100
1000
,
0000
0001
0010
0000
1000
0000
0001
0000
,
1000
0000
0100
0000
1000
0001
1000
0001
,
1000
1000
0001
0010
,
1000
0000
0010
0000
0001
0010
0001
0000
,
0010
1000
0010
0000
0001
0010
0001
0000
,
1000
0000
0100
0000
1000
0001
1000
0000
,
0010
0000
0001
0000
1000
0000
0010
0100
,
1000
0000
0001
0000
0010
0000
0001
0010
,
0100
1000
0001
0010
0100
1000
0001
0000
,
1000
0010
1000
0010
,
0101
1000
1010
0010
,
1000
0000
0001
0000
0100
0000
1000
0001
,
1000
0010
1000
0100
,
1000
0000
0010
0000
1000
0010
1000
0000
,
0001
0010
0100
1000
,
1010
0001
0101
1000
,
0000
0000
0000
0001
,
1000
0000
0010
0000
0100
1000
0010
0000
,
1000
0001
0100
1000
,
0010
0000
0100
0000
0001
0010
0001
0000
,
1000
0100
1000
0010
,
1000
0010
1000
0000
0100
0010
0100
0000
,
0001
0010
1000
0001
,
1000
0001
1000
0001
1000
0001
1000
0000
,
0010
0100
1000
2002
,
0000
0000
0000
3003
0000
0000
2000
0000
,
0000
3010
0000
0022
,
0000
0000
0000
0033
0000
0000
0200
0000
,
0000
0301
0000
1000
,
0000
0010
0000
0001
,
0100
0001
0000
1000
,
0010
1000
0000
0010
,
0100
0010
1000
0001
,
1000
0000
0001
0000
0010
0001
0010
0000
,
1000
0100
1000
0001
,
1000
0010
0000
0001
,
0100
0001
0000
1000
,
0010
1000
0100
1000
,
0001
0100
0000
0010
,
0000
1000
0000
2002
,
0000
0000
3003
1000
,
1000
0001
0100
1000
,
0001
0010
1000
0100
,
1000
0000
0001
0000
0010
0001
0010
0000
,
1000
0001
0000
1000
,
0100
0010
1000
0001
,
0010
0001
0010
0000
1000
0000
0010
0000
,
0000
1000
0000
0000
0001
0000
0000
0100
,
0000
0001
0000
1000
,
0001
1000
0000
0010
,
1000
0100
1000
0001
,
0010
0000
0001
0000
1000
0001
1000
0000
,
0100
1000
0001
0010
,
1000
0010
0000
0001
,
0010
1000
0000
0001
,
1000
0001
1000
0000
0010
1000
0020
0000
,
0000
0000
0000
0000
0000
0000
0000
0030
,
0000
0110
0110
0000
0000
0000
0000
0000
;

//--------------- dance-single - XLev450X-ESP ----------------
#NOTES:
     dance-single:
     XLev450X:
     Hard:
     15:
     0,0,0,0,0:
0000
0000
0000
0000
,
0000
0000
0000
0000
,
0000
0000
0000
0000
,
0000
0000
0000
0000
,
0000
0000
0000
0000
0000
0000
0001
1000
,
0010
1000
0100
1000
0001
0010
1000
0100
,
1000
0001
0010
1000
0001
0010
0202
0303
,
0010
1000
0000
0010
1000
0000
0100
0001
,
0000
1000
2002
0000
0000
3003
0001
1000
,
0010
1000
0100
1000
0001
0100
1000
0010
,
1000
0010
0100
1000
0001
0010
0001
1000
,
0100
1000
0010
0100
1000
0001
0010
0001
,
1000
0100
1000
0001
0100
1000
0001
0010
,
1000
0100
0001
1000
0010
1000
0100
1000
,
0010
1000
0001
0100
1000
0001
1000
0001
,
1000
0001
1000
0010
0100
1000
0001
0010
,
0100
1000
0001
0010
0100
1000
0002
0000
,
0000
0000
0003
0020
0030
0200
0300
0000
,
1000
0100
0010
0001
,
0000
0000
0000
0000
0000
0000
1000
0000
0100
0000
0001
0000
0100
0000
0000
0010
,
1000
0000
0010
0000
0000
0000
0100
0000
0010
0000
0001
0000
0001
0010
0100
1000
,
0001
0010
0100
1000
0001
0000
0100
0000
1000
0000
0100
0000
0001
0000
1000
0010
,
0000
0000
0100
0000
0000
0000
0001
0000
1000
0000
0010
0000
0100
0000
0000
0010
,
1000
0000
0001
0000
0000
0000
0100
0001
1000
0000
0001
0000
1000
0000
0100
0000
,
0001
0100
0000
1000
0001
0010
0001
0000
,
1000
0000
0100
0000
1000
0000
0010
0001
,
1000
0010
0100
0001
,
1000
0000
0100
0000
1000
0000
0010
1000
,
0010
1000
0100
1000
0001
0010
1000
0000
,
0001
0100
1000
0001
,
0010
0000
0001
0000
0010
0000
0000
0000
1000
0000
0000
0000
0001
0010
1000
0100
,
0001
0010
1000
0100
0001
0010
1000
0100
0001
0010
1000
0100
0002
0000
0000
0000
,
1000
0000
0010
0000
1003
0000
0100
1000
,
0100
0000
0010
0100
0010
0000
0001
0010
,
0001
0100
1000
0001
0100
0000
1000
0100
,
0001
0000
0010
0100
1000
0001
1000
0010
,
0100
1000
0001
0010
1000
0001
0010
0000
,
1000
0000
0100
0000
1000
0001
1000
0000
,
0010
0000
1000
0100
1000
0010
0210
0310
,
0000
1002
1003
0000
0102
0103
0000
2001
,
3001
0000
0010
0000
1000
0000
0010
1000
,
0100
1000
0001
1000
0001
0100
1000
0001
,
0010
0001
1000
0100
1000
0010
1000
0010
,
0100
0001
0010
0001
1000
0001
0100
1000
,
0001
0100
1000
0010
1000
0010
0100
1000
,
0001
0010
1000
0010
0100
1000
0001
0100
,
0010
1000
0001
0100
0010
1000
0001
0000
,
1000
0000
0100
0000
1000
0000
0001
0010
,
0001
1000
0001
0100
0001
1000
0001
0000
,
1000
0010
1000
1000
,
0101
0000
0010
0000
1010
0000
0010
1000
,
0010
1000
0100
1000
0001
0010
0001
1000
,
0000
0100
1000
0001
0010
0000
1000
0001
,
1000
0010
1000
0000
1001
0000
0100
0001
,
1000
0010
1000
0000
1001
0000
0010
1000
,
0010
1000
0100
1000
0001
0010
1000
0000
,
0001
0000
0100
0000
1000
0000
0001
1000
,
0001
1000
0010
1000
0100
1000
0010
0000
,
0001
0000
1000
0000
0100
0000
0001
0010
,
0001
0010
0001
0010
0001
0000
1000
0000
,
0100
0000
1000
0000
0010
0000
1000
0010
,
1000
0010
0100
1000
0001
0000
1000
0000
,
0100
0000
1000
0000
0001
0000
1000
0001
,
1000
0001
1000
0010
1000
0010
1000
0000
,
0001
1000
0001
2002
,
0000
0000
3003
0002
,
0000
2003
0000
3002
,
0000
0003
0000
2000
,
0000
3020
0000
2030
,
0000
3000
0000
0020
,
0000
0230
0000
0320
,
0000
0032
0000
2003
,
0000
3002
0000
1003
,
0001
1000
0010
1000
,
0100
0000
1000
0000
0010
0000
0001
0010
,
0001
1000
0010
0100
1000
0000
0001
0000
,
0001
0000
1000
0000
0100
0000
1000
0001
,
1000
0000
0010
1000
0010
0000
0001
0000
,
0100
0000
1000
0000
0010
0000
1000
0010
,
1000
0000
0001
0100
1000
0000
2002
0000
,
0000
0000
3003
0001
,
1000
0000
0001
0000
0010
1000
0010
0000
,
1000
0000
0100
0000
0001
0010
0001
0000
,
1000
0000
0100
0000
0010
1000
0010
0000
,
1000
0000
0100
0000
1000
0000
0001
1000
,
0001
0000
1000
0010
1000
0000
0010
0000
,
0100
0000
1000
0000
0001
0000
2001
3001
,
0000
1002
1003
0000
0120
0130
0000
0210
,
0310
0000
1000
0001
0100
0001
1000
0000
,
0010
1000
0010
0000
1000
0000
0100
0000
,
0001
0010
0001
0000
1000
0000
1000
0001
,
1000
0001
1000
0010
1000
0100
1000
0010
,
1000
0000
0100
0000
1000
0000
0001
0000
0010
0000
1000
0000
0001
0010
0100
1000
,
0001
0010
0100
1000
0001
0010
0100
1000
1001
0000
0000
0000
1000
0100
0010
0001
,
1000
0100
0010
0001
1000
0100
0010
0001
1001
0000
0000
0000
0001
1000
0001
1000
,
0001
1000
0001
1000
0001
1000
0001
1000
0001
1000
0001
1000
0002
0000
0000
0000
,
0000
0000
0000
0000
0000
0000
0000
0003
,
0000
1001
1001
0000
0000
0000
0000
0000
;
