#TITLE:Perfect Brain;
#ARTIST:Harmonix;
#MUSIC:Perfect Brain.ogg;
#BANNER:Perfect Brain.png;
#BACKGROUND:Perfect Brain-bg.png;
#SAMPLESTART:69.871;
#SAMPLELENGTH:15;
#OFFSET:-0.053;
#BPMS:0=110;
#BGSTAGE:15;

//--------------- dance-single - XLev450X-bSP ----------------
#NOTES:
     dance-single:
     XLev450X:
     Beginner:
     3:
     0,0,0,0,0:
0000
0000
0000
0000
,
0000
0000
0000
0000
,
0000
0000
0000
0000
,
0000
0000
0000
0000
,
1001
0000
0000
0000
,
0001
0000
0000
0000
,
0100
0000
0000
0000
,
0010
0000
0000
0000
,
0001
0000
1000
0000
,
0001
0000
0000
0000
,
0100
0000
0010
0000
,
0100
0000
0000
0000
,
1000
0000
0100
0000
,
1000
0000
0000
0000
,
0001
0000
0010
0000
,
0001
0000
0000
0000
,
0010
0000
0010
0000
,
0100
0000
0100
0000
,
1000
0000
1000
0000
,
0001
0000
0001
0000
,
0010
0010
0010
0000
,
0100
0100
0100
0000
,
1000
0001
1000
0001
,
1001
0000
0000
0000
,
0010
1000
0001
0010
,
1000
0100
0010
0000
,
0001
1000
0100
1000
,
0100
0010
0001
0000
,
0100
0100
0010
0000
,
1000
1000
0100
0000
,
0001
0001
0010
0000
,
0100
0010
0100
0000
,
1001
0000
0010
0001
,
1000
0000
0010
1000
,
0100
0000
0001
1000
,
0010
0000
0100
1000
,
0010
0000
0100
0010
,
0100
0000
1000
1000
,
0100
0000
0001
0010
,
0001
0000
0000
0000
,
0010
1000
0100
0001
,
1000
0100
0010
0000
,
1000
0001
0100
0010
,
1000
0001
0010
0000
,
1000
0010
0100
0001
,
1000
0100
0010
0000
,
1000
0001
0100
0010
,
1001
0000
0000
0000
;

//--------------- dance-single - XLev450X-BSP ----------------
#NOTES:
     dance-single:
     XLev450X:
     Easy:
     7:
     0,0,0,0,0:
0000
0000
0000
0000
,
0000
0000
0000
0000
,
0000
0000
0000
0000
,
0000
0000
0000
0000
,
0001
0000
0000
0000
1000
0000
0010
1000
,
0100
0000
0001
0000
0010
0000
1000
0001
,
1000
0000
0100
0000
1000
0000
0010
0100
,
1000
0010
1001
0000
,
1000
0000
0001
0000
1000
0010
1000
0100
,
0001
0000
1000
0000
0010
1000
0100
0000
,
1000
0010
1000
0000
,
0001
0000
0100
0000
0001
0000
1000
0001
,
0100
1000
0010
0000
,
1000
0000
0000
0000
0100
0000
0000
0000
0001
0000
0000
1000
0000
0000
0001
0000
,
1000
0000
0001
0000
0100
1000
0100
0000
,
0010
0000
1000
0000
0010
1000
0001
0100
,
0001
1000
0101
0000
,
1000
0000
0010
0000
0100
1000
0001
1000
,
0010
0000
0100
0000
2020
0000
0000
3030
,
0010
0000
0100
0000
2002
0000
0000
3003
,
0001
0001
0001
0001
,
0001
0000
0001
0000
1000
1000
1000
1000
,
1000
1000
1000
1000
1000
1000
1000
1000
,
2002
0000
0000
0000
0000
0000
0000
3003
,
0001
1000
0001
0000
,
1000
0000
0010
0000
1000
0100
0001
1000
,
0010
1000
0010
0000
,
1000
0100
0001
0000
,
0001
0000
1000
0000
0010
1000
0010
0000
,
0100
0000
1000
0000
0001
1000
0001
0100
,
0010
1000
0010
0000
,
0100
0000
1000
0000
0010
1000
0001
0100
,
0010
1000
0101
0000
,
1000
0010
1010
1000
,
0100
1000
0011
0000
,
1000
0000
0001
0000
1000
1000
0001
0100
,
0010
1000
1010
0000
,
0001
1000
0010
0100
,
1000
0001
0110
0000
,
1000
0000
0010
0000
1000
0001
0100
0000
,
1000
1000
0010
0100
,
0010
0001
0010
0000
1000
0100
1000
0000
,
0010
1000
0110
0000
,
1000
0000
0001
0000
0001
0000
1000
0010
,
1000
0001
0100
0000
,
1000
0001
1000
0010
,
1000
0001
1000
0000
0010
1000
0010
0000
,
0220
0000
0000
0330
;

//--------------- dance-single - XLev450X-DSP ----------------
#NOTES:
     dance-single:
     XLev450X:
     Medium:
     11:
     0,0,0,0,0:
0000
0000
0000
0000
,
0000
0000
0000
0000
,
0000
0000
0000
0000
,
0000
0000
0000
0000
,
2002
0000
0000
0000
0000
0000
0000
0000
0000
0000
0000
0000
3003
0000
1000
0010
,
2000
0000
0000
0000
0000
0000
0000
0000
0000
0000
0000
0000
0000
3000
0001
0010
,
0200
0000
0000
0000
0000
0000
0000
0300
,
2002
0000
0000
0000
0000
0000
3003
0000
0001
0000
0000
0010
0000
0000
0100
0000
,
1000
0000
0010
0000
1000
0001
0100
1000
,
0001
0000
1000
0000
0010
1000
0010
0000
,
0001
0000
1000
0000
0001
1000
0001
0100
,
1000
0000
0000
0000
0010
0000
0000
0000
1000
0000
0000
0001
0000
0000
0100
0000
,
0010
0000
1000
0000
0010
0000
1000
0001
,
0010
0000
0000
0000
0100
0000
0000
0000
1000
0000
0000
0001
0000
0000
1000
0000
,
0010
0000
0010
0000
1000
0010
1000
0000
,
0001
0000
0100
0000
0001
1000
0001
1000
,
0010
0000
0000
0000
0000
0000
0100
0000
0000
0000
0000
0000
0010
0000
0000
0001
0000
0000
0100
0000
1000
0000
0001
0000
,
0100
0000
0000
0000
0001
0000
0000
0000
0010
0000
1000
0010
0100
0000
1000
0000
,
0001
0000
0000
0000
0100
0000
0000
0000
1000
0000
0001
0010
0001
0000
1000
0000
,
0010
0000
0000
1000
0000
0001
0000
0000
0100
0000
0000
0010
1000
0000
0000
0000
,
0200
0010
0010
0010
,
0010
0000
0310
0000
1000
0001
1000
0010
,
0001
1000
0010
0100
0001
1000
0010
0100
,
0020
0000
0000
0000
0100
0000
0000
0000
0100
0000
0100
0000
0100
0000
0130
0100
,
0010
0000
0000
1000
0000
0000
0001
0000
0000
0000
1000
0000
0000
0001
0000
0000
,
1000
0000
0000
0010
0000
0000
0100
0000
0000
0000
0001
0000
1000
0000
0010
0000
,
1000
0000
0000
0100
0000
0000
0001
0000
0000
0000
1000
0000
0000
0001
0000
0000
,
0100
0000
0000
1000
0000
0000
0010
0000
0000
0000
0100
0000
0000
0000
0001
0000
,
1000
0000
0000
0000
0010
0000
0000
0000
1000
0000
0001
0000
0010
0001
0000
0000
,
1000
0000
0000
0000
0100
0000
0000
0000
1000
0000
0001
0000
1000
0010
1000
0001
,
1000
0000
0000
0000
0010
0000
0000
0000
1000
0000
0001
0000
0100
1000
0000
0000
,
0001
0000
0000
0000
1000
0000
0000
0000
0010
0000
1000
0000
0010
0100
0010
1000
,
0001
0000
0000
0000
0010
0000
0000
0000
0001
0000
0000
1000
0000
0001
0000
0000
,
0100
0000
0000
0000
1000
0000
0000
0000
0001
1000
0000
0010
0000
0100
0000
1000
,
0001
0000
0000
0000
0010
0000
0000
0000
1000
0000
0000
0010
0000
0000
1000
0000
,
0001
0000
0000
0100
0000
1000
0000
0000
0001
0000
0000
0100
0000
0010
0000
1000
,
0010
0000
0001
0000
0100
1000
0001
0000
,
1000
0000
0100
0000
1000
0010
1000
0000
,
0001
0000
0000
0000
1000
0000
0000
0001
0000
0100
0000
0000
1000
0000
0010
0000
,
1000
0000
0000
0000
0010
0000
0000
0010
0100
0000
0001
0000
0010
0001
1000
0010
,
1000
0000
0000
0010
0000
0000
1000
0000
0001
0000
0100
0000
0001
1000
0000
0000
,
0010
0000
0000
0100
0000
0000
0001
0000
0000
0000
1000
0000
0001
0000
0100
0000
,
1000
0010
0000
0000
1000
0000
0000
0100
0000
0000
0001
0000
1000
0000
0010
0000
,
1000
0001
0000
0000
0100
0010
0000
0000
1000
0010
0000
0000
0100
0010
0000
0000
,
0010
1000
0001
0000
1000
0100
1000
0000
,
0001
1000
0010
0100
1000
0001
0100
0000
,
1000
0010
1000
0000
0100
1000
0010
0000
,
0100
0000
0010
0001
0010
0000
1000
0000
0010
0000
1000
0010
1000
0000
0000
0000
;

//--------------- dance-single - XLev450X-ESP ----------------
#NOTES:
     dance-single:
     XLev450X:
     Hard:
     14:
     0,0,0,0,0:
0000
0000
0000
0000
,
0000
0000
0000
0000
,
0000
0000
0000
0000
,
0000
0000
0000
0000
,
0001
0000
1000
0000
0001
0100
0010
0000
,
1000
0001
0100
0000
0001
0000
1000
0000
,
0010
0100
0001
0100
1000
0010
0100
0000
,
1000
0000
0001
0000
0100
0000
0010
0000
0001
1000
0000
0010
0000
0000
0100
0000
,
0001
0000
0000
0000
1000
0000
0000
0000
0001
0000
0100
0010
1000
0000
0001
0000
,
0100
0000
0001
0000
1000
0001
0100
0000
,
0010
0001
1000
0010
0100
0000
0001
0000
,
1000
0000
0001
0000
0100
0000
0010
0000
1000
0000
0001
0100
0010
0000
1000
0000
,
0001
0000
1000
0000
0010
0100
0001
1000
,
0010
0000
0000
0000
0100
0000
0000
0000
0001
0000
0000
1000
0000
0000
0010
0000
,
0100
0000
0001
0000
1000
0010
0100
0000
,
0001
0000
0000
1000
0000
0000
0010
1000
0100
0001
0010
0100
,
1000
0000
0000
0000
0000
0000
0000
0000
0001
0000
0000
0000
0000
0000
0000
0000
1000
0000
0100
0010
0001
0000
0010
0100
1000
0000
0100
0010
0001
0000
0010
0100
,
1000
0000
0000
0001
0000
0000
0010
1000
0001
0100
0010
1000
,
0010
0000
0000
1000
0000
0000
0001
1000
0100
0010
0001
0100
,
1000
0000
0000
0001
0000
0100
1000
0100
0001
0000
0000
1000
0000
0001
0000
0000
,
0010
1000
0001
0100
,
0010
0000
1000
0000
0001
0100
0010
0100
,
0010
0100
0001
1000
0001
0100
0010
0100
,
0010
0000
0000
0100
0000
0000
0001
0000
0000
0100
0000
0000
0001
0000
0000
1000
0000
0000
0100
0000
0000
0010
0000
0000
0100
0000
1000
0000
0100
0000
0010
0000
0001
0000
0010
0000
0100
0000
1000
0000
0100
0000
0010
0000
0001
0000
0010
0000
,
0100
0000
0000
1000
0000
0000
0010
0000
0000
0000
0100
0000
0000
0001
0000
0000
,
1000
0000
0000
0010
0000
0000
0100
0000
0000
0000
0001
0000
1000
0000
0010
0000
,
0100
0000
0000
1000
0000
0000
0010
0000
0000
0000
1000
0001
0000
0100
0000
0010
,
1000
0000
0000
0001
0000
0000
0100
0000
0000
0001
1000
0000
0000
0010
0100
0000
,
0001
0000
0000
1000
0010
0000
0100
0000
0001
0000
1000
0000
0010
0001
0010
0000
,
1000
0000
0000
0010
0100
0000
0001
0000
1000
0010
1000
0000
0001
1000
0100
0000
,
0010
0000
0000
0100
0001
0000
0100
0000
0001
1000
0010
0000
0100
0000
0010
0000
,
1000
0000
0001
0000
0100
0000
0010
0000
1000
0000
0100
0000
0001
0000
1000
0000
0000
0000
0001
0000
1000
0000
0010
0000
0100
0000
0001
0000
1000
0000
0100
0010
,
0001
0000
0000
0000
1000
0000
0000
0000
0010
0000
0000
0100
0000
1000
0001
0000
,
1000
0000
0000
0000
0000
0000
0000
0000
0001
0000
0000
0000
0010
0000
0100
0000
1000
0000
0001
0000
0000
0000
0100
0000
0000
0000
0010
0000
0000
0000
0001
0100
,
1000
0000
0000
0000
0001
0000
0000
1000
0010
0000
0000
1000
0000
0001
0000
1000
,
0010
0000
0000
0000
0000
0000
0100
0000
0000
0000
0001
0000
0000
0000
1000
0000
0001
0000
0100
0000
0000
0000
0010
0000
1000
0000
0100
0000
0000
0000
0001
0010
,
1000
0000
0100
0000
0010
0001
0100
0000
1000
0010
0000
0100
0000
0001
0000
0100
,
1000
0000
0001
0000
0010
0000
1000
0000
0001
1000
0100
0001
0100
0000
0010
0000
,
1000
0000
0000
0000
0000
0000
0000
0000
0010
0000
0000
0000
0100
0000
0000
0001
1000
0000
0000
0000
0001
0000
0000
0000
0100
0000
0010
0000
0000
0000
0000
0000
,
1000
0000
0000
0100
0001
0000
0010
1000
0100
0001
0010
0100
0010
1000
0010
0100
,
1000
0010
0100
0001
1000
0000
0110
0000
0000
0100
0001
1000
0010
0100
0001
0000
,
1000
0010
1000
0010
1000
0010
0100
0001
0000
1000
0001
0100
0010
1000
0001
0000
,
0010
0000
1000
0000
0010
0100
0001
0000
1000
0000
0010
0100
0001
0100
1000
0000
,
0010
1000
0010
1000
0001
0100
0010
1000
0000
0100
0001
0010
1000
0001
0010
0100
,
1000
0000
0001
1000
0010
0000
0100
0000
0000
0001
1000
0100
0010
0000
0100
0000
,
0001
1000
0010
0001
0010
1000
0001
0010
0000
0100
0010
1000
0001
0100
0010
0001
,
0100
0000
1000
0010
0100
0000
0001
0000
0000
1000
0001
0100
0010
0000
1000
0000
,
0010
0001
0010
0001
0010
0001
1000
0010
0200
0000
0000
0000
0300
0000
0000
0000
;
