#TITLE:Party People... Friday Night;
#ARTIST:911;
#GENRE:POP;
#MUSIC:Party People... Friday Night.ogg;
#BANNER:Party People... Friday Night.png;
#BACKGROUND:Party People... Friday Night-bg.png;
#SAMPLESTART:56.092;
#SAMPLELENGTH:15;
#OFFSET:-0.081;
#BPMS:0=107.121;
#BGSTAGE:4;
#DISPLAYBPM:107;

//--------------- dance-single - Nifara-bSP----------------
#NOTES:
     dance-single:
     Nifara:
     Beginner:
     2:
     0,0,0,0,0:
0000
0000
0000
0000
,
0000
0000
0000
0000
,
0000
0000
0000
0000
,
0000
0000
0000
0000
,
0000
0000
0000
0000
,
0000
0000
0000
0000
,
0000
0000
0000
0000
,
0000
0000
0000
0000
,
0000
0000
0000
0000
,
1001
0000
0000
0000
,
1000
0000
0001
0000
,
0100
0000
0010
0000
,
1000
0000
0100
0000
,
1000
0000
0001
0000
,
0010
0000
0001
0000
,
0100
0000
0010
0000
,
1000
0000
0001
0000
,
0100
0100
0000
0000
,
0010
0010
0000
0000
,
0100
0100
0000
0000
,
0010
0010
0000
0000
,
1000
1000
0000
0000
,
0001
0001
0000
0000
,
1000
1000
0000
0000
,
0001
0001
0000
0000
,
1001
0000
0000
0000
,
1001
0000
0000
0000
,
0100
0000
0100
0000
,
0100
0100
0100
0100
,
0100
0000
0000
0000
,
0010
0010
0000
0000
,
0100
0100
0000
0000
,
0010
0010
0000
0000
,
1000
1000
0000
0000
,
0001
0001
0000
0000
,
1000
1000
0000
0000
,
0001
0001
0000
0000
,
1000
0000
1000
0000
,
0001
0000
0001
0000
,
0100
0000
0100
0000
,
0010
0000
0010
0000
,
1000
0000
0100
0000
,
0010
0000
0001
0000
,
0100
0000
0010
0000
,
0100
0100
0100
0100
,
0100
0000
0000
0000
;

//--------------- dance-single - Nifara-BSP----------------
#NOTES:
     dance-single:
     Nifara:
     Easy:
     4:
     0,0,0,0,0:
0000
0000
0000
0000
,
0000
0000
0000
0000
,
0000
0000
0000
0000
,
0000
0000
0000
0000
,
0000
0000
0000
0000
,
1000
0110
1000
1000
,
0001
0110
0001
0001
,
1000
0100
0010
0001
,
0100
0010
0100
0010
,
1001
0001
0100
0001
,
2000
3000
0200
0300
,
1000
0010
0100
0010
,
0020
0030
2000
3000
,
0100
1000
0100
1000
,
0020
0030
0200
0300
,
0001
0100
0001
0001
,
0002
0003
0020
0030
,
0100
1000
0100
1000
,
0020
2030
3200
0302
,
0013
1001
0010
0100
,
1001
1100
0101
1100
,
1000
0100
1000
0010
,
0100
0001
0100
0010
,
1000
0100
1000
0001
,
0100
0001
1000
0001
,
1001
0001
0100
0010
,
2000
3000
0002
0003
,
0100
0100
0100
0100
,
1001
0110
1001
0110
,
1001
1000
0100
1000
,
0001
0100
0001
0100
,
1001
0100
0010
1000
,
0100
1000
0010
0100
,
1001
0001
0100
0010
,
0100
0001
0010
0001
,
1001
0010
0100
0010
,
1000
0100
1000
0001
,
1001
0200
0300
0100
,
0010
0100
0001
1000
,
1001
0020
0030
0010
,
1000
0001
0100
0010
,
1000
1000
1000
1000
,
0001
0001
0001
0001
,
1000
0100
0010
0001
,
1001
0110
1001
0110
,
2002
3003
0000
0000
;

//--------------- dance-single - Nifara-DSP----------------
#NOTES:
     dance-single:
     Nifara:
     Medium:
     7:
     0,0,0,0,0:
0000
0000
0000
0000
,
0000
0000
0000
0000
,
0000
0000
0000
0000
,
0000
0000
0000
0000
,
0000
0000
0000
0000
,
1001
0100
0001
0100
,
0010
1000
0100
1000
,
0010
1000
0100
1000
,
0001
0000
0100
0001
0100
0001
0010
0001
,
0010
0000
0001
0000
0100
0010
1000
0000
,
0002
1003
2000
3100
,
0100
1000
0100
1000
0010
0100
0001
0100
,
0010
0100
0010
0100
0001
0000
1001
0000
,
0001
0100
0010
1000
,
0100
1000
0100
1000
0100
0000
0100
1000
,
1000
0000
0001
0000
0100
0000
0001
0100
,
0001
1001
0101
0011
,
0001
0000
0001
0001
0001
0000
0100
0000
,
0010
0000
1000
1000
1000
0000
0010
0000
,
0100
0000
0001
0001
0001
0000
0100
0000
,
0010
0000
1000
1000
1000
0000
0010
0000
,
0100
0010
0100
0000
0010
0100
0010
0000
,
1000
0001
0100
0001
,
1000
0100
1000
0001
,
1000
0010
0100
0001
,
1001
0000
0100
0000
0001
0100
0001
0100
,
0001
0000
0100
0000
0010
1000
0010
1000
,
0010
1000
0100
1000
,
1001
0110
1001
0110
,
1001
1000
0001
1000
,
0001
1000
0001
0000
1000
0001
1000
0000
,
0110
0010
0100
0010
,
0100
0010
0100
0000
0010
0100
0010
0000
,
1100
0100
1000
0100
,
1000
0100
1000
0000
0100
1000
0100
0000
,
0011
0001
0010
0001
,
0010
0001
0010
0000
0001
0010
0001
0000
,
0101
0001
0100
0001
,
0100
0001
0100
0000
0001
0100
0001
0000
,
1010
1000
0010
1000
,
0010
1000
0010
0000
1000
0010
1000
0000
,
1001
0110
1001
0110
,
1001
0000
1000
0001
1000
0001
1000
0000
,
0110
1001
0110
1001
,
0110
0000
0100
0010
0100
0010
0100
0000
,
0220
0330
0000
0000
;

//--------------- dance-single - XLev450X & Nifara-ESP ----------------
#NOTES:
     dance-single:
     XLev450X & Nifara:
     Hard:
     10:
     0,0,0,0,0:
0000
0000
0000
0000
,
0000
0000
0000
0000
,
0000
0000
0000
0000
,
0000
0000
0000
0000
,
0000
0000
0000
0000
,
0010
0100
0001
1000
1001
0000
1000
0001
,
0010
0000
0100
0000
1000
0000
0010
1000
,
0001
0100
0001
1000
0010
0001
0010
1000
,
0000
0000
0001
0000
1000
0000
0100
1000
0010
0000
0100
0000
0001
0000
0010
0000
,
0100
0000
1000
0010
0000
0001
1000
0000
0001
0000
0000
0000
0100
0000
0000
0000
,
0001
0000
0100
0000
0010
0000
0100
0000
0001
0000
0010
1000
0001
0000
0010
0000
,
0000
0101
1010
0110
1001
0000
1000
0100
,
0010
0000
0001
0000
0010
0000
0100
0000
1000
0000
0010
1000
0010
0000
0001
0000
,
0100
0000
0001
0000
1000
0000
0010
0100
,
0001
0000
1000
0000
0100
0000
1000
0010
,
1000
0010
0100
0001
1000
0010
0100
0020
,
0000
0000
0000
0000
0000
0030
0000
0000
0010
0000
0100
0000
0001
0000
0000
0010
,
0100
0000
0010
1000
0001
0000
0100
0000
0000
0000
0000
0000
0010
0000
1000
0000
,
0001
0000
1000
0001
0000
0100
0001
0000
0000
0000
0000
0000
0000
0000
0000
0000
,
0101
0000
1010
0000
0110
0000
1000
0001
,
0010
0100
1000
0100
0000
0000
0101
0000
,
1000
0000
0010
1000
0000
1000
0001
0000
0000
0000
0000
0000
0100
0000
0010
0000
,
1000
0001
0010
0100
0000
0000
1000
0100
,
0001
0000
0000
0000
0100
0000
0000
0000
0010
0000
1000
0000
0001
1000
0000
0100
,
0010
0000
1000
0000
0010
0100
0001
0010
,
0100
0010
0001
1000
0100
0010
0000
2000
,
0000
0000
0000
0000
3001
0000
0000
0100
0000
0000
0010
0000
0100
0000
1000
0001
,
0010
0000
0100
0000
1000
0000
0010
0000
0000
0000
0001
0000
1000
0010
0000
0000
,
1010
0000
0000
0000
0101
0000
0000
0000
0001
0000
0100
0000
0010
1000
0001
0000
,
0010
0000
0100
0000
0010
0000
0100
0000
0000
0000
1000
0000
0001
0100
0000
0010
,
0000
0001
1000
0000
0100
0000
0010
0000
0001
0000
0000
0000
0000
0000
0010
0100
,
0001
0000
1000
0000
0010
0000
0100
0000
0001
0000
1000
0001
0010
0000
0100
0000
,
1001
0110
1010
0101
,
1000
0010
0001
0100
0000
0000
0010
0001
,
0100
0000
0110
0000
0100
0000
0001
1000
,
0100
0010
0001
0010
0100
0010
0001
0100
,
0000
0000
0100
0000
0010
0000
1000
0001
0000
0000
0000
0000
0000
0000
0000
0000
,
1000
0000
0001
0000
0100
0000
0010
0000
0000
0000
0010
0000
1000
0000
0001
0010
,
0000
0001
0100
0000
1000
0000
0010
0000
0100
0000
0000
0010
0000
0000
0001
0000
,
1000
0001
1000
0001
1000
0010
0100
0010
,
0100
1001
0110
1001
,
0010
0100
0001
1000
0000
0000
1000
0001
,
0010
0000
0100
0000
1000
0000
0010
1000
,
0001
0100
0001
1000
0010
0001
1000
0010
,
0000
0000
0001
0000
1000
0000
0100
1000
0010
0000
0100
0000
0001
0000
0010
0000
,
0200
0300
0000
0000
;

//--------------- dance-single - XLev450X-CSP ----------------
#NOTES:
     dance-single:
     XLev450X:
     Challenge:
     13:
     0,0,0,0,0:
0000
0000
0000
0000
,
0000
0000
0000
0000
,
0000
0000
0000
0000
,
0000
0000
0000
0000
,
0000
0000
0000
0000
,
0010
0000
1000
0010
1000
0000
0001
0000
0010
0000
1000
0001
1000
0000
0010
0000
,
0100
1000
0001
0010
0100
1000
0001
0010
,
0101
1100
1010
0101
0110
1010
1001
0110
,
0000
0000
1000
0000
0010
0000
1000
0001
1000
0000
0010
0000
1000
0100
0001
1000
,
0010
0000
1000
0010
0000
0001
0010
0000
1000
0000
0001
0000
0100
0000
1000
0010
,
1000
0000
0000
0000
0001
0000
0000
0000
0010
0000
0000
0100
0000
0000
1000
0000
0001
0000
1000
0000
0001
0000
0000
0000
1000
0000
0001
0100
1000
0000
0010
0000
,
1000
0101
0110
1010
0201
0301
1000
0010
,
1000
0000
0010
1000
0010
0000
0001
0000
0010
0000
0100
0000
1000
0000
0000
0000
,
0001
0100
1000
0000
0001
0000
1000
0000
0010
0001
1000
0100
0010
0001
0010
0100
,
1000
0000
0010
0100
1000
0000
0010
0000
1000
0001
1000
0010
0100
0000
1000
0000
,
0001
0000
1000
0000
0010
0000
0100
0000
2000
0000
0001
0000
0001
0000
3010
0000
,
0100
0000
0000
0000
1000
0000
0000
0000
0001
0000
0000
0000
0010
0000
0000
0000
0001
0000
0000
0000
0010
0000
0000
0000
0010
0000
0001
0100
1000
0000
0100
0000
,
0010
0000
1000
0010
0000
0001
0010
0000
0100
0000
1000
0000
0001
0000
0010
0000
,
1000
0000
0001
0010
0000
1000
0010
0000
0100
0000
1000
0000
0001
0000
0100
0000
,
1001
0010
1010
0001
0201
0000
0301
1000
,
0001
0000
1000
0000
0010
0000
0001
0000
0010
0001
0010
0000
1000
0000
0100
0000
,
1000
0000
0001
1000
0000
0001
0100
0000
0001
0000
1000
0000
0010
0000
1000
0000
,
0010
0000
0100
0001
1000
0000
0010
0000
0001
0000
1000
0000
0010
0000
0100
0000
,
1000
0001
0010
0100
0001
0001
1000
0010
,
1000
0000
0000
0000
0001
0000
0000
0000
1000
0000
0000
0000
0001
0000
0000
0000
0010
0000
0001
0000
0010
0000
0000
0000
1000
0000
0010
0000
1000
0100
0001
0000
,
0100
0000
0001
0000
1000
0000
0010
0000
1000
0000
0001
0010
0001
0000
1000
0001
,
1000
0000
0000
0000
0010
0000
0000
0000
1000
0000
0000
0001
0000
0000
0100
0000
0010
0000
0000
0000
1000
0000
0000
0000
0001
0000
1000
0100
0010
0000
0001
0000
,
0010
0100
1000
0010
1000
0000
0001
0000
1000
0000
0010
0000
1000
0010
1000
0000
,
0002
0000
0000
0000
0000
0000
0000
0003
0200
0000
0000
0000
0000
0000
0000
0300
0010
0000
0000
0000
0010
0000
0000
0000
1000
0000
0001
0000
1000
0000
0010
0000
,
1000
0000
0000
0000
0001
0000
0000
0000
1000
0000
0000
0000
0010
0000
0000
0000
0001
0000
0000
0000
0010
0000
1000
0000
0010
0000
0100
1000
0100
0000
0010
0000
,
0000
0000
0010
0000
1000
0000
0100
0000
0001
0000
0000
0000
1000
0000
0000
0000
0010
0000
0000
0001
0000
0000
0010
0000
0000
0000
0000
0000
0001
0000
1000
0000
,
0010
0000
1000
0000
0100
0000
1000
0000
0001
0000
0010
0000
0100
0000
1000
0001
,
0010
0000
0101
0000
1010
0010
0010
1000
,
0100
0000
0001
0100
0001
0000
1000
0000
0100
0000
0001
1000
0001
0000
0100
0000
,
0010
0001
1000
0100
0010
0001
1000
0100
,
1010
0011
0101
1010
0110
0101
1001
0110
,
0000
0000
0001
0000
0100
0000
0001
1000
0001
0000
0100
0000
0001
0010
1000
0001
,
0001
0000
0000
0000
1000
0000
0000
0000
0001
0000
0000
0000
0100
0000
0000
0000
1000
0000
0000
0000
0100
0000
0001
0000
0100
0000
0010
0001
0010
0000
0100
0000
,
0000
0000
0100
0000
0001
0000
0010
0000
1000
0000
0000
0000
0001
0000
0000
0000
0100
0000
0000
1000
0000
0000
0100
0000
0000
0010
0000
0000
1000
0000
0001
0000
,
0100
0000
0001
0000
0010
0000
0001
0000
1000
0000
0100
0000
0010
0000
0001
1000
,
0100
0001
1010
1000
0101
0100
0100
0001
,
1000
0000
0010
0000
0001
0000
0010
0001
0010
0000
1000
0000
0010
0000
1000
0010
,
1000
0001
0100
1000
0001
0010
0101
0010
,
1000
0000
0010
0000
0001
0000
0010
0000
1000
0000
0001
1000
0001
0000
0010
0000
,
1000
0000
0010
0000
1000
0000
0001
0000
1000
0000
0001
0000
1000
0010
1000
0010
,
0200
0000
0000
0000
0000
0000
0310
0000
0000
0000
0000
0000
0000
0000
0000
0000
0000
0000
0000
0000
0000
0000
0000
0000
0000
0000
0000
0000
0000
0000
0000
0000
0000
0000
0000
0000
0000
0000
0000
0000
0000
0000
0000
0000
0000
0000
0000
0000
;
