#TITLE:Paradox (StepManiaX Mix);
#SUBTITLE:;
#ARTIST:NAOKI feat. Riyu Kosaka;
#TITLETRANSLIT:;
#SUBTITLETRANSLIT:;
#ARTISTTRANSLIT:;
#GENRE:J-POP;
#CREDIT:;
#MUSIC:Paradox (StepManiaX Mix).ogg;
#BANNER:Paradox (StepManiaX Mix).png;
#BACKGROUND:Paradox (StepManiaX Mix)-bg.png;
#CDTITLE:;
#SAMPLESTART:56.577;
#SAMPLELENGTH:15.000;
#SELECTABLE:YES;
#OFFSET:-0.051;
#BPMS:0.000=160.018;
#STOPS:;
#BGSTAGE:15;
#DISPLAYBPM:160;
#BGCHANGES:;
#FGCHANGES:;

//--------------- dance-single - XLev450X-bSP ----------------
#NOTES:
     dance-single:
     XLev450X:
     Beginner:
     2:
     0,0,0,0,0:
0000
0000
0000
0000
,
0000
0000
0000
0000
,
0000
0000
0000
0000
,
0000
0000
0000
0000
,
0000
0000
0001
0000
,
1000
0000
0001
0000
,
0000
0000
0010
0000
,
0100
0000
0010
0000
,
0000
0000
1000
0000
,
0000
0000
0001
0000
,
0000
0000
1000
0000
,
0001
0000
1000
0000
,
0000
0000
0010
0000
,
0000
0000
0100
0000
,
0000
0000
0010
0000
,
0100
0000
0010
0000
,
0000
0000
1000
0000
,
0100
0000
1000
0000
,
0000
0000
0010
0000
,
0001
0000
0010
0000
,
0000
0000
0010
0000
,
1000
0000
0100
0000
,
0000
0000
0001
0000
,
0100
0000
0010
0000
,
0000
0000
1000
0000
,
0000
0000
0001
0000
,
0000
0000
0100
0000
,
0000
0000
0010
0000
,
0000
0000
0001
0000
,
0000
0000
0010
0000
,
0000
0000
0100
0000
,
0000
0000
1000
0000
,
0000
0000
0001
0000
,
1000
0000
0001
0000
,
0100
0000
0010
0000
,
0100
0000
0001
0000
,
0000
0000
0000
0000
,
0000
0000
0000
0000
,
0000
0000
1000
1000
,
1000
0000
0001
0000
,
0100
0000
0001
0001
,
0001
0000
0010
0000
,
0100
0000
0010
0010
,
0010
0000
1000
0000
,
0001
0000
0100
0100
,
0100
0000
0010
0000
,
1000
0000
0001
0000
,
0100
0000
0001
0000
,
0000
0000
1000
0000
,
0010
0000
1000
0000
,
0000
0000
0010
0000
,
0100
0000
0010
0000
,
0000
0000
0001
0000
,
1000
0000
0001
0000
,
0000
0000
0010
0000
,
0000
0000
0100
0000
,
0000
0000
1000
0000
,
0000
0000
0001
0000
,
0000
0000
0100
0000
,
0000
0000
0010
0000
,
0000
0000
1001
0000
;

//--------------- dance-single - XLev450X-BSP ----------------
#NOTES:
     dance-single:
     XLev450X:
     Easy:
     4:
     0,0,0,0,0:
0000
0000
0000
0000
,
0000
0000
0000
0000
,
0000
0000
0000
0000
,
0000
0000
0000
0000
,
0000
0000
1000
1000
,
1000
0000
0001
0001
,
0001
0000
0010
0100
,
0010
0100
2002
0000
,
0000
3003
0010
0001
,
0010
0000
0100
1000
,
0100
0000
0002
0003
,
2000
3000
0020
0030
,
0200
0300
0010
1000
,
0010
0000
0100
0001
,
0100
0000
0002
0003
,
2000
3000
0020
0030
,
0200
0300
0002
0003
,
2000
3000
0010
0001
,
1000
0000
0200
0300
,
0002
0003
0020
0000
,
0030
0000
2000
3000
,
0020
0030
0200
0000
,
0000
0300
0002
0003
,
2000
3000
0020
0000
,
0000
0030
0200
0300
,
0002
0003
2000
0000
,
0000
3000
0010
0000
,
1000
0000
0010
0000
,
0000
0000
0100
0000
,
0001
0000
0100
0000
,
0000
0000
1000
0000
,
0010
0000
0002
0000
,
0000
0003
0100
0000
,
0001
0000
1000
0000
,
0010
0000
0001
0000
,
1000
0000
0010
0000
,
0100
0000
2002
3003
,
0220
0000
0330
2002
0000
0000
0000
0000
,
0000
3003
1001
0000
,
0010
0100
0001
0000
,
1000
0010
1000
0000
,
0100
0000
0010
0000
,
0001
1000
0010
0000
,
0100
0000
0010
0000
,
0001
0100
0010
0000
,
1000
0000
0010
0000
,
0100
0000
0001
0000
,
1000
0000
0010
0100
,
0001
0000
1000
0000
,
0100
0000
0010
0000
,
1000
0000
0001
0000
,
0010
1000
0001
0000
,
0100
1000
0010
0000
,
0100
0000
0001
0000
,
1000
0000
0010
0000
,
0000
0000
0100
0000
,
0000
0000
0001
0000
,
0000
0000
1000
0000
,
0000
0000
0010
0000
,
0100
0000
0001
0000
,
1000
0000
0220
0000
,
0330
0000
0000
0000
;

//--------------- dance-single - XLev450X-DSP ----------------
#NOTES:
     dance-single:
     XLev450X:
     Medium:
     8:
     0,0,0,0,0:
0000
0000
0000
0000
,
0000
0000
0000
0000
,
0000
0000
0000
0000
,
0000
0000
0000
0000
,
0000
0000
0001
1000
,
0001
0000
0010
0100
,
0001
0000
0010
1000
,
0001
0100
0010
1000
,
0010
0001
0010
0000
1000
0000
0010
0000
,
0100
0000
0001
1000
,
0010
0000
0100
0001
,
1000
0010
0100
0000
,
0001
0100
0001
0000
0010
0000
1000
0000
,
0010
0000
0100
0001
,
1000
0000
0010
0000
,
0100
0000
0001
1000
,
0010
0000
0000
0000
1000
0010
1000
0000
,
0100
0001
0100
0000
0010
0000
0100
0000
,
0001
0000
0000
0000
0100
0001
0100
0000
,
1000
0010
1000
0000
0100
0000
0001
0000
,
0010
0000
0010
0100
,
0001
0000
1000
0010
0100
0000
0001
0000
,
1000
0000
0000
0000
0010
0001
0010
0000
,
0100
1000
0100
0000
0010
0000
0100
0000
,
0001
1000
0010
0100
1001
0000
0000
0000
,
0010
0000
0100
0000
,
0001
0000
1000
0000
0010
0100
0001
0000
,
1000
0000
0000
0000
0010
0000
0000
0000
1000
0000
0000
0010
0000
0000
0001
0000
,
1000
0000
0010
0100
,
0001
1000
0010
0010
,
0001
1000
0010
0100
,
0001
1000
0010
0100
,
0001
1000
0010
0000
,
0100
0001
1000
0000
,
0010
0000
0100
0000
0001
1000
0010
0000
,
0100
0000
0001
0000
2000
0000
3000
0000
0000
0000
0010
0000
0000
1000
0000
0000
,
0010
0000
0000
0000
0000
0000
0001
0000
0000
0010
0000
0000
0100
0000
1000
0000
0001
0000
0100
0000
0001
0000
1000
0000
,
0001
0000
1000
0000
0100
0000
0010
0000
0001
0000
0000
0000
0000
0000
0000
0000
0000
0000
2002
0000
0000
3003
0000
0000
,
0220
0000
0330
0000
2020
3030
0000
0000
0010
0000
0100
0000
0001
0000
1000
0000
,
0010
0000
0100
0000
0001
0010
0001
0000
,
0100
1000
0100
0000
0010
0100
0001
1000
,
0010
0100
0002
0003
,
1000
0010
0100
0001
,
1000
0010
0100
0000
0001
0000
1000
0000
,
0100
0001
0100
0000
0010
0000
1000
0000
,
0001
0100
0010
1000
,
0001
0100
0010
0000
1000
0000
0001
0000
,
0010
0001
0010
0000
0100
0000
1000
0000
,
0010
1000
0010
0000
0100
0000
0001
0000
,
0010
0100
0001
0000
2000
0000
3000
0010
,
0000
0001
1000
0000
0001
0000
1000
0000
,
0010
0100
0001
0000
1000
0000
0010
0000
,
1000
0010
1000
0000
0100
0000
0001
0000
,
0100
0001
1000
0010
0100
0000
0000
1000
,
0001
1000
0020
0030
,
0200
0300
0002
0003
,
2000
3000
0020
0030
,
0200
0300
0002
0003
,
2000
3000
0200
0300
,
0002
0003
2000
3000
,
0020
0030
0200
0300
2002
0000
0000
0000
,
3003
0000
0000
0000
;

//--------------- dance-single - XLev450X-ESP ----------------
#NOTES:
     dance-single:
     XLev450X:
     Hard:
     13:
     0,0,0,0,0:
0000
0000
0000
0000
,
0000
0000
0000
0000
,
0000
0000
0000
0000
,
0000
0000
0000
0000
,
0000
0000
0000
0000
0001
1000
0010
0100
,
0001
0000
1000
0000
0010
0001
0010
1000
,
0010
0000
0100
0000
0001
1000
0010
0100
,
0001
1000
0010
0100
2002
0000
0000
0000
,
0000
0000
3003
0000
0001
1000
0010
0000
,
0100
0000
0001
0000
1000
0100
0001
1000
,
0010
0000
0100
0000
0010
0001
1000
0000
,
0010
0100
1000
0000
0010
0001
0100
1000
,
0010
0000
0100
0000
0010
0001
0010
0000
,
0100
1000
0100
0000
0010
1000
0001
0100
,
0010
0000
1000
0000
0001
0100
0010
0000
,
1000
0000
0001
0000
0100
0000
0010
1000
0000
0000
1000
0000
0010
0000
0001
0000
,
1000
0100
0010
0001
,
0010
1000
0001
0100
0010
0000
1000
0000
,
0100
0000
1000
0000
0010
0001
0010
0000
,
0100
1000
0100
0000
0010
0100
0001
1000
,
0010
0100
0001
1000
,
0010
0100
1000
0000
0001
0000
0100
0000
,
0010
0000
1000
0001
0100
0000
0010
0100
,
0000
1000
0000
0001
0000
0100
0001
1000
,
0010
0100
0001
0000
,
1000
0000
0010
0000
0100
0000
0000
0001
,
1000
0000
0100
0000
0010
0000
0000
0010
,
0001
0000
0000
0000
0100
0000
0000
0000
1000
0000
0000
0001
0000
0000
0010
0000
,
1000
0000
0001
1000
,
0010
0000
0100
0000
0001
1000
0000
0010
,
0100
0000
0001
0000
1000
0010
0100
0001
,
1000
0000
0010
0100
0001
0000
0010
1000
,
0001
0100
0010
1000
,
0001
0000
0100
0000
0010
0001
1000
0000
,
0010
0100
1000
0000
0010
0100
0001
1000
,
0010
0000
0100
0000
0001
0000
2000
0000
3000
0000
0001
0000
0000
0100
0000
0000
,
1000
0000
0000
0000
0000
0000
0000
0000
0000
0000
0000
0000
0010
0000
0000
1000
0000
0000
0100
0000
0000
0010
0000
0000
0001
0000
0000
0000
0010
0000
0000
0000
0001
0000
0000
0000
0010
0000
0000
0000
0001
0000
0000
0000
1000
0000
0000
0000
,
0010
0100
0001
0100
0020
0000
0000
0030
0000
0022
0033
0000
,
0202
0000
0303
0000
0000
0000
2002
0000
3003
0000
0000
0000
0001
0000
0000
1000
0000
0000
0010
0000
0000
0100
0000
0000
,
0001
0000
0010
0000
0001
1000
0010
0100
,
0001
0000
1000
0000
0010
0001
0010
0000
,
0100
0000
1000
0000
0100
0000
0000
0000
0010
0000
0100
0000
1000
0000
0001
1000
,
0010
0000
0100
0000
0001
1000
0010
0100
,
0001
0000
0010
0000
0001
0010
1000
0000
,
0010
0100
0001
0000
0010
0001
1000
0010
,
0100
0000
0001
0000
1000
0000
0010
0000
0100
0000
0001
0000
1000
0000
0010
0001
,
0010
0100
1000
0100
0010
0000
0000
0000
0010
0000
0000
0000
0100
0000
0000
0000
,
0001
1000
0010
0100
0001
0000
0010
0000
,
1000
0010
1000
0100
0010
0000
0001
0000
,
1000
0010
0100
0001
1000
0000
0010
0100
,
0000
0001
0000
0000
1000
0000
0010
0100
,
0001
1000
0010
0000
0100
0000
0001
1000
,
0010
0000
0100
0000
0001
1000
0010
0100
,
0001
0000
1000
0000
0010
0001
1000
0010
,
0100
0001
1000
0010
2000
0000
3000
0000
,
0002
0003
0200
0300
,
0020
0030
2000
3000
0200
0000
0300
0000
,
0002
0003
0020
0030
,
2000
3000
0002
0003
0100
0010
1000
0000
,
0001
0000
0100
0000
0010
0000
0000
0000
0100
1000
0010
1000
0010
0100
0001
0100
,
0001
0100
0010
1000
0100
1000
0100
0010
2002
0000
0000
0000
0000
0000
0000
0000
,
3003
0000
0000
0000
;
