#TITLE:Paradigm Shifter;
#ARTIST:Rom Di Prisco;
#MUSIC:Paradigm Shifter.ogg;
#BANNER:Paradigm Shifter.png;
#BACKGROUND:Paradigm Shifter-bg.png;
#SAMPLESTART:18.182;
#SAMPLELENGTH:15;
#OFFSET:-0.534;
#BPMS:0=112.194;
#DISPLAYBPM:112;
#BGSTAGE:4;

//--------------- dance-single - XLev450X-bSP ----------------
#NOTES:
     dance-single:
     XLev450X:
     Beginner:
     3:
     0,0,0,0,0:
0000
0000
0000
0000
,
0000
0000
0000
0000
,
0000
0000
0000
0000
,
0000
0000
0000
0000
,
0000
0010
0010
0000
,
0000
0100
0100
0000
,
0000
0010
0100
0000
,
0000
0110
0000
0000
,
0000
0010
0010
0010
,
0000
0100
0100
0100
,
0000
0100
0100
0000
,
0000
0010
0010
0000
,
0000
0100
0100
0100
,
0000
0010
0010
0010
,
0000
0010
0010
0100
,
0000
0110
0000
0000
,
0000
0100
0010
0000
,
0000
0010
0100
0000
,
0000
0100
0100
0000
,
0000
0100
0010
0000
,
0000
0010
0100
0010
,
0000
0100
0010
0100
,
0000
0100
0010
0100
,
0010
0100
0000
0010
,
0000
0100
0000
0000
,
0000
0010
0000
0000
,
0000
0100
0000
0000
,
0000
0010
0000
0000
,
0000
0100
0010
0000
,
0000
0010
0100
0000
,
0000
0100
0010
0000
,
0000
0010
0100
0000
,
0000
0110
0000
0000
,
0000
0110
0000
0000
,
0000
0110
0000
0000
,
0000
0110
0000
0000
,
0000
0110
0000
0000
,
0000
0110
0000
0000
,
0000
0110
0000
0000
,
0000
0110
0000
0000
;

//--------------- dance-single - XLev450X-BSP ----------------
#NOTES:
     dance-single:
     XLev450X:
     Easy:
     5:
     0,0,0,0,0:
0000
0000
0000
0000
,
0000
0000
0000
0000
,
0000
0000
0000
0000
,
0000
0000
0000
0000
,
0000
0001
1000
0001
,
0000
0010
0100
0010
,
0000
1000
0010
1000
,
0000
1001
0000
0000
,
0000
1000
0001
0100
,
0000
0001
1000
0010
,
0000
0010
0010
1000
,
0000
0100
0100
0001
,
0000
1000
0100
0001
,
0000
0010
0100
0010
,
0000
0001
0010
0100
,
0000
0110
0000
0000
,
0000
0001
0001
0000
,
0000
1000
1000
0000
,
0000
0010
0010
0000
,
0000
0100
0100
0000
,
0000
0001
0010
0001
,
0100
1000
0100
1001
,
0000
0010
0100
0010
,
0100
1000
0001
1000
,
0000
0001
1000
0000
,
0001
0100
1000
0000
,
0010
1000
0100
0000
,
0010
0001
0010
0000
,
0100
0010
0100
0000
,
1000
0100
1000
0000
,
0001
1000
0001
0000
,
0010
0100
0010
0000
,
0100
0110
0000
0000
,
0001
1001
0000
0000
,
0010
1010
0000
0000
,
0100
0101
0000
0000
,
0001
1001
0000
0000
,
0000
1010
0000
0000
,
0000
0110
0000
0000
,
0000
0101
0000
0000
;

//--------------- dance-single - XLev450X-DSP ----------------
#NOTES:
     dance-single:
     XLev450X:
     Medium:
     10:
     0,0,0,0,0:
0000
0000
0000
0000
,
0000
0000
0000
0000
,
0000
0000
0000
0000
,
0000
0000
0000
0000
,
0000
0000
0001
1000
0010
0000
0100
1000
,
0001
0100
1000
0001
0010
0000
1000
0100
,
0001
0010
1000
0001
0100
0000
0001
1000
,
0010
0000
1000
0000
0001
1000
0000
1001
0000
0000
0010
0100
0000
0110
0000
0000
,
0000
0000
0000
0000
0001
0000
0000
1000
0000
0000
0010
0000
0000
0100
0000
0000
,
0001
0000
0000
0000
1000
0000
0000
0001
0000
0000
0100
0000
0000
0010
0000
0000
,
1000
0000
0000
0000
0001
0000
0000
1000
0000
0000
0010
0000
0000
0100
0000
0000
,
0001
0000
0000
0000
0010
0000
0000
1000
0000
0000
0010
0000
0000
0100
0000
0000
,
0001
0000
0000
0000
1000
0000
0000
0001
0000
0000
0100
0000
0000
0001
0000
0000
,
1000
0000
0000
0000
0010
0000
0000
0100
0000
0000
1000
0000
0000
0001
0000
0000
,
0100
0000
0000
0000
0010
0000
0000
1000
0000
0000
0010
0000
0000
0100
0000
0000
,
0001
0000
0000
0000
1000
0001
0000
1001
0000
0000
0001
1000
0000
1001
0000
0000
,
0000
0000
0001
1000
0010
0000
0010
0010
,
0100
1000
0001
0100
1000
0000
0001
0001
,
1000
0010
0100
1000
0010
0000
0010
0001
,
0010
1000
0100
0001
0010
0000
1000
0001
,
0100
0000
0010
0000
1000
0000
0001
0000
0010
0000
0001
0000
1000
0000
0001
1000
,
0001
1000
0010
0100
1000
0001
0010
0100
,
1000
0000
0001
1000
0010
0100
1000
0010
,
1000
0010
1000
0000
0010
0000
0100
0000
0001
0000
0010
0000
0001
0010
0001
0000
,
1000
0010
1000
0000
0010
0000
0000
0100
0000
0000
0001
0000
1000
0000
0100
0000
,
1000
0000
0001
0000
0100
0000
0000
0010
0000
0000
1000
0000
0001
0000
1000
0000
,
0010
1000
0010
0000
0100
0000
0000
0001
0000
0000
1000
0000
0010
0000
0100
0000
,
1000
0000
0001
0000
0010
0000
0000
0100
0000
0000
1000
0000
0001
0000
0010
0000
,
0001
0010
0001
0000
1000
0000
0000
0001
0000
0000
0100
0000
1000
0000
0010
0000
,
1000
0010
1000
0000
0010
0000
0000
0100
0000
0000
0001
0000
0010
0000
1000
0000
,
0001
1000
0001
0000
0100
0000
0000
0001
0000
0000
1000
0000
0010
0000
1000
0000
,
0010
1000
0010
0000
0100
0000
0000
0001
0000
0000
0010
0000
1000
0000
0001
0000
,
1000
0001
1000
0000
0001
0000
0000
1000
0000
0000
0010
0000
0000
0100
0000
0000
,
0000
0000
0000
0000
0001
0000
0000
1000
0000
0000
0010
0000
0000
0100
0000
0000
,
0000
0000
0000
0000
0001
0000
0000
1000
0000
0000
0010
0000
0000
0100
0000
0000
,
0000
0000
0000
0000
0010
0000
0000
1000
0000
0000
0001
0000
0000
0100
0000
0000
,
0000
0000
0000
0000
0001
1000
0000
1001
0000
0000
0010
0100
0000
0110
0000
0000
,
0000
0000
0000
0000
0010
1000
0000
1010
0000
0000
0010
0001
0000
0011
0000
0000
,
0000
0000
0000
0000
0001
1000
0000
1001
0000
0000
0010
0100
0000
0110
0000
0000
,
0000
0000
0000
0000
1000
0010
0000
1010
0000
0000
0010
0001
0000
0011
0000
0000
;

//--------------- dance-single - XLev450X-ESP ----------------
#NOTES:
     dance-single:
     XLev450X:
     Hard:
     13:
     0,0,0,0,0:
0000
0000
0000
0000
,
0000
0000
0000
0000
,
0000
0000
0000
0000
,
0000
0000
0000
0000
,
0000
0000
0001
1000
0010
1000
0100
1000
,
0001
1000
0001
0100
1000
0000
0010
0000
0100
0000
1000
0000
0010
0000
1000
0000
,
0001
0010
0001
0010
1000
0000
0100
0000
1000
0000
0001
0000
1000
0000
0001
0000
,
1000
0001
1000
0001
0010
1000
0000
0010
0000
0000
0100
0001
0000
1001
0000
0000
,
0000
0000
0000
0000
0010
1000
0000
0001
0010
0000
1000
0010
0000
0100
0001
0000
,
1000
0001
1000
0001
0010
1000
0000
0010
0100
0000
0001
0010
0000
0100
1000
0000
,
0001
1000
0001
0100
1000
0100
0000
0001
0100
0000
1000
0100
0000
1000
0010
0000
,
1000
0010
1000
0100
0001
1000
0000
0001
0100
0000
1000
0001
0000
1000
0010
0000
,
0100
0001
1000
0100
0001
0010
0000
1000
0010
0000
0100
0010
0000
1000
0001
0000
,
1000
0001
1000
0001
1000
0010
0000
1000
0010
0000
0001
0010
0000
0100
0010
0000
,
1000
0010
1000
0100
0001
1000
0000
0100
0010
0000
0001
0010
0000
1000
0001
0000
,
0100
0001
0010
1000
0001
1000
0000
0110
0000
0000
0100
1000
0000
1001
0000
0000
,
0000
0000
0000
0000
0001
0000
1000
0000
0010
0000
1000
0000
0010
0001
0010
0000
,
0010
1000
0010
0000
0100
0000
1000
0000
0001
0000
0010
0000
0100
0010
0100
0000
,
0001
0010
0001
0000
1000
0000
0001
0000
0100
0000
1000
0000
0010
1000
0010
0000
,
0001
0100
0001
0000
1000
0000
0001
0000
0100
0000
1000
0000
0001
1000
0001
1000
,
0010
0100
0010
1000
0010
0000
0001
0000
1000
0000
0001
0000
0010
0001
0010
1000
,
0010
1000
0010
0100
1000
0001
0100
0010
1000
0001
0100
1000
0010
0100
0001
1000
,
0010
1000
0010
1000
0001
0000
0100
0000
1000
0000
0001
0000
0001
1000
0010
0100
,
0010
1000
0001
0100
0010
1000
0010
0100
0001
1000
0010
0100
0001
1000
0010
1000
,
0001
1000
0010
1000
0001
0000
1000
0000
0001
0000
0100
0000
1000
0000
0001
0000
,
1000
0001
1000
0000
0010
0000
1000
0000
0100
0000
0001
0000
1000
0000
0001
0000
,
0100
0001
0100
0001
0100
0000
0001
0000
1000
0000
0010
0000
0100
0000
1000
0000
,
0010
1000
0010
0000
1000
0000
0001
0000
0010
0000
0100
0000
1000
0000
0001
0000
,
1000
0010
1000
0010
1000
0000
0001
0000
0100
0000
1000
0000
0001
0000
0100
0000
,
0010
0100
0010
0000
0001
0000
0010
0000
1000
0000
0001
0000
0100
0000
1000
0000
,
0001
1000
0001
1000
0001
0000
1000
0000
0010
0000
0100
0000
1000
0000
0001
0000
,
0001
0010
0001
0000
1000
0000
0100
0000
1000
0000
0001
0000
1000
0000
0001
0000
,
1000
0001
1000
0001
1000
0001
0000
1000
0010
0000
0100
0010
0000
1000
0001
0000
,
0010
0100
1000
0001
0100
0001
0000
1000
0010
0000
0100
0010
0000
1000
0001
0000
,
0001
1000
0001
0100
0010
1000
0000
0010
0100
0000
0010
0001
0000
0010
1000
0000
,
1000
0001
1000
0001
0010
1000
0000
0010
0100
0000
0001
0010
0000
1000
0001
0000
,
0100
1000
0100
0010
0001
1000
0000
0010
1000
0000
0010
0100
0000
0001
1000
0000
,
0001
0100
1000
0001
1000
0010
0000
0100
0010
0000
1000
0001
0000
0100
0010
0000
,
1000
0001
1000
0100
0010
1000
0000
0110
0000
0000
0001
0010
0000
1001
0000
0000
,
0001
1000
0001
1000
0010
0100
0000
1001
0000
0000
0100
0010
0000
0110
0000
0000
;
