#TITLE:Para-Symptoms;
#SUBTITLE:;
#ARTIST:165;
#TITLETRANSLIT:;
#SUBTITLETRANSLIT:;
#ARTISTTRANSLIT:;
#GENRE:Electronic;
#CREDIT:;
#MUSIC:Para-Symptoms.ogg;
#BANNER:Para-Symptoms.png;
#BACKGROUND:Para-Symptoms-bg.png;
#CDTITLE:;
#SAMPLESTART:0.095;
#SAMPLELENGTH:15.000;
#SELECTABLE:YES;
#OFFSET:-0.095;
#BPMS:0.000=165.024;
#STOPS:;
#BGSTAGE:14;
#DISPLAYBPM:165;
#BGCHANGES:;
#FGCHANGES:;

//--------------- dance-single - XLev450X-bSP ----------------
#NOTES:
     dance-single:
     XLev450X:
     Beginner:
     2:
     0,0,0,0,0:
0000
0000
0000
0000
,
0000
0000
0000
0000
,
1000
0000
1000
0000
,
1000
0000
0000
0000
,
0001
0000
0000
0000
,
0100
0000
0000
0000
,
0010
0000
0000
0000
,
1000
0000
0000
0000
,
0010
0000
0000
0000
,
0100
0000
0000
0000
,
0001
0000
1000
0000
,
0001
0000
0000
0000
,
0010
0000
0100
0000
,
0010
0000
0000
0000
,
0010
0000
0001
0000
,
0010
0000
0000
0000
,
0100
0000
1000
0000
,
0100
0000
0000
0000
,
0010
0010
0010
0000
,
1000
0000
0001
0000
,
0100
0000
0000
0000
,
0010
0000
0000
0000
,
1000
0000
0001
0000
,
0100
0000
0000
0000
,
0010
0000
1000
0000
,
0100
0000
0000
0000
,
0001
0000
0010
0000
,
0100
0000
0000
0000
,
1000
0000
0010
0000
,
0100
0000
0000
0000
,
0010
0000
1000
0000
,
0001
0000
0000
0000
,
0100
0000
0000
0000
,
0010
0000
0000
0000
,
1000
0000
0001
0000
,
0010
0000
0000
0000
,
0100
0000
1000
0000
,
0100
0000
0000
0000
,
0010
0000
0001
0000
,
1000
0000
0000
0000
,
0010
0000
0100
0000
,
0010
0000
0000
0000
,
0001
0000
1000
0000
,
0001
0000
0000
0000
,
0100
0000
0010
0000
,
1000
0000
0000
0000
,
0100
0000
0010
0000
,
0001
0000
0000
0000
,
1000
0000
0010
0000
,
0100
0000
0000
0000
,
0001
0000
1000
0000
,
0001
0000
0000
0000
,
0010
0000
0000
0000
,
0100
0000
0000
0000
,
1000
0000
0000
0000
,
0001
0000
1000
0000
,
0001
0000
0000
0000
,
0010
0000
0100
0000
,
0010
0000
0000
0000
,
1000
0000
0001
0000
,
0100
0000
0000
0000
,
0010
1001
0000
0000
;

//--------------- dance-single - XLev450X-BSP ----------------
#NOTES:
     dance-single:
     XLev450X:
     Easy:
     6:
     0,0,0,0,0:
0000
0000
0000
0000
,
0000
0000
0000
0000
,
0001
1000
0010
0000
,
0100
0010
1000
0000
,
0010
0000
1000
0000
,
0010
0001
0010
0100
,
1000
0010
0100
0000
,
0001
0000
1000
0000
,
0010
0000
0100
0000
,
0001
1000
0010
0100
,
0001
1000
0010
0000
,
0100
0000
1000
0000
,
0010
0000
0000
0000
,
0001
0000
0000
0000
,
1000
0010
0100
0000
,
0010
0001
0010
0000
,
1000
0010
0100
0001
,
1000
0000
0010
0000
,
0100
1000
0000
0000
,
0001
1000
0010
0100
,
0001
0000
0100
0000
,
0010
0000
1000
0010
,
0100
0001
1000
0010
,
0001
0000
1000
0000
,
0010
0100
0001
0000
,
1000
0000
0001
0000
,
0010
0000
0100
0000
0001
1000
0010
0000
,
0100
0000
0001
0000
,
1000
0000
0010
0000
0100
1000
0100
0000
,
0010
0100
0001
1000
,
0010
0100
0001
0000
,
0010
0000
1000
0000
,
0010
0000
0000
0000
,
0001
1000
0010
0100
,
0001
1000
0010
0000
,
1000
0100
1000
0000
,
0010
0001
0010
0100
,
1000
0000
0010
0000
,
0100
0000
0001
0000
,
0010
0001
0010
0000
0100
1000
0100
0000
,
0010
0000
0100
0000
,
0010
0000
0001
1000
,
0010
0000
0100
0000
,
1000
0010
0100
0000
0001
0000
1000
0000
,
0010
0100
0001
1000
0010
0000
0000
0000
,
1000
0000
0010
0000
,
0100
0001
1000
0010
,
0100
0001
1000
0000
0010
0000
0100
0000
,
0010
1000
0010
0100
0001
0000
0000
0000
,
0010
0000
1000
0000
,
0100
0010
1000
0000
,
0001
0000
0100
0000
,
0010
0000
1000
0000
0001
0000
0100
0010
,
1000
0001
0100
0010
,
1000
0001
0100
0010
,
1000
0000
0010
0000
,
0100
0001
1000
0010
,
0100
0001
1000
0000
0010
0000
0100
0000
,
1000
0100
1000
0000
0010
0001
0010
0000
,
0100
0000
0010
0000
,
1000
0001
0100
0010
,
0010
1001
0000
0000
;

//--------------- dance-single - XLev450X-DSP ----------------
#NOTES:
     dance-single:
     XLev450X:
     Medium:
     10:
     0,0,0,0,0:
0000
0000
0000
0000
,
0000
0000
0000
0000
,
0001
1000
0010
0000
0100
0000
0001
0000
,
0010
0001
0010
0000
1000
0000
0010
0000
,
1000
0100
0010
1000
0001
0000
0010
0000
,
0100
0001
1000
0010
0100
0000
0001
0000
,
0010
0001
1000
0000
0010
0100
1000
0000
,
0010
0000
0100
0000
0001
1000
0010
0000
,
0100
0000
1000
0000
0100
1000
0100
0000
,
0010
0100
1000
0000
0010
0100
0001
0000
,
0010
0000
1000
0000
0001
0010
0100
0000
,
1000
0000
0001
0000
0100
0010
1000
0000
,
0001
0100
0010
1000
,
0010
0001
0100
1000
0010
0000
0000
0000
,
1000
0010
0100
0000
,
0001
0000
1000
0000
0010
0100
0001
0000
,
1000
0010
0100
0001
,
1000
0000
0010
0000
0100
0000
1000
0100
,
0010
0011
0000
0000
,
0001
0000
1000
0000
0010
0100
0001
0000
,
1000
0001
0010
0100
,
0001
0100
1000
0000
0010
0100
0001
1000
,
0010
0100
0001
0010
,
0001
0010
0001
1000
0010
0100
0001
0000
,
1000
0010
0100
1000
,
0010
0001
1000
0010
0100
0000
0001
0000
,
1000
0010
0100
1000
,
0010
0100
0001
1000
0010
0000
0100
0000
,
1000
0100
1000
0000
0010
0001
0010
0000
,
0100
0000
0001
0000
1000
0010
0100
0000
,
0001
0000
1000
0000
0100
1000
0100
0010
,
0001
0000
1000
0100
0010
0001
0010
0100
,
0010
0110
0000
0000
,
0001
1000
0010
0000
0100
0000
0001
0000
,
0010
0001
1000
0010
0100
0000
1000
0000
,
0010
0100
1000
0000
0010
0001
0100
0000
,
0010
1000
0100
0001
1000
0010
0001
1000
,
0010
0010
1000
0001
,
0100
0010
1000
0000
0001
0000
0010
0000
,
0100
1000
0100
0000
0010
0001
0010
0000
,
0010
0100
0001
1000
0010
0000
0100
0000
,
1000
0000
0010
0100
,
0001
1000
0010
0000
0100
0001
1000
0010
,
0100
0010
0001
0010
,
1000
0100
0010
1000
,
0001
0000
0100
0000
,
0010
1000
0010
0100
0001
1000
0010
0100
,
0001
0000
0010
0000
,
0100
0000
1000
0000
0010
0001
0100
0000
,
1000
0000
0001
0100
,
0010
1000
0001
0000
0100
0000
0010
0000
,
1000
0100
1000
0000
0010
0001
0010
0000
,
0010
0100
0001
1000
0010
0000
0100
0000
,
1000
0000
0100
0000
0010
0001
1000
0000
,
0010
0000
0100
0000
0001
0010
0001
0000
,
1000
0000
0010
0000
0100
1000
0100
0010
,
0100
0001
0010
1000
,
0010
0000
0001
0000
1000
0010
0100
0001
,
1000
0010
0100
1000
,
0010
0100
0100
0000
0000
0000
0001
0000
,
1000
0010
0100
1000
0001
1000
0001
0010
,
0100
1001
0000
0000
;

//--------------- dance-single - XLev450X-ESP ----------------
#NOTES:
     dance-single:
     XLev450X:
     Hard:
     11:
     0,0,0,0,0:
0000
0000
0000
0000
,
0000
0000
0000
0000
,
0001
1000
0010
0100
0001
0000
1000
0000
,
0010
0001
1000
0010
0100
0000
0001
0000
,
1000
0010
0100
0000
0001
1000
0100
0000
,
1001
0011
1100
1010
,
0010
1000
0001
0100
0010
0000
1000
0000
,
0010
1000
0100
1000
0100
1000
0010
0000
,
0010
0001
1000
0000
0100
0000
0010
0000
,
1010
0101
0110
1001
,
0010
0100
0001
1000
0010
0100
0001
0000
,
1000
0010
0001
0000
0100
1000
0100
0000
,
0010
0100
1000
0001
0100
0010
0001
0000
,
1000
0001
0100
0010
1000
0000
0001
0000
,
0100
0010
1000
0000
0100
1000
0100
0000
,
0011
0000
1100
0000
0010
0100
1000
0000
,
0101
0000
1010
0000
0010
0100
0001
0010
,
1000
0010
0100
0001
1000
0010
1000
0000
,
0010
0100
0010
1000
0100
0000
0000
0000
0000
0000
0000
0000
0000
0000
0000
0000
,
1001
0110
0011
1010
,
0010
1000
0001
0100
0001
1000
0001
0010
,
0100
0001
1000
0010
0000
0000
0000
0000
,
0001
1000
0010
0100
0000
0000
0000
0000
,
0010
0001
1000
0010
0100
0000
0001
0000
,
1000
0010
0100
1000
0000
0000
0000
0000
,
0010
1000
0100
0001
0000
0000
0000
0000
,
0010
0100
1000
0001
0000
0000
0000
0000
,
1000
0100
1000
0000
0010
0001
0010
0000
,
1000
0010
0100
0001
1000
0010
0100
0000
,
0001
0000
1000
0000
0010
0100
0001
0000
,
1100
0100
0011
1000
,
0010
0001
0100
1000
0001
0000
0100
0000
,
0100
1000
0100
1000
0001
0000
0000
0000
0000
0000
0000
0000
0000
0000
0000
0000
,
0001
1000
0010
0000
0100
0000
0001
0000
,
0010
0001
0010
0000
0100
1000
0100
0000
,
0010
0100
0001
1000
0010
0000
0100
0000
,
0011
1100
0110
1001
,
0010
0100
0001
1000
0010
0000
0100
0000
,
0010
0001
1000
0010
0100
0000
1000
0000
,
0010
0001
0010
0000
0100
1000
0100
0000
,
0010
0100
0001
1000
0010
0000
0100
0000
,
1000
0010
0100
0000
0001
0000
1000
0000
,
0010
0011
1001
1010
,
0011
0000
0010
0000
1000
0001
0100
0000
,
0010
0000
0100
0000
0001
1000
0010
0100
,
0001
0000
0010
1000
0001
0000
0100
0000
,
0010
0001
1000
0010
0100
0000
0001
0000
,
1000
0000
0010
0000
0100
1000
0100
0000
,
0010
0000
0001
0000
0100
0010
1000
0001
,
0100
0010
0001
0010
,
1000
0010
0100
0000
0001
0000
0010
0000
,
1000
0001
0010
1000
0010
0000
0000
0000
,
0001
1000
0010
0100
,
0010
0001
0010
0000
1000
0100
1000
0000
,
0010
0100
0001
0000
0001
1000
0010
0000
,
0100
0000
0001
0000
1000
0010
0100
0000
,
0011
1100
0110
1001
,
0010
0100
0001
0000
1000
0000
0100
0000
,
0010
0001
1000
0000
0010
0000
0100
0000
,
0010
0001
0100
0000
1000
0000
0010
0000
,
0100
0000
0000
0010
0000
0000
1000
0000
0001
0000
0010
0000
0001
0000
0100
0000
0010
0000
1000
0000
0001
0000
0100
0000
,
0010
1000
0010
0100
0001
0000
0000
0000
0000
0000
0000
0000
0000
0000
0000
0000
;
