#TITLE:POTENTIAL;
#ARTIST:TAG;
#BANNER:POTENTIAL.png;
#BACKGROUND:POTENTIAL-bg.png;
#CDTITLE:./CDTitles/CHUNITHM NEW.png;
#MUSIC:POTENTIAL.ogg;
#SAMPLESTART:97.887;
#SAMPLELENGTH:15;
#BPMS:0=100
,20=95
,22=90
,23=85
,24=80
,26=100
,26.125=150
,26.312=250
,26.625=300
,27=200
,58=400
,241=75
,241.5=150
,242=300
,244=150
,244.5=75
,245.5=150
,246=300
,248=150
,248.5=75
,249.5=150
,250=300
,252=150
,252.5=75
,253.5=150
,254=300
,256=150
,256.5=75
,257=150
,305=155
,309=160
,313=165
,317=170
,321=180
,325=185
,329=190
,333=195
,337=200
,341=300
,347=400
,351=600
,357=800
,369=400
,552=100
,559.5=200
,560=400;
#STOPS:26=3.3
,58=0.150
,237=0.1
,237.667=0.1
,238.333=0.1
,239=0.1
,239.667=0.1
,240.333=0.1
,501=0.075
,503.5=0.075
,506=0.075
,508.5=0.075
,515=0.075
,517.5=0.075
,520=0.075
,522.5=0.075
,529=0.075
,531.5=0.075
,534=0.075
,536.5=0.075
,543=0.075
,545.5=0.075
,548=0.1
,548.667=0.1
,549.333=0.1
,550=0.1
,550.667=0.1
,551.333=0.1
,559.5=0.15;
#BGSTAGE:28;

//--------------- dance-single - XLev450X-bSP ----------------
#NOTES:
     dance-single:
     XLev450X:
     Beginner:
     8:
     0,0,0,0,0:
0000
0000
0000
0000
,
0000
0000
0000
0000
,
0000
0000
0000
0000
,
0000
0000
0000
0000
,
0000
0000
0000
0000
,
0001
1000
0010
0100
,
0001
0000
0000
0000
0000
0000
1000
0000
0000
0000
0000
0000
2002
3003
0000
0000
0000
0000
0110
0000
0000
0000
0000
0000
,
0000
0000
0000
0000
,
0000
0000
0000
0000
,
0000
0000
0000
0000
,
0000
0000
0000
0010
,
0000
0010
0000
0000
0000
0000
0000
0000
,
0000
0000
0000
0000
0000
0000
1000
1000
,
0000
0001
0001
0000
0100
0100
0000
0010
,
0010
0001
1001
1000
,
0000
1000
0000
0100
,
0000
0100
0000
0010
,
0000
0010
0000
0001
,
0000
0001
0000
1000
,
0000
1000
0000
0001
,
0000
0001
0000
0100
,
0000
0010
0000
0100
,
0000
0000
0000
0001
,
0000
0001
0000
0010
,
0000
0010
0000
0100
,
0000
0100
0000
1000
,
0000
1000
0000
0001
,
0000
0100
0000
0010
,
0000
1000
0000
0001
,
0000
0001
0000
1000
,
0000
0001
0000
1000
,
0000
0001
0000
1000
,
0000
0000
0000
0010
,
0000
0100
0000
0010
,
0000
0000
0000
2002
,
0000
0000
0000
0000
,
0000
0000
0000
0000
,
3003
0000
0000
0000
,
0000
0000
0000
0002
,
0000
0003
0200
0000
,
0000
0000
0000
0000
,
0000
0000
0300
0000
,
0000
2000
3000
0200
,
0000
0000
0000
0000
,
0000
0300
0000
0020
,
0000
0000
0000
0000
,
0000
0000
0030
0001
,
0000
0000
0001
0000
,
0001
0000
1000
0000
,
1000
0000
0000
0010
,
0000
0100
0000
0000
,
0001
0000
0001
0000
,
0001
0000
1000
0000
,
0000
0100
0000
1000
,
0000
0000
0010
0000
,
0010
0000
0100
0000
,
0100
0000
0000
0001
,
0000
1000
0000
0000
,
0001
0000
0001
0000
,
0001
1001
0000
0000
,
0000
0002
0000
0003
,
0000
2000
0000
3000
,
0000
0002
0000
0003
,
0000
2000
0000
3000
,
0000
0001
0010
0100
,
1000
1000
0001
0010
,
0100
0010
0001
0100
,
1000
0001
0000
1000
,
0000
1001
1000
0001
,
0010
0100
0010
0100
,
1000
0001
0100
0010
,
1000
0100
0010
0001
,
1000
0001
0100
0100
,
0010
1000
0010
0010
,
0100
0010
1000
0100
,
0100
0000
0010
0000
0010
0000
0001
1000
,
0001
0011
0000
0010
,
0100
1100
0000
0001
,
1000
1001
0000
0010
,
0100
0010
1000
0001
,
1000
1000
1000
0010
,
0010
0001
0001
0100
,
0100
1000
1000
0001
,
0001
0100
0100
0010
,
0010
0100
0100
0001
,
0001
0000
1000
0000
0000
0001
0000
0000
,
1000
0000
0000
0001
0000
0000
2002
0000
,
0000
0000
0000
0000
,
0000
0000
0000
0000
,
0000
0000
0000
0000
,
0000
0000
0000
0000
,
0000
0000
0000
0000
,
0000
3003
0000
0010
,
0000
0010
0000
0010
,
0000
0000
0000
1000
,
1000
1000
0000
0100
,
0000
0010
0000
0001
,
0000
0010
0000
0100
,
0000
1000
0000
0010
,
0000
1000
0000
0001
,
0000
0010
0000
0100
,
0000
0000
0010
0000
,
0000
0001
0000
1000
,
0000
0000
0100
0000
,
0000
0001
0000
0100
,
0000
0000
1000
0000
,
0000
0010
0000
0011
,
0000
0000
1100
0000
,
0000
0110
0000
1001
,
0000
0000
0000
1000
,
1000
1000
0000
0001
,
0000
0001
0000
0100
,
0000
0010
0000
0100
,
0000
0000
0001
0000
,
0000
0100
0000
0010
,
0000
0010
0000
1000
,
0000
1000
0000
0001
,
0000
0000
0010
0000
,
0000
0100
0000
1000
,
0000
0000
0010
0000
,
0000
0100
0000
0001
,
0000
0001
0000
1000
,
0000
1000
0000
0001
,
0000
0000
1000
0000
,
0000
0001
0000
0110
,
0000
0000
0000
0000
,
0000
0000
0000
0000
,
0000
0000
0000
0000
,
0000
1001
0000
0000
,
0000
0000
0000
0000
,
0000
0000
0000
0000
,
0000
0000
0000
0110
,
0000
0000
0000
0000
,
0000
0000
0000
0000
,
0000
0000
0000
0000
,
0000
1001
0000
0000
,
0000
0000
0000
0000
,
0110
0000
0000
0000
,
1001
0010
0100
0001
,
1000
0000
0100
0000
0010
0000
0001
1001
,
0001
0000
0001
0000
,
1000
0000
1000
0000
,
0010
0000
0010
0000
,
0100
0000
0100
0000
,
0001
0000
1000
0000
,
0001
0000
0000
0010
,
0000
0100
0010
0100
,
0010
0000
0000
0000
;

//--------------- dance-single - XLev450X-BSP ----------------
#NOTES:
     dance-single:
     XLev450X:
     Easy:
     11:
     0,0,0,0,0:
0000
0000
0000
0000
,
0000
0000
0000
0000
,
0000
0000
0000
0000
,
0000
0000
0000
0000
,
0000
0000
0000
0000
,
0010
0001
0010
0000
1000
0000
0100
0000
1000
0010
1000
0000
0001
0000
1000
0000
,
0001
1000
0010
0100
1000
0001
0010
0100
2002
3003
0000
0000
0110
0000
0000
0000
,
0000
0001
0000
0000
1000
0000
0000
0010
,
0000
0001
0001
1000
,
0000
0100
0000
0000
0001
0000
0000
0010
,
0000
0100
1000
0001
,
0000
0220
0000
0000
0000
0000
0000
0000
,
0000
0000
0000
0000
0330
0000
1000
1000
,
0000
0100
0100
0000
0001
0001
0000
1000
,
1000
0000
1000
0001
0110
0000
0001
0000
,
0000
0100
0000
0010
,
0000
1000
0000
0001
,
0000
0010
0000
0100
,
0000
0001
0000
0010
,
0000
0100
0000
1000
,
0000
0100
0000
0001
,
0100
0010
0000
0100
,
1000
0001
0000
0010
,
0000
0001
0000
1000
,
0000
0000
0000
0001
,
0000
0010
0000
0100
,
0000
0000
0000
0001
,
0000
1000
0000
0010
,
0000
0100
0000
1001
,
0000
0000
0000
0000
,
0000
0000
0000
0010
,
0000
0001
0000
0100
,
0000
0000
0000
1000
,
0000
0010
0000
0100
,
0000
0001
0000
1000
,
0000
0010
0000
0100
,
0000
0000
0000
0001
,
0000
0010
0000
0100
,
0001
1000
0000
0010
,
0000
0100
0000
0001
,
0000
0000
0000
0010
,
0000
1000
0000
0001
,
0000
0100
0000
0010
,
0000
0000
0000
1000
,
0000
0000
0000
0001
,
0000
0100
0000
0010
,
0000
0000
0000
0001
,
0000
0000
0000
1000
,
0000
0000
0000
0010
,
0000
0100
0000
0001
,
0000
0010
0000
0100
,
0000
0000
0000
1000
,
0000
0000
0010
0000
,
0000
0100
0000
0001
,
0000
0000
0000
1000
,
0000
0000
0000
0010
,
0000
0100
0000
0001
,
0000
1000
0000
0010
,
0000
0100
0000
0001
,
0000
0020
0000
0000
,
0000
0030
2000
0000
0000
0000
0000
0000
,
0000
0002
0000
0000
,
0000
3000
2000
0000
0000
0000
0000
0000
,
0000
0003
0002
0000
0000
0000
0000
0000
,
0000
3003
0001
0000
1000
0000
0010
0000
,
0000
0100
0001
0010
,
0000
0010
1000
0001
,
0010
0000
0100
0001
0010
0000
1000
0010
,
0100
0000
0001
0000
0010
0000
1000
0010
,
0100
0001
0010
0000
1000
0000
0010
0001
,
0100
0000
1000
0000
0010
0000
0100
0001
,
1000
0010
0100
0000
0010
0000
0001
0010
,
1000
0000
0100
0000
0001
0000
0010
0100
,
1000
0000
0010
0000
0100
0000
0010
0001
,
0010
0100
0001
1000
,
0010
0000
0100
0000
1000
0000
0001
1000
,
0010
0001
1000
0010
0100
0000
0001
0000
,
0010
0000
0100
0001
0010
0000
1000
0000
,
0010
0000
0100
0001
0010
0000
1000
0000
,
0010
0000
0100
0010
1000
0000
0001
0000
,
1000
0000
0010
0100
0001
0000
0010
0000
,
1000
0000
0010
1000
0010
0000
0100
0000
,
0010
0000
0001
1000
0001
0000
0100
0010
,
0100
0000
0001
0010
1000
0001
0010
1000
,
0100
0010
2002
0000
0000
0000
0000
0000
,
0000
0000
0000
0000
,
0000
0000
0000
0000
0000
3003
0220
0000
,
0000
0000
0000
0000
,
0000
0000
0000
0000
,
0000
0000
0000
0000
,
0000
0000
0000
0000
,
0000
0000
0000
0330
,
0000
1001
0000
1000
,
0000
0001
0000
0100
,
0000
0010
0000
1000
,
0000
0001
1000
0001
,
0000
0010
0100
0010
,
0000
0100
0000
0001
,
0000
1000
0000
0010
,
0000
0100
0000
0001
,
1000
0010
0000
0100
,
0000
1000
0000
0001
,
0000
1000
0000
0010
,
0000
0001
0000
0100
,
0000
0001
0000
1000
,
0000
0100
0000
0010
,
0000
0100
0000
0101
,
0000
0000
1010
0000
,
0000
0110
0000
0010
,
0000
0000
0000
0100
,
0000
0000
0000
0001
,
0000
1000
0000
0010
,
0000
0001
0000
0100
,
0000
1000
0000
0010
,
0000
0001
0000
0100
,
0000
1000
0000
0001
,
0000
0000
0000
1000
,
0000
0010
0000
0100
,
0000
0000
0000
0001
,
0000
0010
0000
1000
,
0000
0000
0000
0010
,
0001
0010
0000
0100
,
1000
0100
0000
0010
,
0000
0100
0000
0001
,
0100
1000
0001
0010
,
0000
0000
0000
0100
0000
0000
0000
0000
,
1000
0000
0000
0000
0000
0100
0000
0000
,
0000
0010
0000
0100
,
0000
0000
0010
0000
0000
0000
0000
1000
,
0000
0000
0100
0000
,
0000
0010
0000
0000
0000
0000
0001
0000
,
0000
1000
0000
0010
,
0000
0000
0000
0100
0000
0000
0000
0000
,
0010
0000
0000
0000
0000
1000
0000
0000
,
0000
0001
0000
1000
,
0000
0000
0001
0000
0000
0000
0000
0010
,
0000
0000
0100
0000
,
1000
1000
0010
0001
0001
0001
,
1001
0010
1001
0100
,
1001
0000
0000
0000
0000
0000
0000
0000
0000
0000
0000
0000
0000
0000
0000
0000
0010
0000
0000
0000
0000
0000
0000
0000
0000
0000
0000
0000
0000
0000
0000
0000
0100
0000
0000
0000
0000
0000
0000
0000
0000
0000
0000
0000
0000
0000
0000
0000
1000
0000
0000
0000
0000
0000
0000
0000
2002
3003
0000
0000
0000
0000
0000
0000
,
0010
0000
0001
0000
,
1000
0000
0010
0000
,
0100
0000
0001
0000
,
1000
0000
0010
0000
,
0100
0000
0001
0000
,
0010
0000
1000
0001
,
0100
0001
0100
0010
,
1001
0000
0000
0000
;

//--------------- dance-single - XLev450X-DSP ----------------
#NOTES:
     dance-single:
     XLev450X:
     Medium:
     16:
     0,0,0,0,0:
0000
0000
0000
0000
,
0000
0000
0000
0000
,
0000
0000
0000
0000
,
0000
0000
0000
0000
,
0000
0000
0000
0000
,
0010
1000
0001
0100
0010
1000
0001
1000
0001
1000
0100
0010
1000
0001
1000
0010
,
0100
0000
0000
1000
0000
0000
0001
0000
0000
0010
0000
0000
0100
0000
0000
1000
0000
0000
0001
0000
0000
0010
0000
0000
2002
0000
0000
0000
3003
0000
0000
0000
0000
0000
0000
0000
0001
0000
0000
0000
0000
0000
0100
0000
0000
0000
0000
0000
,
1000
0001
0010
1000
0000
0001
0100
0000
,
0010
0001
0000
0100
1000
0001
1000
0010
,
0100
0001
1000
0100
0000
0001
0010
0000
,
0100
0000
1000
0000
0001
0000
1000
0000
0100
0010
0001
0010
0200
0000
0010
0000
,
0310
2002
0000
0000
0000
0000
0000
0000
,
0000
0000
0000
0000
3003
0000
0000
0000
0010
0000
0100
1000
0100
0000
0010
0000
,
0000
0010
1000
0000
0001
0100
0000
1000
,
0100
0000
0000
0000
0000
0000
0000
0000
0000
0000
0000
0000
0010
0000
0000
0000
0000
0000
0000
0000
0000
0000
0000
0000
0001
0000
0000
0000
0000
0000
0100
0000
0000
0000
0000
0000
1000
0000
0000
0000
0000
0000
0100
0000
0000
0000
0000
0000
0020
0030
0000
0000
0000
0000
0000
0000
0000
0000
0000
0000
0000
0000
0000
0000
0000
0000
0000
0000
0000
0000
0000
0000
1001
0000
0000
0000
0000
0000
0000
0000
0000
0000
0000
0000
0000
0000
0000
0000
0000
0000
0000
0000
0000
0000
0000
0000
,
0000
0110
0000
0001
,
0010
0100
1100
0000
,
0001
0100
1000
0100
,
0001
1000
1100
0000
,
0001
0010
1000
0010
,
0001
0100
0110
0000
,
1010
0000
0101
0001
,
1000
0100
0010
0000
,
0000
0010
0000
1000
,
0000
0100
0001
0000
,
0100
0000
1000
0010
,
1000
0001
1000
0100
,
0000
0010
0000
0000
1000
0000
0100
0000
,
0000
0001
0000
0000
0100
0000
0001
0000
,
1000
0000
0000
0100
0000
0000
0001
0000
,
0000
1000
0100
0001
,
0000
0000
0000
0000
1000
0100
1000
0000
,
0100
0010
0001
0010
,
0000
0100
0000
1000
,
0000
0010
0000
0001
,
1000
0001
1000
0000
,
0110
0000
1001
0000
,
0010
0001
0000
0100
,
1000
0000
0010
0000
1000
0100
0001
0000
,
0010
1000
0001
0100
,
1000
0001
0100
1000
,
0001
0010
1000
0100
,
0010
0001
0000
1000
,
0100
0001
1000
0010
,
0001
1000
0010
0001
,
1000
0100
0001
0010
,
0100
0000
1000
0001
1000
0001
1000
0000
,
0010
0100
0101
0000
,
1100
0000
0101
0000
,
0011
1000
0001
1001
,
0000
0110
1000
0001
,
0101
0000
1010
0000
,
0011
0000
1100
1000
,
0001
0100
0010
0010
,
1000
0000
0001
0000
,
0100
0000
0010
0000
,
1000
0100
0001
0100
,
0000
1000
0001
0000
,
0100
0000
0010
0000
,
0110
0000
0000
0010
0000
0010
0000
0010
0000
0010
0000
0010
,
0000
0010
0000
0002
0000
0000
0000
0000
0000
0000
0000
0000
,
0000
2000
0000
0000
,
0000
0003
0002
0000
0000
0000
0000
0000
,
0000
3000
2000
0000
0000
0000
0000
0000
,
0000
3003
0001
0010
0100
1000
0001
0010
,
0100
1000
0001
0100
0010
1000
0001
0100
,
0010
0000
1000
0000
0001
0010
0001
0010
0100
1000
0100
1000
0001
0100
0001
0100
,
0010
1000
0010
1000
0001
0000
0000
0011
0000
0000
0100
0000
1000
0000
0000
1010
,
0000
0000
0100
0000
0001
0000
0010
0000
0001
0000
0000
0100
0000
1000
0000
0100
,
0100
0000
0010
0000
0100
0000
0001
0000
0010
0000
0000
0100
0000
1000
0000
0010
,
0100
0000
0010
0000
1000
0000
0001
0000
0100
0000
0000
1000
0000
0010
0000
0100
,
0001
0000
1000
0000
0010
0000
0100
0000
0001
0000
0000
1000
0000
0001
0000
0100
,
1000
0000
0000
0000
0010
0000
0100
0000
0001
0100
0000
1000
0000
0100
0000
0010
,
0100
0000
0001
0000
1000
0000
0010
0000
0100
0001
0000
1000
0000
0100
0000
0010
,
0001
0000
0100
0000
1000
0000
0100
0000
0010
0001
0000
0100
0000
0010
0000
0100
,
0010
0000
0100
0000
0001
0000
0000
0001
0000
0000
1000
0000
0010
0000
0000
0100
,
0000
0000
0001
0000
1000
0000
0001
1000
0010
0000
1000
0001
0010
0000
0100
1000
,
0001
0000
0100
0000
0010
0000
1000
0001
0010
0000
0100
1000
0001
0000
0100
0010
,
1000
0000
0001
0000
1000
0000
0100
0010
0001
0000
1000
0001
0100
0000
0010
1000
,
0001
0000
0010
0000
0100
0000
0000
0100
0000
0000
0100
0000
0110
0000
0000
0000
,
1001
0000
1001
1000
0100
0010
0001
1000
,
0010
0100
0110
0010
1000
0001
0010
0100
,
1000
0001
1001
1000
0010
0100
0101
0001
,
1000
0100
0010
0001
1000
0010
0100
0001
,
1000
0100
1000
0001
1000
0001
1000
0001
,
1000
0000
0000
0000
0001
0000
0000
0000
1000
0000
0000
0001
0000
0000
1000
0000
0000
0001
0000
0000
1000
0000
0000
0001
0000
0000
1000
0000
0000
0001
0000
0000
,
1000
0000
0000
0001
0000
0000
1000
0000
0000
0001
0000
0000
1000
0000
0000
0001
0000
0000
1000
0000
0000
0001
0000
0000
2000
0000
0000
0000
0000
0000
0000
0000
,
0000
0000
0000
0000
,
0000
0000
0000
0000
,
0000
0000
0000
0000
,
0000
0000
0000
0000
,
0000
0000
0000
3000
,
0000
1001
0000
0001
,
1000
0010
0100
0001
,
1000
0010
1000
0001
,
0000
1001
0000
0101
,
0000
1100
0000
0010
,
0100
0001
1000
0010
,
0100
0001
1000
0010
,
0000
0001
0100
0010
,
0000
0001
0000
1000
,
0000
0000
0100
0000
,
0010
0100
0000
0001
,
0000
0000
0010
0000
,
0001
1000
0000
0010
,
0000
0000
0010
0000
,
1000
0100
0000
0010
,
0000
0001
0000
0000
0100
0000
0000
1000
,
0000
0010
0100
0010
,
0000
0000
0000
0000
0001
1000
0010
0000
,
1000
0001
0010
0000
0100
0000
1000
0000
,
0000
1000
0000
0000
1000
0000
0010
0000
,
0100
0001
0100
0000
0010
0000
1000
0000
,
0001
0010
0001
0000
1000
0000
0010
0000
,
0100
0001
0100
0000
0010
0000
1000
0000
,
0001
0010
0100
0000
1000
0000
1100
0000
,
0000
1001
0000
1000
,
0000
0100
0001
0000
,
0100
0010
0100
1000
,
0001
0100
1000
0001
,
0010
0000
1000
0000
0100
0000
0010
0001
,
0010
0000
0100
1000
0100
0000
1000
0001
,
1000
0001
1000
0000
0001
0000
1000
0000
,
0000
0001
0100
0000
,
0001
0010
0001
1000
,
0010
0000
0002
1003
0000
0100
0000
0002
,
1003
0000
0100
0000
0002
1003
0000
0010
,
0000
0002
0013
0000
0100
0000
1000
0000
,
0001
0000
1000
0000
0010
0000
0200
1300
,
0000
0001
0000
0020
1030
0000
0001
0000
,
0020
1030
0000
0001
0000
0200
1300
0000
,
0100
0000
0010
0000
0001
0000
1000
0010
,
1000
0000
0200
0310
0001
0010
0000
0002
,
0103
0010
0100
0000
0002
0013
0100
0010
,
0000
0002
1003
0000
0100
0000
1000
0000
,
0001
0000
1000
0010
0100
0000
0002
0013
,
0100
1000
0000
0002
0103
0010
1000
0000
,
0001
0010
1000
0001
0100
1000
,
1001
0000
0000
1000
0100
0010
0001
0000
0000
0001
0010
0100
1000
0000
0000
0100
0010
0100
0010
0000
0000
0001
1000
0001
,
1000
0000
0000
0000
0000
0000
0000
0000
0000
0000
0000
0000
0001
0000
0000
0000
1000
0000
0000
0000
0100
0000
0000
0000
0001
0000
0000
0000
0000
0000
0000
0000
0000
0000
0000
0000
0001
0000
0000
0000
0100
0000
0000
0000
0001
0000
0000
0000
1000
0000
0000
0000
0100
0000
0000
0000
0001
0000
0000
0000
1000
0000
0000
0000
0100
0000
0000
0000
0001
0000
0000
0000
0010
0000
0000
0000
0000
0000
1000
0000
0000
0000
0000
0000
2002
3003
0000
0000
0000
0000
0000
0000
0000
0000
0000
0000
,
1000
0010
0001
0010
,
1000
0010
0001
0010
,
0100
1000
0100
0001
,
0100
1000
0100
0001
,
1000
0010
0100
0001
,
1000
0000
0100
0000
0010
0001
0010
0000
,
0000
0000
0001
0000
1000
0010
1000
0010
,
0100
0000
0000
0000
;

//--------------- dance-single - XLev450X underground-ESP ----------------
#NOTES:
     dance-single:
     XLev450X underground:
     Hard:
     18:
     0,0,0,0,0:
0000
0000
0000
0000
,
0000
0000
0000
0000
,
0000
0000
0000
0000
,
0000
0000
0000
0000
,
0000
0000
0000
0000
,
0100
1000
0100
1000
0100
0010
0001
0010
0001
0010
0100
1000
0001
0010
0001
0100
,
0010
0000
0000
1000
0000
0000
0100
0000
0000
0010
0000
0000
0001
0000
0000
0010
0000
0000
0001
0000
0000
1000
0000
0000
0220
0000
0000
0000
0330
0000
0000
0000
0000
0000
0000
0000
0100
0000
0000
0000
0000
0000
1000
0000
0000
0000
0000
0000
,
0100
0000
1000
0000
0010
0000
0100
0000
0001
0000
1000
0010
0100
0000
1000
0000
,
0010
0000
0100
0000
0001
0000
1000
0000
0010
0000
1000
0001
0100
0000
0010
0000
,
0001
0000
1000
0000
0010
0000
1000
0000
0010
0000
0100
1000
0010
0000
0100
0000
,
0001
0000
0100
0000
0010
0000
1000
0000
0001
1000
0001
0100
2000
0000
0001
0000
,
3010
0000
0202
0000
0000
0303
0000
0000
0010
0000
1000
0000
0001
0000
0000
0000
,
0100
0000
0010
0000
0001
0000
0000
0000
0010
0001
1000
0001
0100
0000
0001
0000
,
0000
0100
0010
0000
1000
0001
0000
0100
,
0010
0000
0000
0000
0001
1000
0001
1000
0010
0000
0000
0000
1000
0000
0000
0000
,
0100
0010
0100
1000
,
0010
0001
0010
1000
,
0001
0010
0100
0010
,
0001
0100
1000
0100
,
0001
0010
0100
1000
,
0010
0000
0100
0000
0001
0010
0001
0000
,
1000
0010
1000
0000
0001
0100
0001
0000
,
1000
0100
1000
0000
0001
0000
0101
0000
,
0100
0010
1000
0001
,
0010
0100
1000
1010
,
0010
0100
0001
1000
,
0100
0000
0010
0000
0001
0000
1000
0010
,
0000
0010
0100
0000
0100
0001
0000
0001
,
1000
0000
0010
0100
0010
0000
0200
0000
,
0302
0000
2003
0000
3020
0000
0130
0001
,
0100
0001
1000
0010
1000
0010
0200
0000
,
0000
0000
0000
0000
0301
0010
0100
0000
,
0010
0100
1000
1010
,
0010
0100
1000
0100
,
0001
0010
0100
1100
,
0000
1010
1010
0000
,
0011
0000
0202
0303
,
0100
0010
0100
0010
0100
0010
2000
0000
,
0000
0000
3001
0010
0100
1000
0010
0000
,
0100
0001
1000
0100
,
0010
0000
0001
0100
0010
0000
1000
0010
,
0100
0000
0001
0010
0100
0000
1000
0100
,
0010
0001
0100
1010
,
0010
1000
0100
0010
,
0001
1000
0010
0101
,
0100
0001
0010
0100
,
1000
0000
0010
0100
0010
0100
0010
0000
,
1000
0000
0001
0000
,
1000
0000
0010
0000
,
0100
0001
1000
0010
,
0000
0100
0001
0000
,
0010
0000
0001
0000
,
0100
0000
0001
0000
0100
1000
0100
0000
,
0010
0001
1000
0010
,
0100
0000
0001
0000
,
1000
0000
0010
0000
,
0100
0001
1000
0010
,
0000
0100
0001
0000
,
0010
0000
1000
0000
,
0100
0000
0000
1001
0000
1001
0000
1001
0000
1001
0000
1001
,
0000
0000
1001
0000
0000
0000
0110
0000
0000
0010
0000
0000
1000
0000
0000
0000
0000
0000
0002
0000
0000
0000
0000
0000
,
0000
0000
0003
0000
0001
0010
1000
0010
0001
1000
0100
0010
0002
0000
0000
0000
,
0000
0003
1000
0010
0001
0000
0220
0000
,
0000
0000
0330
0000
1000
0000
0001
0000
0100
0000
0001
0100
2000
0000
0000
0000
,
3000
0000
0100
0001
1000
0001
0010
0100
,
0001
1000
0010
0100
0001
1000
0010
0100
,
0001
0000
1000
0000
0010
1000
0100
1000
0001
0010
0001
0010
0001
1000
0100
1000
,
0100
0010
0001
0010
0001
0000
0000
0001
0000
0000
0100
0000
1000
0000
0000
0010
,
0000
0000
1000
0000
0001
0000
1000
0000
0010
0000
0100
1000
0001
0000
1000
0000
,
0010
0000
0100
0000
1000
0000
0010
0000
0001
0000
0010
0001
1000
0000
0100
0000
,
0010
0000
0100
0000
0001
0000
1000
0000
0010
0000
1000
0100
0001
0000
1000
0000
,
0010
0100
0001
1000
0010
0100
0001
0010
,
1001
0000
0000
0000
0010
0000
0100
0000
1000
0000
0100
0001
0010
0000
0001
1000
,
0100
0000
0010
0000
1000
0000
0001
0000
0100
0000
0001
1000
0010
0000
0001
0100
,
1000
0000
0010
0000
0001
0000
1000
0000
0010
0000
0001
0010
0100
0000
1000
0001
,
0010
0000
0100
0000
0001
0000
0000
0010
0000
0000
0100
0000
1000
0000
0000
0100
,
0010
1000
0001
0010
0001
0100
0001
1000
,
0010
0100
0010
0100
0010
1000
0001
1000
,
0100
1000
0010
0100
0001
0100
0001
0100
,
0010
1000
0100
1000
0001
0010
0001
0010
,
0001
1000
0100
1000
0001
0010
0001
0100
,
0001
0100
0010
0100
0001
0010
0001
0100
,
0001
0100
0010
0100
0001
1000
0010
1000
,
0100
0000
0010
0000
0100
1000
0100
1000
0001
0100
0010
1000
0010
0100
0010
1000
,
0100
0010
0001
0100
0022
0000
0000
0000
0000
0000
0000
0000
0000
0000
0000
0000
,
0000
0000
0000
0000
,
0000
0000
0033
1001
,
0000
0000
0000
0000
,
0000
0000
0000
0000
,
0000
0000
0000
0000
,
0000
0000
0000
0000
,
0000
0000
0000
0000
,
0000
0110
0000
1001
,
1000
0100
0001
1000
,
0010
0001
0100
0010
,
1000
0000
0001
0010
0100
0000
0010
0001
,
0100
0000
0001
0010
0100
0000
1000
0010
,
1000
0010
0100
0000
0010
0000
1000
0000
,
0100
0000
0010
0000
0001
0000
0100
0010
,
1000
0010
0200
0000
0302
0000
0013
0100
,
1000
0100
0020
0000
0031
0100
0020
0000
,
1030
1100
1100
0100
,
0010
0000
0100
0000
1000
0010
0100
0000
,
0001
0011
0011
0010
,
0100
0000
0010
0000
0001
0100
0010
0000
,
1000
1001
1001
0001
,
0100
0000
0010
1000
0010
1000
0100
0010
,
0100
0010
0002
0000
0013
0100
0010
0100
,
2000
0000
3010
0100
0001
1000
0110
0000
,
0000
0000
0000
0000
1000
0001
0010
1000
,
0001
0010
0100
1000
0100
0010
0001
0000
,
0000
1010
0000
0000
0011
0000
1100
0000
,
1000
0010
0100
0000
0010
0000
0110
0000
,
0100
0001
1000
0000
0100
0000
0010
0001
,
1000
0010
0100
0000
0010
0000
1001
0000
,
0001
0010
0100
0000
1000
0000
1010
0000
,
0010
0000
0110
0000
0100
0001
1000
0100
,
0001
0010
1000
0001
,
0100
0000
1000
0000
0100
0010
0001
1000
,
0001
0010
0001
1000
0010
0100
0001
0100
,
0010
1000
0001
0010
0001
1000
0010
0100
,
1000
0100
0010
0001
0010
0100
0010
1000
,
0001
0010
0100
0010
1000
0010
0100
0000
,
1000
0001
0100
0000
,
1000
0000
0001
0100
1000
0100
1000
0100
,
0010
0001
2000
3001
0100
0010
1000
0002
,
1003
0100
0010
0001
0200
0310
0100
0001
,
1000
0200
0310
0001
1000
0010
0100
0000
,
0010
1000
0001
0010
0001
0100
0020
1030
,
0100
0010
0001
2000
3010
0100
0001
0100
,
0020
1030
0100
0010
0001
2000
3001
0000
,
0100
0010
1000
0000
0001
1000
0010
1000
,
0100
0001
1000
0100
0001
1000
0010
0001
,
0010
1000
0001
0010
1000
0010
1000
0001
,
1000
0010
0100
0001
0100
0010
0001
0010
,
1000
0100
1000
0100
0001
0010
0100
1000
,
0001
0010
0001
0100
1000
0001
0010
0100
,
0011
1100
0110
1001
1100
0011
,
1000
0000
0000
0100
0001
0010
1000
0000
0000
0001
1000
0010
0100
0000
0000
0001
0010
0100
1000
0000
0000
1000
0100
0010
,
0001
0000
0000
0000
0000
0000
0010
0000
1000
0000
0001
0000
0100
0000
0000
0000
0000
0000
0001
0000
1000
0000
0010
0000
0100
0000
1000
0000
0001
0000
1000
0000
0010
0000
0100
0000
0001
0000
0000
0100
0000
0000
2002
0000
3003
0000
0000
0000
,
1000
0000
0001
1000
0100
0000
0010
0001
,
1000
0000
0010
0100
0001
0000
1000
0001
,
0010
0000
0100
1000
0001
0000
0100
0010
,
0100
0000
0001
1000
0100
0000
0010
0001
,
1000
0000
0010
0100
0001
0000
1000
0100
,
0010
0001
1000
0010
0100
0001
1000
0000
,
0000
0000
0110
0000
0001
0100
0010
1000
,
0001
0000
0000
0000
;
