#TITLE:POLICY BREAK Medley from SOUND VOLTEX×jubeat;
#ARTIST:United Composers from jubeat;
#MUSIC:POLICY BREAK Medley from SOUND VOLTEX×jubeat.ogg;
#BANNER:POLICY BREAK Medley from SOUND VOLTEX×jubeat.png;
#BACKGROUND:POLICY BREAK Medley from SOUND VOLTEX×jubeat-bg.png;
#CDTITLE:./CDTitles/SDVX IV HEAVENLY HAVEN.png;
#SAMPLESTART:68.783;
#SAMPLELENGTH:15;
#OFFSET:-0.122;
#BPMS:0=182
,12=181
,64=178
,68=175
,72=172
,76=168
,80=164
,128=175
,132=185
,136=190
,140=195
,144=200
,208=100
,224=200
,256=165
,258=160
,260=147
,262=123
,264=93
,269=120
,272=140
,276=155
,277=169
,280=200
,284=220
,288=260
,292=282
,296=311
,316.5=280;
#BGSTAGE:14;

//--------------- dance-single - XLev450X-bSP ----------------
#NOTES:
     dance-single:
     XLev450X:
     Beginner:
     5:
     0,0,0,0,0:
0000
0000
0000
0000
,
0000
0000
0000
0000
,
0000
0000
0000
0000
,
0001
0000
0000
0000
,
1000
0000
0000
0000
,
0001
0000
0000
0000
,
1000
1000
1000
0000
,
0010
0000
0000
0000
,
0100
0000
0000
0000
,
0010
0000
0010
0000
,
0100
0000
0100
0000
,
0000
0000
0000
0000
,
0001
0000
0010
0000
,
0001
0000
0000
0000
,
1000
0000
0100
0000
,
1000
0000
0000
0000
,
0001
0000
0100
0000
,
0001
0000
0000
0000
,
1000
0000
0010
0000
,
1000
0000
0000
0000
,
0001
0001
0001
0000
,
0010
0010
0010
0000
,
1000
1000
1000
0000
,
0100
0100
0100
0000
,
1000
1000
1000
0000
,
0001
0001
0001
0000
,
0010
0010
0010
0000
,
0010
0010
0010
0010
,
0010
0000
0001
0000
,
1000
1000
1000
0000
,
0100
0000
0001
0000
,
0010
0010
0010
0000
,
1001
0000
0000
0000
,
1001
0000
0000
0000
,
1001
0000
1001
0000
,
1001
1001
1001
0000
,
0001
0000
0001
0000
,
0100
0100
0100
0000
,
1000
0000
1000
0000
,
0000
0001
0001
0000
,
1000
0000
1000
0000
,
0100
0100
0100
0000
,
0001
0000
0001
0000
,
0000
1000
1000
0000
,
0001
0000
1000
0000
,
0001
0000
1000
0100
,
1000
0000
0001
0000
,
1000
0000
0001
0000
,
1000
0000
0001
0000
,
1000
0000
0001
0100
,
0001
0000
1000
0000
,
0001
0000
1000
0000
,
0010
0001
0001
0001
,
0010
1000
1000
1000
,
0010
0001
0001
0001
,
0010
1000
1000
1000
,
0010
0000
0000
0000
,
0010
0000
0000
0000
,
0100
0000
0000
0000
,
0100
0000
0000
0000
,
0001
0000
0001
0000
,
1000
0000
1000
0000
,
0010
0010
0010
0000
,
1001
0000
0000
0000
,
0000
0000
0000
0000
,
0000
0000
0000
0000
,
0001
0001
0001
0000
,
0010
0010
0010
0000
,
1000
1000
1000
0000
,
0100
0100
0100
0000
,
0001
0000
0001
0000
,
1000
0000
1000
0000
,
0001
0000
0000
0000
,
1000
0000
0000
0000
,
0002
0000
0000
0000
,
0000
0000
0000
0000
,
0000
0000
0000
0000
,
0000
0000
0000
0000
,
0000
0000
0000
0000
0000
0003
0000
0000
,
0000
2000
0000
0000
0000
0000
0000
0000
,
0000
0000
0000
0000
0000
3000
0000
0000
,
0000
0002
0000
0000
0000
0000
0000
0000
,
0000
0003
0000
0000
,
0000
0200
0000
0000
0000
0000
0000
0000
,
0000
0000
0000
0000
0000
0300
0000
0000
,
0000
0020
0000
0000
0000
0000
0000
0000
,
0000
0030
0000
0000
,
0000
1000
0000
0000
0000
0000
0000
0100
,
0000
0000
0000
0000
0000
0100
0000
0000
,
0000
0000
0000
0010
0000
0000
0000
0000
,
0000
1000
0000
0000
0000
0000
0000
0001
,
0000
0000
0000
0000
0000
0001
0000
0000
,
0000
0000
0000
0010
0000
0000
0000
0000
,
0000
0100
0000
0000
0000
0000
0000
0010
,
0000
0000
0000
0000
0000
0010
0000
0000
,
0000
0000
0000
1000
0000
0000
0000
0000
,
0000
0001
0000
0000
0000
0000
0000
0100
,
0000
0000
0000
0000
0000
0100
0000
0000
,
0000
0000
0000
0010
0000
0000
0000
0000
,
0000
1000
0000
0000
0000
0000
0000
0002
,
0000
0000
0000
0000
,
0000
0000
0000
0003
0000
0000
2000
0000
,
0000
0000
0000
0000
,
0000
0000
0000
0000
,
0000
3000
0000
0000
;

//--------------- dance-single - XLev450X-BSP ----------------
#NOTES:
     dance-single:
     XLev450X:
     Easy:
     10:
     0,0,0,0,0:
0000
0000
0000
0000
,
0000
0000
0000
0000
,
0000
0000
0000
0000
,
1000
0000
0000
0000
,
0001
0000
0000
0000
,
1000
0000
0000
0000
,
0010
0100
0110
0000
,
1000
0001
0100
0010
,
1000
0000
0001
0000
,
1000
0100
0010
0001
,
1000
0000
0001
0000
,
1000
0001
0000
1001
,
0001
0010
0001
0010
,
0001
0100
1000
0010
,
1000
0100
1000
0100
,
1000
0001
0100
0000
,
0010
1000
0010
1000
,
0100
0001
0010
1000
,
0001
0000
1000
0000
,
0001
1000
0001
1001
,
1001
0100
1000
0001
,
1000
0000
0010
0000
0100
0010
0100
0000
,
0001
0010
1000
0010
,
0001
0000
0001
0000
1000
0001
1000
0000
,
0010
0001
0100
1000
,
0100
0001
0010
0100
,
1000
0010
0100
0001
,
0010
0100
0010
0000
1000
0001
1000
0000
,
1001
0010
1000
0100
,
0010
1000
0010
0001
,
0100
0010
0100
1000
,
0100
0000
0001
0000
0100
0010
0100
0000
,
1002
0010
0010
0013
,
2001
0010
0010
3010
,
1002
0103
2001
3100
,
1001
0000
0110
0000
1000
0001
1000
0000
,
0010
1000
0010
0000
0001
0000
1000
0000
,
0001
0000
0100
0001
0100
0000
0001
1000
,
0001
1000
0001
0000
0001
0000
1000
0000
,
0010
0000
1000
0100
1000
0100
0000
0000
,
0010
0001
0010
0000
1000
0000
0001
0000
,
1000
0000
0100
0010
0100
0000
0000
0000
,
1000
0001
1000
0000
1000
0000
0001
0000
,
0010
0000
0001
0100
0010
0100
0000
0000
,
0010
1000
0001
0100
,
0001
1000
0010
1000
,
0001
0100
0001
0100
,
0001
0000
1000
0000
0001
1000
0100
0000
,
0010
0001
1000
0100
,
1000
0001
0010
0001
,
1000
0100
1000
0100
,
1000
0000
0001
0000
1000
0001
0100
0000
,
1001
0010
0100
1000
0001
0010
0100
1000
,
0001
0100
0010
1000
0001
0010
0001
1000
,
0110
0100
0001
1000
0010
0100
0001
0100
,
0001
0010
1000
0010
0001
1000
0001
1000
,
0100
0000
0000
0001
0000
0000
0100
0000
,
0010
0000
0000
1000
0000
0000
0200
0000
,
0310
0000
0000
0001
0000
0000
1000
0000
,
0010
0000
0000
1000
0000
0000
0001
0000
0000
0100
0000
0000
0001
0000
1000
0000
,
0010
0000
0010
0000
0010
0000
0010
1000
,
0100
0000
0100
0000
0100
0000
0100
0010
,
0001
1000
0001
1000
0010
0100
0010
0100
,
0010
0000
0000
0000
,
0020
0030
2000
3000
,
0002
0003
0200
0300
,
0010
1000
0100
0000
,
0010
0001
0100
0000
,
0010
1000
0001
0000
,
0010
0001
1000
0000
,
0010
0010
0010
0000
,
1000
1000
1000
0000
,
0001
0001
0001
0000
,
0010
0010
0010
0000
,
2002
0000
0000
0000
,
0000
0000
0000
0000
,
0000
0000
0000
0000
,
0000
0000
0000
0000
,
0000
0000
0000
0000
0000
3003
0000
0000
,
0000
0001
0000
0000
1000
0000
0000
2002
,
0000
0000
0000
0000
0000
0000
0000
3003
,
0000
0100
0000
0000
0010
0000
0000
0100
,
0000
0000
0220
0000
0000
0000
0000
0330
,
0000
1000
0000
0000
0001
0000
0000
2002
,
0000
0000
0000
0000
0000
0000
0000
3003
,
0000
0010
0000
0000
0100
0000
0000
0010
,
0000
0000
0220
0000
0000
0000
0000
0330
,
0000
0001
0000
0000
0000
0000
0000
1000
,
0000
0100
0000
1000
0000
0100
0000
0010
,
0000
0001
0000
1000
0000
0010
0000
0100
,
0000
0001
0000
0100
0000
0001
0000
0010
,
0000
0100
0000
0010
0000
0100
0000
1000
,
0000
0001
0000
0100
0000
0010
0000
1000
,
0000
0100
0000
1000
0000
0100
0000
0010
,
0000
0001
0000
0010
0000
0001
0000
0100
,
0000
0010
0000
1000
0000
0100
0000
0010
,
0000
0001
0000
1000
0000
0001
0000
1000
,
0000
0010
0000
1000
0000
0010
0000
0100
,
0000
0001
0000
0010
0000
0100
0000
1000
,
0000
0001
0000
0010
0000
0100
0000
2000
,
0000
3000
0000
0000
0002
0000
0003
0000
,
0000
0200
0000
0300
0000
0000
0020
0000
,
0000
0000
0000
0000
,
0000
0000
0000
0000
,
0000
0030
0000
0000
;

//--------------- dance-single - XLev450X-DSP ----------------
#NOTES:
     dance-single:
     XLev450X:
     Medium:
     14:
     0,0,0,0,0:
0000
0000
0000
0000
,
0000
0000
0000
0000
,
0000
0000
0000
0000
,
0001
0000
0000
0000
0000
1000
0000
0000
,
0001
0000
0000
0000
0010
0100
0010
0000
,
1000
0000
0000
0000
0000
0001
0000
0000
,
0110
0000
1001
0000
0010
1000
0100
0000
,
0010
0010
0001
0001
,
0100
0000
0100
0000
0010
1000
0001
0000
,
0010
0010
1000
1000
,
0101
0000
1100
0000
,
0001
0001
1000
1001
,
0010
0001
1000
0010
,
0100
0000
0010
0000
1000
0001
1000
0001
,
0100
0010
0001
1000
,
0100
0000
0010
0000
0001
0010
0100
1000
,
0010
0001
0100
0001
,
1000
0000
0010
0000
0100
0010
0100
1000
,
0001
0010
1000
0100
,
0010
0010
0100
0110
,
0100
0000
1010
0000
0010
1000
0001
0010
,
0100
1000
0100
1000
0100
0010
0001
0000
,
0001
1000
0001
0100
0010
0100
0001
1000
,
0010
1000
0100
0010
0100
1000
0001
0000
,
0100
0010
0001
1000
0001
0010
0100
1000
,
0001
0100
0010
1000
0010
0100
0001
0000
,
0010
1000
0010
0100
0001
0100
0001
0010
,
0001
0010
0001
1000
0100
1000
0010
0000
,
0101
0000
0000
0000
1010
0000
0000
0100
0001
0000
0000
1000
0010
0000
0000
0000
,
0001
0100
0001
0100
0010
1000
0010
0000
,
1100
0000
0000
0010
0001
0000
0000
0100
1000
0000
0000
0000
0011
0000
0000
0000
,
1000
0100
0010
0001
1000
0100
0010
0000
,
0110
0001
0000
0001
0000
0001
0100
0000
,
0110
1000
0000
1000
0000
1000
0100
0000
,
0110
0001
0000
0001
0110
1000
0000
1000
,
0110
0000
1001
0000
0001
0010
0100
1000
,
1000
0000
0001
0010
0001
0100
0001
0000
,
1000
0000
0001
1000
0100
0000
1000
0001
,
0010
0000
0001
0000
1000
0100
0000
0000
,
1000
0000
0001
1000
0100
1000
0100
0000
,
1000
0000
0001
0000
1000
0100
1000
0001
,
0100
0000
0001
1000
0100
0000
1000
0010
,
1000
0000
0001
0000
1000
0100
0000
0000
,
1000
0000
0001
1000
0100
0000
1000
0100
,
1000
0000
0010
0000
0100
0000
0001
1000
,
0100
0010
0001
0010
,
0100
1000
0000
0100
1000
0000
0100
0000
,
0010
0001
0000
0100
0010
0100
1000
0000
,
0001
0100
0010
1000
,
0100
0000
0010
0001
1000
0000
0010
0000
,
0100
0001
0000
0100
0001
0000
1000
0000
,
0010
0000
1000
0101
,
0110
0000
0001
0100
0010
0100
0001
1000
0000
1000
0100
1000
0001
0010
0100
1000
,
0010
0100
0010
0100
0010
0000
0010
1000
0001
0100
0001
0100
0001
0010
0100
0010
,
0100
0000
0100
1000
0100
0010
0001
0100
0010
0100
0010
1000
0000
0100
0010
0001
,
0100
0010
0100
1000
0100
0000
0100
0010
0100
1000
0100
0000
0100
0001
0100
0000
,
0100
1000
1000
0001
1000
1000
0010
1000
,
0001
0100
0100
0010
0100
0100
2002
3000
,
0103
0010
0010
1000
0010
0010
0001
0010
,
1000
0000
0000
0001
0000
0000
1000
0000
0000
0100
0000
0000
0010
0000
0001
0010
,
0002
2003
3020
0230
,
0302
2003
3020
0230
,
0301
0000
1000
0000
0100
0000
0010
0000
0001
0010
0001
0010
0100
0010
0100
0010
,
0100
0000
0000
0000
,
0002
0003
0020
0030
,
0200
0300
2000
3000
,
0001
0000
0100
0010
0100
0000
0001
0010
0000
1000
0000
0100
0000
0000
0000
0000
,
1000
0000
0100
0010
0100
0000
1000
0010
0000
0001
0000
0100
0000
0000
0000
0000
,
0001
0000
1000
0000
0100
0000
0010
0001
0000
1000
0000
0001
0000
0000
0000
0000
,
0100
0000
0001
0000
1000
0000
0100
0010
0000
0100
0000
0010
0000
0000
0000
0000
,
0001
0010
0100
0000
1000
0000
0100
0000
,
1000
0010
0100
0000
0001
0000
0100
0000
,
0001
0010
1000
0100
,
0001
0010
1000
0100
,
2002
0000
0000
0000
,
0000
0000
0000
0000
,
0000
0000
0000
0000
,
0000
0000
0000
0000
,
0000
0000
0000
0000
0000
3003
0000
0000
,
0000
1001
0000
0000
0101
0000
0000
0021
,
0000
0000
0000
0100
0000
0100
0000
0130
,
0000
0110
0000
0000
0011
0000
0000
0101
,
0000
0000
2002
0000
0000
0000
0000
3003
,
0000
1001
0000
0000
1100
0000
0000
1020
,
0000
0000
0000
0100
0000
0100
0000
0130
,
0000
0110
0000
0000
1010
0000
0000
1100
,
0000
0000
2002
0000
0000
0000
0000
3003
,
0000
0010
0000
0010
0000
0010
0000
0001
,
0000
0100
0001
0100
0000
0010
0000
1000
,
0010
1000
0000
0100
0000
0010
0100
0010
,
0000
0001
0000
1000
0010
0100
0001
1000
,
0000
0100
1000
0100
0000
0010
0000
0001
,
0010
0001
0000
0100
0000
0010
0100
0010
,
0000
1000
0000
0001
0010
0100
1000
0001
,
0000
1000
0100
1000
0000
0010
0000
0100
,
0001
0100
0000
0001
0000
0010
0100
0010
,
0000
0100
0000
1000
0001
0100
0010
1000
,
0000
0001
0100
0001
0000
0010
0000
0100
,
1000
0100
0000
1000
0000
0010
0100
0010
,
0000
0100
0000
0001
1000
0100
0010
0200
,
0000
0300
0000
0000
2000
0000
3000
0000
,
0000
0002
0000
0003
0000
0000
0220
0000
,
0000
0000
0000
0000
,
0000
0000
0000
0000
,
0000
0330
0000
0000
;

//--------------- dance-single - XLev450X-ESP ----------------
#NOTES:
     dance-single:
     XLev450X:
     Hard:
     17:
     0,0,0,0,0:
0000
0000
0000
0000
,
0000
0000
0000
0000
,
0000
0000
0000
0000
,
0001
0000
1000
0000
0010
0000
0100
0000
0010
0000
0000
0010
0000
0000
0010
0000
,
1000
0000
0000
1000
0000
0000
1000
0000
0001
0000
0010
0000
0100
0000
0000
0000
,
1000
0000
0010
0000
0100
0000
0010
0000
1000
0000
0000
1000
0000
0000
1000
0000
,
0001
0000
0011
0000
0100
1000
0001
0000
,
0100
0000
0010
0000
1000
0000
0100
0000
0010
0000
0000
0010
0000
0000
0010
0000
,
0001
0000
0000
0001
0000
0000
0001
0000
1000
0000
0010
0000
0100
0000
0000
0000
,
0001
0000
0010
0000
0100
0000
0010
0000
0001
0000
0000
0001
0000
0000
0001
0000
,
1000
0000
0000
0010
0000
0100
0010
0000
1000
0000
0000
0100
0000
0010
0100
0000
,
1000
1000
0010
0110
,
0010
1000
0100
0010
0100
1000
0010
0001
,
0010
0100
0001
0010
0100
1000
0001
0100
,
1000
0100
0010
1000
0100
0010
0001
0010
,
0100
0010
0001
1000
0010
0100
0010
0000
,
1000
0001
0010
0100
0001
0100
1000
0010
,
1000
0001
0100
0010
1000
0001
0010
0100
,
1000
0100
0001
0010
,
1100
0101
0010
1001
,
0010
0000
0100
0001
0010
0000
0100
1000
0010
0000
0010
1000
0100
0000
1000
0000
,
0001
0100
0000
0001
0100
0000
0001
0100
0001
0000
1000
0010
0100
0000
0010
0000
,
1000
0001
1000
0001
0010
0000
0100
0000
1000
0001
1000
0001
0100
0000
0001
0000
,
1000
0000
0100
1000
0010
0000
0100
0001
0010
0000
0100
1000
0010
0000
0100
0000
,
0001
0010
0001
0000
1000
0010
0000
1000
0100
0000
0010
0001
0100
0001
0100
0000
,
0010
1000
0010
1000
0001
0000
0100
0001
0100
0001
1000
0000
0010
0000
0100
0000
,
0001
0010
0100
0000
0010
0100
1000
0000
0100
1000
0010
0000
1000
0010
0100
0000
,
0010
0100
0010
0100
0001
0010
0100
1000
0010
0100
0001
0010
0100
0000
0100
0000
,
1000
0000
0010
1000
0100
0000
0100
1000
0010
0000
0100
0001
0010
0000
0100
0000
,
1000
0001
0000
1000
0001
0000
1000
0001
0100
0010
0100
0010
1000
0001
1000
0000
,
0001
1000
0001
1000
0100
0000
1000
0001
0010
0001
0010
0000
1000
0001
0100
0000
,
0010
1000
0001
1000
0100
1000
0001
1000
0010
1000
0001
1000
0100
0000
0100
0000
,
1100
0000
0001
0100
0000
0000
0001
0010
0000
0000
0001
0100
0000
0000
0001
0000
,
0101
0000
1000
0010
0000
0000
1000
0100
0000
0000
1000
0010
1000
0000
0100
0000
,
1100
0000
0010
0001
0000
0000
0010
0000
0101
0000
0010
1000
0000
0000
0010
0000
,
1100
0000
1000
0000
0101
0000
0001
0000
1001
0000
0010
0000
1000
0100
0010
0001
,
0001
0000
0000
0000
1000
0010
0100
0000
0001
0000
0100
0000
0001
0100
0001
0100
,
0001
0000
1000
0100
1000
0000
0001
0000
0100
0000
0000
0000
0001
0010
0100
0000
,
1000
0000
0000
0000
0001
0010
0001
0000
1000
0000
0100
0000
1000
0100
0010
0001
,
1000
0000
0001
0100
0001
0000
1000
0000
0100
0000
1000
0000
0000
0000
1000
0000
,
0001
0010
0100
0000
1000
0000
0100
0000
1000
0100
0010
0001
1000
0000
0001
0100
,
0001
0000
1000
0000
0100
0000
0000
0000
1000
0010
0100
0000
0001
0000
0010
0000
,
0001
0010
0001
0000
1000
0000
0100
0000
1000
0100
0010
0100
1000
0000
0001
0100
,
0010
0000
1000
0000
0100
0000
1000
0000
0000
0000
1000
0000
0001
0100
0001
0100
,
0001
0000
1000
0000
0010
0000
0100
0000
0010
0000
0001
0000
0010
0001
0010
0001
,
0100
0001
0000
1000
0001
0000
0110
0000
,
0100
0000
0001
0000
0000
0000
0100
0000
0001
0000
1000
0010
0100
0001
0100
0000
,
0010
0000
1000
0000
0000
0000
0100
0000
0010
0000
0100
0010
0001
0000
1000
0000
,
0001
0000
1000
0000
0010
0000
0100
0000
0010
0000
1000
0000
0010
0100
0001
0000
,
0100
0010
1000
0001
1000
0100
0010
0000
,
0100
0000
1000
0000
0001
0000
0100
0000
1000
0000
0100
0000
0001
0010
0001
0000
,
1000
0001
1000
0100
0010
0000
0110
0000
,
1001
0000
0000
0000
0001
0000
0000
0000
1000
0000
0100
0010
0100
0000
1000
0000
0001
0000
1000
0100
1000
0000
0001
0000
0100
0000
0001
0000
0100
0000
0010
0000
,
1000
0100
0010
0001
0101
0000
1000
0100
0010
0001
0101
0000
1000
0001
0100
0001
,
1001
0000
0000
0000
0100
0000
0000
0000
1000
0000
0001
0100
0001
0000
1000
0000
0100
0000
0010
0100
0010
0000
0001
0000
0100
0000
0010
0000
0100
0000
0001
0000
,
1000
0000
0100
0000
0010
0000
0001
0000
0100
0000
0010
0000
0100
0000
0010
0000
1001
0000
0100
0000
0010
0000
0100
0000
1000
0010
1000
0000
0001
0100
0001
0000
,
2002
0000
3003
0202
0000
0303
2200
3300
,
2002
0000
3003
0202
0000
0303
2200
3300
,
0101
0001
0001
1100
1000
1000
0110
0010
,
0001
1000
0000
0100
1000
0000
0010
0100
0000
0001
0010
0000
0100
1000
0001
0100
,
0010
0000
1000
0000
0010
0000
0100
0000
0010
0000
1000
0000
0010
1000
0010
0000
,
0100
0000
0001
0000
0100
0000
0010
0000
0100
0000
0001
0000
0100
0010
0100
0000
,
0001
0000
0010
0000
0100
0000
1000
0000
0001
0010
0100
1000
0001
0100
0010
1000
,
0010
0100
0001
0000
2100
0000
3020
0030
,
2200
3300
0220
0330
,
0022
0033
2002
3003
,
1000
0000
0010
0100
0010
1000
0100
0010
0000
0001
0000
0010
0000
0000
0000
0000
,
0001
0000
0010
0100
0010
0001
0100
0010
0000
1000
0000
0010
0000
0000
0000
0000
,
1000
0000
0001
0000
0010
0100
1000
0100
0000
1000
0000
0001
0000
0000
0000
0000
,
0100
0000
0010
0000
0100
0001
0010
0100
0000
1000
0000
0100
0000
0000
0000
0000
,
1000
0000
0100
0000
0010
0000
0001
0100
0000
0010
0000
0100
0000
0000
0000
0000
,
0001
0000
0100
0000
0010
0000
1000
0010
0000
1000
0000
1000
0000
0000
0000
0000
,
0100
0010
0001
0000
0100
0010
1000
0000
,
0100
0010
0001
0000
0100
0010
1000
0000
,
2002
0000
0000
0000
,
0000
0000
0000
0000
,
0000
0000
0000
0000
,
0000
0000
0000
0000
,
0000
0000
0000
0000
0000
3003
0000
0000
,
0000
0110
0000
0000
1010
0000
0000
1001
,
0000
0000
0001
0100
1000
0100
0001
0100
,
0010
0110
0000
0000
1010
0000
0000
1100
,
0000
0000
1001
0000
0000
0001
0000
0001
,
0010
0110
0000
0000
1100
0000
0000
1001
,
0000
0000
1000
0100
0001
0100
1000
0010
,
0100
0110
0000
0000
1010
0000
0000
0101
,
0000
0000
1001
0000
0000
1000
0010
1000
,
0010
0100
0001
0100
0001
1000
0010
1000
,
0100
0010
0001
0010
1000
0010
0100
1000
,
0100
0001
0100
0010
0001
0010
0100
0010
,
0001
1000
0100
0000
1000
0010
0100
0001
,
0100
0010
1000
0010
0001
0010
0100
0001
,
0100
1000
0100
0010
1000
0010
0100
0010
,
1000
0001
0100
0000
0001
0010
0100
1000
,
0100
0001
0100
1000
0001
0010
0001
0100
,
0001
0010
0100
1000
0010
0001
0010
1000
,
0001
0010
0100
0000
1000
0010
0100
0001
,
0100
1000
0100
0001
1000
0010
1000
0100
,
1000
0010
0100
0001
0010
1000
0010
0001
,
1000
0010
0100
0001
0010
0001
0100
0202
,
0000
0303
0000
0000
2020
0000
3030
0000
,
0000
0220
0000
0330
0000
0000
2002
0000
,
0000
0000
0000
0000
,
0000
0000
0000
0000
,
0000
3003
0000
0000
;

//--------------- dance-single - XLev450X†-CSP ----------------
#NOTES:
     dance-single:
     XLev450X†:
     Challenge:
     18:
     0,0,0,0,0:
0000
0000
0000
0000
,
0000
0000
0000
0000
,
0000
0000
0000
0000
,
1000
0000
0001
0000
0010
0000
0100
0000
0010
0000
0000
0100
0000
1000
0100
0000
,
1000
0000
0000
0001
0000
0100
0001
0000
1000
0000
0010
0000
0100
0010
0100
0000
,
0001
0000
0010
0000
0100
0000
0010
0000
0001
0000
0000
1000
0000
0001
0100
0000
,
0110
0000
0000
0000
1001
0000
0000
0000
0110
0000
0001
0000
1000
0100
1000
0100
,
0010
0000
0001
0000
0100
0000
0001
0000
0010
0000
0000
0010
0000
0100
1000
0000
,
0010
0000
0000
0010
0000
0100
0001
0000
0010
0000
0000
0010
0000
0100
1000
0000
,
0010
0000
1000
0000
0001
0000
0100
0000
0010
0000
0000
0010
0000
0100
0010
0000
,
1000
0100
0000
0010
0000
0100
1000
0000
0001
0100
0000
0010
0000
0100
0001
0000
,
1001
0000
0110
0000
0001
1000
0110
0000
,
0010
0000
0001
0010
0001
0000
1000
0000
0010
0000
1000
0010
1000
0000
0001
0000
,
0010
0000
0100
0010
0100
0000
1000
0000
0001
0100
0001
0000
1000
0100
1000
0000
,
0100
0000
0010
0001
0010
0000
0100
0000
1000
0000
0010
1000
0010
0000
0100
0000
,
0001
0000
1000
0001
1000
0000
0100
0000
0010
0001
0010
0000
0100
1000
0100
0000
,
1000
0000
0001
1000
0100
0000
0010
0000
0100
0000
1000
0001
0100
0000
0010
0000
,
0100
0000
0001
0010
0100
0000
0010
0000
0001
0010
0001
0000
1000
0010
1000
0000
,
0100
0000
0010
0100
1000
0000
0010
0000
0100
0000
0010
0100
0001
0000
0010
0000
,
0100
0000
1000
0000
0010
1000
1001
0000
,
0010
0100
0001
1000
0100
0000
0010
0100
0001
0000
0010
0100
0001
0100
0010
0000
,
0001
0000
0100
0010
1000
0000
0010
0100
0001
1000
0010
1000
0001
0010
0100
0000
,
0010
1000
0001
1000
0100
0000
0010
0001
1000
0010
0100
0010
1000
0000
0001
0000
,
0100
0010
0001
0000
0100
0010
1000
0000
0001
0010
0100
1000
0010
0000
0001
0100
,
0010
0100
0001
0100
0010
1000
0100
0010
0001
0000
1000
0100
1000
0010
0100
0000
,
1000
0001
0010
0001
0100
0000
0010
1000
0001
0000
0100
0010
0001
0010
0100
0000
,
0010
1000
0010
0000
0100
0001
0100
0000
0010
1000
0100
0001
0100
1000
0010
0000
,
0001
0100
0010
1000
0001
0100
1000
0100
0001
1000
0100
0001
0100
0010
0001
0100
,
0010
1000
0001
1000
0100
0000
0010
0001
0100
0001
0010
0000
1000
0100
0010
0001
,
0100
0000
0010
0100
1000
0000
0100
0001
1000
0100
0010
0001
0100
0001
0010
0000
,
0100
0010
0100
0001
1000
0100
0010
0001
1000
0001
0010
0001
0100
0010
1000
0100
,
1000
0000
0100
0010
1000
0000
0100
0010
1000
0001
0100
1000
0100
0010
0001
0100
,
0010
1000
0001
1000
0010
0000
1000
0010
0100
0010
1000
0000
0001
0010
0100
0000
,
0001
0100
0010
0100
0001
0000
1000
0001
0010
0001
1000
0000
0100
0010
1000
0000
,
0001
0100
1000
0100
0010
0001
1000
0100
0001
0100
0010
0001
1000
0010
0001
0010
,
0100
1000
0001
0010
1000
0010
0100
1000
0001
0100
0010
1000
0001
0010
0100
0010
,
0002
0000
0000
0000
1003
0010
0100
0001
0100
0000
0010
0000
1000
0100
1000
0100
,
0010
0000
0001
0100
0001
0010
0001
1000
0200
0000
0000
0000
0301
1000
0100
0000
,
1100
0000
0000
0000
0001
0010
0001
0100
0010
1000
0010
0000
1000
0100
0010
0001
,
1000
0000
0010
0100
0010
0000
0011
0000
0100
0000
0001
0000
1000
0000
0100
0000
,
0010
0001
0100
0000
1000
0100
1000
0100
1000
0100
0010
0000
1000
0001
0010
0001
,
0100
0000
0010
0000
0100
0001
0010
0001
1000
0010
0100
0000
0001
0010
0001
0010
,
0001
0000
1000
0000
0010
0100
1000
0001
1000
0100
0010
0000
1000
0001
0100
0010
,
1000
0000
0001
0000
0100
0000
1000
0000
1100
0000
1000
0000
0001
0010
0001
0100
,
0001
0000
1000
0000
0010
0000
0100
0000
0001
0010
0001
1000
0001
0010
0001
0100
,
0010
0000
0001
0000
0000
0000
1000
0000
0001
0000
1000
0000
0100
0010
0001
0000
,
0100
0000
0001
0000
1000
0000
0100
0000
0001
1000
0010
0100
0001
0100
0010
0000
,
1000
0001
1000
0000
0000
0000
0100
0000
0010
0100
0010
0001
1000
0000
0001
0000
,
1000
0000
0001
0010
0100
0000
1000
0000
0010
0000
1000
0000
0010
0100
0001
0100
,
0010
0000
1000
0000
0001
0000
1000
0000
0010
0000
0100
0000
0010
0100
0001
0000
,
0010
0000
1000
0000
0001
0000
0100
0000
1000
0000
0100
0000
0001
0010
0001
0010
,
0100
0000
0001
0000
1000
0000
0100
0000
0010
0001
0100
0000
0010
1000
0001
0000
,
1001
0000
0000
0000
0001
0000
0000
0000
1000
0000
0100
0010
0100
0000
1000
0000
0001
0000
1000
0100
1000
0000
0001
0000
0100
0000
0001
0000
0100
0000
0010
0000
,
1000
0100
0010
0001
0101
0000
1000
0100
0010
0001
0101
0000
1000
0001
0100
0001
,
1001
0000
0000
0000
0100
0000
0000
0000
1000
0000
0001
0100
0001
0000
1000
0000
0100
0000
0010
0100
0010
0000
0001
0000
0100
0000
0010
0000
0100
0000
0001
0000
,
1000
0000
0100
0000
0010
0000
0001
0000
0100
0000
0010
0000
0100
0000
0010
0000
1001
0000
0100
0000
0010
0000
0100
0000
1000
0010
1000
0000
0001
0100
0001
0000
,
2002
0000
3003
0202
0000
0303
2200
3300
,
2002
0000
3003
0202
0000
0303
2200
3300
,
0101
0001
0001
1100
1000
1000
0110
0010
,
0001
1000
0000
0100
1000
0000
0010
0100
0000
0001
0010
0000
0100
1000
0001
0100
,
0010
0000
1000
0000
0010
0000
0100
0000
0010
0000
1000
0000
0010
1000
0010
0000
,
0100
0000
0001
0000
0100
0000
0010
0000
0100
0000
0001
0000
0100
0010
0100
0000
,
0001
0000
0010
0000
0100
0000
1000
0000
0001
0010
0100
1000
0001
0100
0010
1000
,
0010
0100
0001
0000
2100
0000
3020
0030
,
0202
0303
0220
0330
,
2020
0000
3030
0000
2002
0000
3003
0000
,
0001
0000
0010
0100
0010
0001
0100
0010
0000
1000
0000
1010
0000
0000
0000
0000
,
1000
0000
0010
0100
0010
1000
0100
0010
0000
0001
0000
0011
0000
0000
0000
0000
,
0001
0000
1000
0010
0100
0001
1000
0100
0000
0010
0000
0110
0000
0000
0000
0000
,
1000
0000
0001
0100
0010
1000
0010
0100
0000
0001
0000
0101
0000
0000
0000
0000
,
0001
0000
0100
0010
1000
0100
0010
0001
0000
1000
0000
0001
0000
0000
0000
0000
,
1000
0000
0100
0010
0001
0100
0010
1000
0000
0001
0000
1000
0000
0000
0000
0000
,
0100
0010
0001
0100
0010
1000
0100
0010
,
0001
0100
1000
0100
0001
0100
1000
0100
,
2002
0000
0000
0000
,
0000
0000
0000
0000
,
0000
0000
0000
0000
,
0000
0000
0000
0000
,
0000
0000
3003
0000
,
0000
0110
0001
1000
1100
0001
0010
0110
,
1000
0100
0010
0100
0010
0100
0001
0100
,
1000
1100
0000
0001
0011
0000
0100
0110
,
1000
0001
0022
0000
0000
0000
0000
0033
,
0000
0110
1000
0001
0101
1000
0010
0110
,
0001
0100
0010
0100
0010
0100
1000
0100
,
0001
0101
0000
1000
1010
0000
0100
0110
,
0001
1000
2020
0000
0000
0000
0000
3030
,
0000
0110
0110
0000
0001
0100
0010
1000
,
0100
0001
0100
0010
0100
1000
0010
0001
,
0010
0100
0010
1000
0100
0010
0001
1000
,
0100
1100
1100
0000
0101
0101
1000
0001
,
0100
1000
0100
0010
0100
0001
0010
1000
,
0010
0100
0010
0001
0100
0010
1000
0001
,
0100
0101
0101
0000
1100
1100
0001
1000
,
0100
0010
0100
0001
0100
0010
0001
0100
,
0001
0010
0001
0100
0010
1000
0100
1000
,
0010
1010
1010
0000
0011
0011
1000
0001
,
0100
0010
0100
1000
0100
0010
1000
0100
,
1000
0010
1000
0100
0010
0001
0100
0001
,
0010
0000
0000
0001
0000
0000
0100
0000
0000
1000
0000
0000
0001
0000
0000
0010
0000
0000
1000
0000
0000
0010
0000
0100
,
0000
0010
0000
0100
0000
0000
0000
0000
0000
0000
0000
0000
0001
0000
0010
0000
0001
0000
0010
0000
0000
0000
0000
0000
,
0000
0000
0000
1000
0000
0010
0000
1000
0000
0010
0000
0000
0000
0000
0000
0000
0000
0000
0220
0000
0000
0000
0000
0000
,
0000
0000
0000
0000
,
0000
0000
0000
0000
,
0000
0000
0000
0330
0000
0000
0000
0000
0000
0000
0000
0000
;

//--------------- dance-double - XLev450X-BDP ----------------
#NOTES:
     dance-double:
     XLev450X:
     Easy:
     10:
     0,0,0,0,0:
00000000
00000000
00000000
00000000
,
00000000
00000000
00000000
00000000
,
00000000
00000000
00000000
00000000
,
00000001
00000000
00000000
00000000
,
00001000
00000000
00000000
00000000
,
00000001
00000000
00000000
00000000
,
00000010
00000100
00000110
00000000
,
00000001
00000100
00001000
00001000
,
00010000
00010000
01000000
01000000
,
10000000
00100000
01000000
01000000
,
01100000
00000000
10010000
00000000
,
01000000
00010000
00000000
00011000
,
00100000
00010000
01000000
00010000
,
00100000
01000000
00010000
00001000
,
00000010
00000001
00000100
00000001
,
00000010
00001000
00010000
00000000
,
01000000
10000000
00010000
01000000
,
00100000
10000000
00010000
00100000
,
00001000
00000000
00010000
00000000
,
00001000
00010000
00001000
00011000
,
00011000
00100000
00010000
00001000
,
00000100
00000100
00000010
00001000
,
00000010
00000001
00001000
00000100
,
00010000
00001000
01000000
00010000
,
10000000
00100000
01000000
00010000
,
00100000
00001000
00010000
00000100
,
00000010
00000001
00001000
00000100
,
00010000
00000000
00001000
00000000
00010000
00001000
00010000
00000000
,
00011000
01000000
10000000
00010000
,
01000000
00000000
00100000
00000000
10000000
00100000
10000000
00000000
,
00010000
00100000
00001000
00010000
,
00000100
00000000
00000010
00000000
00000001
00001000
00000001
00000000
,
00001001
00000001
00000010
00000100
,
00000110
00000010
00000100
00001000
,
00011000
00000000
00011000
00000000
,
00010000
00100000
01000000
10000000
,
00001000
00010000
00001000
00000000
00010000
00000000
01000000
00000000
,
10000000
00000000
01000000
00100000
01000000
00000000
10000000
00000000
,
01000000
00010000
00001000
00000000
00000100
00000000
00000001
00000000
,
00000010
00000000
00000001
00000100
00000001
00000100
00000000
00000000
,
00000010
00000001
00000010
00000000
00000100
00000000
00001000
00000000
,
00010000
00000000
01000000
00100000
01000000
00000000
00000000
00000000
,
10000000
01000000
10000000
00000000
01000000
00000000
00010000
00000000
,
00001000
00000000
00010000
00000000
00000010
00000100
00000000
00000000
,
00000001
00000001
00000010
00001000
,
00010000
00100000
10000000
01000000
,
10000000
01000000
00010000
00001000
,
00000100
00000000
00000001
00000000
00001000
00000001
00000100
00000000
,
00001000
00010000
01000000
10000000
,
10000000
00010000
00100000
00010000
,
10000000
01000000
00010000
00001000
,
00000100
00000000
00000000
00000000
00000010
00000100
00000010
00000000
,
00001001
00000010
00000100
00010000
00001000
00100000
01000000
10000000
,
00010000
01000000
00100000
00010000
00001000
00000010
00000001
00001000
,
00000100
00000010
00001000
00010000
00001000
01000000
00010000
01000000
,
00100000
10000000
01000000
00010000
00001000
00000100
00000001
00001000
,
00000100
00000000
00000000
00000010
00000000
00000000
00010000
00000000
,
00001000
00000000
00000000
00100000
00000000
00000000
02000000
00000000
,
03100000
00000000
00000000
00010000
00000000
00000000
10000000
00000000
,
00100000
00000000
00000000
01000000
00000000
00000000
00001000
00000000
00000000
00010000
00000000
00000000
00000010
00000000
00001000
00000000
,
00000100
00000100
00010000
00010000
,
00001000
00001000
00100000
00100000
,
00010000
01000000
00010000
00100000
00001000
00010000
00001000
00010000
,
00000001
00000000
00000000
00000000
,
00002000
00000000
00003000
00000000
00000002
00000000
00000003
00000000
,
00002000
00000000
00003000
00000000
00000002
00000000
00000003
00000000
,
00000100
00000000
00000010
00000000
00010000
00000000
00000000
00000000
,
00001000
00100000
00010000
00000000
,
01000000
00001000
00010000
00000000
,
00000100
00010000
00001000
00000000
,
00100000
00010000
01000000
00000000
,
00100000
10000000
01000000
00000000
,
00010000
00010000
00010000
00000000
,
00001000
00001000
00001000
00000000
,
00022000
00000000
00000000
00000000
,
00000000
00000000
00000000
00000000
,
00000000
00000000
00000000
00000000
,
00000000
00000000
00000000
00000000
,
00000000
00000000
00033000
00000000
,
00000000
00001000
00000000
00000000
00100000
00000000
00000000
00020000
,
00000000
00000000
00000000
00000000
00000000
00000000
00000000
00030000
,
00000000
10000000
00000000
00000000
00100000
00000000
00000000
10000000
,
00000000
00000000
02000000
00000000
00000000
00000000
00000000
03000000
,
00000000
00100000
00000000
00000000
00001000
00000000
00000000
00020000
,
00000000
00000000
00000000
00000000
00000000
00000000
00000000
00030000
,
00000000
00000100
00000000
00000000
00001000
00000000
00000000
00000100
,
00000000
00000000
00000020
00000000
00000000
00000000
00000000
00000030
,
00000000
00000000
00000000
00000000
,
00000000
00000000
00000000
00000000
,
00000000
00000000
00000000
00000000
,
00000000
00000000
00000000
00000000
,
00000000
00000000
00000000
00000000
,
00000000
00000000
00000000
00000000
,
00000000
00000000
00000000
00000000
,
00000000
00000000
00000000
00000000
,
00000000
00000000
00000000
00000000
,
00000000
00000000
00000000
00000000
,
00000000
00000000
00000000
00000000
,
00000000
00000000
00000000
00000000
,
00000000
00000000
00000000
00000000
,
00000000
30000000
00000000
00000000
00200000
00000000
00300000
00000000
,
00000000
00020000
00000000
00030000
00000000
00000000
00002000
00000000
,
00000000
00000000
00000000
00000000
,
00000000
00000000
00000000
00000000
,
00000000
00003000
00000000
00000000
;

//--------------- dance-double - XLev450X-DDP ----------------
#NOTES:
     dance-double:
     XLev450X:
     Medium:
     14:
     0,0,0,0,0:
00000000
00000000
00000000
00000000
,
00000000
00000000
00000000
00000000
,
00000000
00000000
00000000
00000000
,
00010000
00000000
00000000
00000000
00000000
10000000
00000000
00000000
,
00010000
00000000
00000000
00000000
00100000
01000000
00100000
00000000
,
00001000
00000000
00000000
00000000
00000000
00010000
00000000
00000000
,
00010100
00000000
00001100
00000000
00000010
00000001
00000100
00000000
,
00000010
00000010
00001000
00001000
,
00000100
00000000
00000100
00000000
00010000
00001000
00010000
00000000
,
01000000
01000000
10000000
10000000
,
00010000
00000000
01000000
00000000
,
00010000
00010000
10000000
10010000
,
00100000
00010000
00001000
00000100
,
00000001
00000000
00000010
00000000
00000001
00001000
00000010
00000000
,
00000100
00001000
00010000
01000000
,
00100000
00000000
00100000
00000000
00010000
10000000
01000000
00000000
,
00100000
00010000
01000000
00001000
,
00010000
00000000
00000010
00000000
00000100
00000010
00000100
00000000
,
00000001
00000010
00001000
00000100
,
00000010
00000010
00000100
00000110
,
00000011
00000000
00000101
00000000
00000010
00001000
00000001
00000100
,
00000010
00001000
00000100
00000010
00000100
00001000
00000010
00000000
,
00001000
00000100
00010000
00001000
00100000
00010000
01000000
00100000
,
10000000
01000000
00010000
01000000
10000000
01000000
00010000
00000000
,
01000000
00100000
00001000
01000000
00100000
00010000
00001000
00010000
,
00000100
00001000
00000010
00001000
00000100
00000010
00000001
00000000
,
00000100
00000010
00000100
00001000
00010000
00001000
01000000
00010000
,
00100000
01000000
10000000
01000000
00100000
00100000
00100000
00000000
,
11000000
00000000
00000000
00000000
01010000
00000000
00000000
00100000
10000000
00000000
00000000
00100000
00010000
00000000
00001000
00000000
,
00100000
00001000
00010000
00000100
00001000
00000100
00000010
00000000
,
00000101
00000000
00000000
00000000
00001100
00000000
00000000
00000010
00000001
00000000
00000000
00000010
00001000
00000000
00010000
00000000
,
00001000
00100000
00001000
00010000
00000010
00010000
00001000
00000000
,
00011000
00100000
00000000
00100000
00000000
00100000
00001000
00000000
,
00011000
00000010
00000000
00000010
00000000
00000010
00010000
00000000
,
00011000
01000000
00000000
01100000
00010000
00001000
00000000
00011000
,
00000100
00000000
00000110
00000000
00000001
00000010
00000100
00001000
,
10000000
00000000
00010000
00100000
00010000
01000000
00010000
00000000
,
10000000
00000000
00010000
10000000
01000000
00000000
00010000
00001000
,
00000010
00000000
00000001
00000000
00001000
00000100
00000000
00000000
,
00001000
00000000
00000001
00001000
00000100
00010000
00001000
00000000
,
00010000
00000000
01000000
00000000
10000000
01000000
10000000
00010000
,
01000000
00000000
00010000
10000000
01000000
00000000
00010000
00001000
,
00000010
00000000
00000001
00000000
00001000
00000100
00000000
00000000
,
00001000
00000000
00000100
00010000
00001000
00000000
00010000
00001000
,
01000000
00000000
00100000
00000000
01000000
00000000
00010000
10000000
,
01000000
00100000
00001000
00010000
,
00000100
00001000
00000000
00000100
00001000
00000000
00000100
00000000
,
00000010
00000001
00000000
00000100
00000010
00000100
00001000
00000000
,
00010000
01000000
10000000
00100000
,
01000000
00000000
00100000
10000000
00010000
00000000
00100000
00000000
,
00001000
00010000
00000000
00000100
00001000
00000000
00000001
00000000
,
00000010
00000000
00000001
00001100
,
10100000
00000000
10000000
00000000
01000000
00100000
00001000
00010000
01000000
00100000
00001000
00010000
00000000
00010000
00100000
00010000
,
00001000
00000100
00000010
00001000
00000100
00000000
00000100
00010000
00001000
00000100
00000010
00001000
00000100
00000000
00000010
00000001
,
00001000
00000000
00000100
00000000
00010000
01000000
10000000
00010000
00100000
00010000
01000000
00001000
00000000
00010000
00001000
00100000
,
00001000
00000100
00000010
00001000
00000100
00000000
00000100
00010000
00001000
00001000
00001000
00000000
00010000
01000000
10000000
01000000
,
00000010
00001000
00001000
00000100
00010000
00010000
01000000
10000000
,
00010000
01000000
01000000
00001000
00010000
00010000
02002000
00003000
,
03010000
00100000
00100000
00001000
00010000
00010000
00001000
00000100
,
00000001
00000000
00000000
00000100
00000000
00000000
00001000
00000000
00000000
00010000
00000000
00000000
01000000
00000000
10000000
00000000
,
00010000
00100000
00010000
00100000
00001000
00010000
00001000
00010000
,
00000100
00001000
00000100
00001000
00000010
00000100
00000010
00000100
,
00000001
00000000
00001000
00000000
00000001
00000000
00001000
00000000
00000010
00000100
00000010
00000100
00000010
00001000
00000010
00001000
,
00001000
00000000
00000000
00000010
00000000
00000000
00000001
00000000
00000000
00000100
00000000
00000000
00001000
00000000
00000000
00000000
,
00000002
00000003
00000200
00000300
,
00002000
00000000
00003000
00000000
00020000
00000000
00030000
00000000
,
00001000
00000000
00100000
00010000
00100000
00000000
00001000
00010000
00000000
01000000
00000000
01000000
00000000
00000000
00000000
00000000
,
10000000
00000000
00010000
01000000
00100000
00000000
10000000
01000000
00000000
00100000
00000000
00100000
00000000
00000000
00000000
00000000
,
00010000
00000000
00001000
00000000
00000100
00000000
00000010
00000001
00000000
00001000
00000000
00000001
00000000
00000000
00000000
00000000
,
00000100
00000000
00000010
00000000
00001000
00000000
00000100
00000010
00000000
00000100
00000000
00000100
00000000
00000000
00000000
00000000
,
00000010
00001000
00010000
00000000
00001000
00000000
00010000
00000000
,
01000000
10000000
00010000
00000000
10000000
00000000
10000000
00000000
,
00100000
10000000
00010000
10000000
,
01000000
00010000
00001000
00010000
,
00022000
00000000
00000000
00000000
,
00000000
00000000
00000000
00000000
,
00000000
00000000
00000000
00000000
,
00000000
00000000
00000000
00000000
,
00000000
00000000
00033000
00000000
,
00000000
11000000
00000000
00000000
01010000
00000000
00000000
00022000
,
00000000
00000000
00000000
00000000
00000000
00000000
00000000
00033000
,
00000000
00010100
00000000
00000000
00001100
00000000
00000000
00000110
,
00000000
00000000
00000022
00000000
00000000
00000000
00000000
00000033
,
00000000
00000101
00000000
00000000
00001100
00000000
00000000
00022000
,
00000000
00000000
00000000
00000000
00000000
00000000
00000000
00033000
,
00000000
01001000
00000000
00000000
01010000
00000000
00000000
01100000
,
00000000
00000000
20200000
00000000
00000000
00000000
00000000
30300000
,
00000000
00000000
00000000
00000000
,
00000000
00001000
00010000
00001000
00000000
00010000
00000000
00000010
,
00001000
00000010
00000000
00001000
00000000
00000001
00000010
00000001
,
00000000
00000000
00000000
00000000
,
00000000
00010000
00001000
00010000
00000000
00001000
00000000
01000000
,
00010000
01000000
00000000
00010000
00000000
10000000
00100000
10000000
,
00000000
00000000
00000000
00000000
,
00000000
01000000
00100000
01000000
00000000
00100000
00000000
00001000
,
00010000
00001000
00000000
00010000
00000000
00000010
00000100
00000010
,
00000000
00000000
00000000
00000000
,
00000000
00000010
00000100
00000010
00000000
00000100
00000000
00010000
,
00001000
00010000
00000000
00001000
00000000
01000000
00100000
01000000
,
00000000
00000000
00000000
00000000
,
00000000
00000000
02000000
03000000
,
00000000
00020000
00000000
00030000
00000000
00000000
00022000
00000000
,
00000000
00000000
00000000
00000000
,
00000000
00000000
00000000
00000000
,
00000000
00000000
00000000
00000000
00033000
00000000
00000000
00000000
00000000
00000000
00000000
00000000
00000000
00000000
00000000
00000000
;

//--------------- dance-double - XLev450X-EDP ----------------
#NOTES:
     dance-double:
     XLev450X:
     Hard:
     17:
     0,0,0,0,0:
00000000
00000000
00000000
00000000
,
00000000
00000000
00000000
00000000
,
00000000
00000000
00000000
00000000
,
00001000
00000000
00000001
00000000
00000010
00000000
00000100
00000000
00000010
00000000
00000000
00000010
00000000
00000000
00000010
00000000
,
00000001
00000000
00000000
00000001
00000000
00000000
00000001
00000000
00000100
00000000
00001000
00000000
00010000
00000000
00000000
00000000
,
00100000
00000000
10000000
00000000
00010000
00000000
00100000
00000000
01000000
00000000
00000000
01000000
00000000
00000000
01000000
00000000
,
10000000
00000000
10100000
00000000
00010000
00100000
01000000
00000000
,
00010000
00000000
00001000
00000000
00000010
00000000
00000100
00000000
00000010
00000000
00000000
00000010
00000000
00000000
00000010
00000000
,
00000001
00000000
00000000
00000001
00000000
00000000
00000001
00000000
00001000
00000000
00000001
00000000
00000100
00000000
00000000
00000000
,
00000010
00000000
00010000
00000000
00000100
00000000
00000010
00000000
00001000
00000000
00000000
00001000
00000000
00000000
00001000
00000000
,
00010000
00000000
00000000
00001000
00000000
00100000
00010000
00000000
10000000
00000000
00000000
00100000
00000000
01000000
00100000
00000000
,
10000000
00010000
00100000
01100000
,
00000010
00000001
00000100
00000010
00000100
00000001
00000010
00001000
,
00010000
01000000
10000000
00010000
01000000
00100000
10000000
01000000
,
00100000
01000000
00010000
00001000
00000100
00000010
00001000
00000010
,
00010000
00001000
00100000
00001000
00010000
00000100
00001000
00000000
,
00000001
00001000
00000010
00000100
00000001
00000100
00001000
00010000
,
00100000
10000000
00010000
00100000
01000000
00010000
01000000
10000000
,
00010000
01000000
10000000
00100000
,
00110000
00011000
00000010
00001001
,
00010000
00000000
00001000
00010000
00000100
00000000
00000100
00010000
00001000
00000000
00001000
00010000
00000010
00000000
00001000
00000000
,
00000001
00000010
00000000
00000100
00001000
00000000
00000010
00000100
00000010
00000000
00000100
00000000
00000001
00000000
00000010
00000000
,
00000100
00001000
00000100
00001000
00000010
00000000
00010000
00000000
00001000
00010000
00001000
00010000
00000100
00000000
00010000
00000000
,
00001000
00000000
00010000
00001000
00100000
00000000
00100000
00001000
00010000
00000000
00010000
00001000
01000000
00000000
00100000
00000000
,
10000000
00100000
01000000
00000000
00100000
10000000
01000000
10000000
01000000
00000000
00100000
00010000
01000000
00010000
01000000
00000000
,
00010000
00100000
00010000
00100000
00001000
00000000
00010000
00000100
00010000
00000100
00001000
00000000
00000010
00000000
00000001
00000000
,
00000001
00000010
00000100
00000000
00000010
00000100
00001000
00000000
00000100
00001000
00010000
00000000
00001000
00010000
00100000
00000000
,
00010000
00100000
01000000
00000000
00100000
01000000
00100000
01000000
00100000
10000000
00100000
10000000
01000000
00000000
01000000
00000000
,
10000000
00000000
00100000
10000000
01000000
00000000
01000000
00100000
00010000
00000000
00010000
00100000
00001000
00000000
00010000
00000000
,
00001000
00010000
00000000
00000100
00001000
00000000
00000010
00000100
00000000
00000001
00000010
00000000
00000001
00001000
00000001
00000000
,
00000100
00000001
00000100
00000001
00000010
00000000
00000001
00000100
00000001
00000100
00000010
00000000
00001000
00000100
00001000
00000000
,
00000100
00001000
00000100
00010000
00000100
00001000
00000100
00010000
00001000
00100000
00001000
00010000
00001000
00100000
00001000
00010000
,
00001000
00000000
00100000
00001000
00000000
00000000
01000000
00001000
00000000
00000000
00100000
00001000
00000000
00000000
00010000
00000000
,
00011000
00000000
00000010
00010000
00000000
00000000
00000100
00010000
00000000
00000000
00000010
00010000
00001000
00000000
00001000
00000000
,
00011000
00000000
00100000
00010000
00000000
00000000
01000000
00000000
01000000
00000000
10000000
00010000
00000000
00000000
00100000
00000000
,
01000000
00000000
00010000
00000000
00001000
00000000
00000100
00000000
00000010
00000000
00000100
00000000
00000001
00001000
00000001
00001000
,
10000000
00000000
00000000
00000000
10000000
00100000
01000000
00000000
00010000
00000000
01000000
00000000
00001000
01000000
00001000
01000000
,
00001000
00000000
00000000
00000000
00010000
00000000
00000010
00000000
00000100
00000000
00000000
00000000
00000001
00000010
00000100
00000000
,
00001000
00000000
00000100
00000000
00010000
00001000
00100000
01000000
,
00100000
00000000
10000000
00100000
01000000
00010000
00001000
00000000
,
00000010
00000000
00000000
00000000
00000001
00000000
00000000
00000000
00000001
00000000
00001000
00000000
00000001
00000100
00000001
00000000
,
00000100
00000000
00000000
00000000
00000001
00000000
00000100
00000000
00001000
00000000
00000000
00000000
00010000
00100000
01000000
00000000
,
10000000
00000000
00100000
00000000
01000000
10000000
01000000
00000000
,
10000000
00000000
00000000
00000000
00010000
00000000
10000000
00000000
01000000
00000000
00000000
00000000
00010000
00001000
00010000
00001000
,
00010000
00000000
00001000
00000000
00000100
00000000
00000001
00000000
00000010
00000000
00000001
00000000
00000010
00000100
00001000
00000100
,
00010000
00001000
00000000
00010000
01000000
00000000
10000000
00000000
,
00100000
00000000
00010000
00000000
00000000
00000000
00001000
00000000
00000100
00000000
00000001
00000010
00000100
00000010
00000001
00000000
,
00000010
00000000
00000001
00000000
00000000
00000000
00000100
00000000
00001000
00000000
00010000
00100000
01000000
00000000
00100000
00000000
,
10000000
00000000
00010000
00000000
00100000
00000000
00001000
00000000
00010000
00000000
00000100
00000000
00001000
00000100
00000010
00000000
,
00000001
00000100
00001000
00010000
00100000
10000000
01000000
00000000
,
10000000
00000000
01000000
00000000
00010000
00000000
00001000
00000000
00000100
00000000
00000001
00000000
00001000
00000100
00000010
00000000
,
00000001
00000100
00001000
00010000
00100000
00000000
01100000
00000000
,
10010000
00000000
00000000
00000000
00010000
00000000
00000000
00000000
00100000
00000000
00001000
00100000
00001000
00000000
00010000
00000000
00000100
00000000
00001000
00000010
00001000
00000000
00000001
00000000
00000100
00000000
00000010
00000000
00001000
00000000
00000100
00000000
,
00010000
00001000
00010000
01000000
10000000
00000000
00010000
10000000
01000000
00100000
00001000
00000000
00010000
01000000
10000000
00010000
,
10010000
00000000
00000000
00000000
00100000
00000000
00000000
00000000
00001000
00000000
00100000
00001000
00100000
00000000
00001000
00000000
00010000
00000000
00000010
00001000
00000010
00000000
00000100
00000000
00000001
00000000
00001000
00000000
00000100
00000000
00000010
00000000
,
00001000
00000000
00010000
00000000
00001000
00000000
00000010
00000000
00000001
00000000
00001000
00000000
00000100
00000000
00010000
00000000
00001000
00000000
00010000
00000000
01000000
00000000
10000000
00000000
00010000
00100000
00010000
00000000
01000000
00100000
01000000
00000000
,
00000011
00000000
00001100
00010100
00000000
00011000
00101000
00000000
,
01100000
00000000
10100000
01100000
00000000
00110000
00011000
00000000
,
00001010
00000000
00000101
00000110
00000000
00011000
01001000
00000000
,
00110000
00000000
00000000
01001000
00000000
00000000
00011000
00000000
00000000
00010100
00000000
00000000
00001010
00000000
00000000
00000000
,
00001000
00000001
00001000
00000010
00001000
00000100
00001000
00000000
,
00010000
10000000
00010000
01000000
00010000
00100000
00010000
00000000
,
00001000
00000000
00000001
00000000
00001000
00000000
00000010
00000000
00001000
00000100
00010000
00001000
00100000
00001000
01000000
00100000
,
00000001
00000000
00000000
00000010
00000000
00000000
00001000
00000000
00000000
00000100
00000000
00000000
00000001
00000000
00000000
00000000
,
00000202
00000000
00000000
00000000
00000000
00000000
00000000
00000000
00000000
00000303
00000000
00000000
00000000
00000000
00000000
00000000
00002200
00000000
00000000
00000000
00000000
00000000
00000000
00000000
00000000
00003300
00000000
00000000
00000000
00000000
00000000
00000000
,
00002020
00000000
00000000
00000000
00000000
00000000
00000000
00000000
00000000
00003030
00000000
00000000
00000000
00000000
00000000
00000000
00022000
00000000
00000000
00000000
00000000
00000000
00000000
00000000
00000000
00033000
00000000
00000000
00000000
00000000
00000000
00000000
,
00010000
00000000
00100000
01000000
00100000
10000000
01000000
00100000
00000000
00010000
00000000
10000000
00000000
00000000
00000000
00000000
,
00010000
00000000
10000000
01000000
00100000
00010000
00100000
00001000
00000000
00000010
00000000
00000100
00000000
00000000
00000000
00000000
,
00000001
00000000
00001000
00000000
00000010
00000100
00000001
00001000
00000000
00000100
00000000
00000010
00000000
00000000
00000000
00000000
,
00001000
00000000
00010000
00000000
00001000
01000000
00010000
00100000
00000000
01000000
00000000
10000000
00000000
00000000
00000000
00000000
,
00010000
00000000
01000000
00000000
00100000
00000000
10000000
00010000
00000000
01000000
00000000
00010000
00000000
00000000
00000000
00000000
,
00010000
00000000
10000000
00000000
01000000
00000000
00100000
00001000
00000000
00010000
00000000
00001000
00000000
00000000
00000000
00000000
,
00010000
00000010
00001000
00000000
00000001
00000010
00000100
00000000
,
00001000
00000010
00000100
00000000
00000001
00000100
00001000
00000000
,
00022000
00000000
00000000
00000000
,
00000000
00000000
00000000
00000000
,
00000000
00000000
00000000
00000000
,
00000000
00000000
00000000
00000000
,
00000000
00000000
00033000
00000000
,
00000000
00011000
00000000
00000000
00001010
00000000
00000000
00000011
,
00000000
00000000
00000001
00000100
00001000
00010000
00001000
00010000
,
00000000
00011000
00000000
00000000
00110000
00000000
00000000
10100000
,
00000000
00000000
11000000
00000000
00000000
00010000
00000000
01000000
,
00010000
01010000
00000000
00000000
00011000
00000000
00000000
00001010
,
00000000
00000000
00000001
00000010
00001000
00010000
00001000
00010000
,
00000000
00011000
00000000
00000000
01010000
00000000
00000000
11000000
,
00000000
00000000
10100000
00000000
00000000
00010000
00100000
00010000
,
00100000
00010000
01000000
00000000
00001000
00010000
00001000
00010000
,
00000000
00001000
00000100
00000001
00000100
00001000
00000000
00010000
,
01000000
10000000
01000000
00010000
00000000
00001000
00010000
00000100
,
00001000
00000001
00001000
00000000
00000100
00010000
00000000
00001000
,
00000000
00010000
00100000
10000000
00100000
00010000
00000000
00001000
,
00000010
00000001
00000010
00001000
00000000
00010000
00001000
00100000
,
00010000
10000000
00100000
00000000
01000000
00010000
00000000
10000000
,
00000000
01000000
00010000
00001000
00000010
00000001
00000000
00000100
,
00001000
00010000
00100000
10000000
00000000
00010000
00100000
00001000
,
00010000
00000010
00001000
00000000
00000001
00000100
00000000
00000001
,
00000000
00000010
00001000
00010000
01000000
10000000
00000000
00100000
,
00010000
00001000
00000100
00000001
00000000
00001000
00000010
00010000
,
00001000
00100000
00010000
10000000
01000000
00100000
00010000
00220000
,
00000000
00330000
00000000
00000000
00022000
00000000
00033000
00000000
,
00000000
00002020
00000000
00003030
00000000
00000000
00002002
00000000
,
00000000
00000000
00000000
00000000
,
00000000
00000000
00000000
00000000
,
00000000
00000000
00000000
00000000
00000000
00000000
00000000
00000000
00000000
00000000
00000000
00000000
00000000
00000000
00000000
00000000
00000000
00000000
00000000
00000000
00000000
00000000
00000000
00000000
00000000
00000000
00000000
00000000
00000000
00000000
00000000
00000000
00000000
00000000
00000000
00000000
00000000
00000000
00000000
00000000
00000000
00000000
00000000
00000000
00000000
00000000
00000000
00000000
00003003
00000000
00000000
00000000
00000000
00000000
00000000
00000000
00000000
00000000
00000000
00000000
00000000
00000000
00000000
00000000
00000000
00000000
00000000
00000000
00000000
00000000
00000000
00000000
00000000
00000000
00000000
00000000
00000000
00000000
00000000
00000000
00000000
00000000
00000000
00000000
00000000
00000000
00000000
00000000
00000000
00000000
00000000
00000000
00000000
00000000
00000000
00000000
00000000
00000000
00000000
00000000
00000000
00000000
00000000
00000000
00000000
00000000
00000000
00000000
00000000
00000000
00000000
00000000
00000000
00000000
00000000
00000000
00000000
00000000
00000000
00000000
00000000
00000000
00000000
00000000
00000000
00000000
00000000
00000000
00000000
00000000
00000000
00000000
00000000
00000000
00000000
00000000
00000000
00000000
00000000
00000000
00000000
00000000
00000000
00000000
00000000
00000000
00000000
00000000
00000000
00000000
00000000
00000000
00000000
00000000
00000000
00000000
00000000
00000000
00000000
00000000
00000000
00000000
00000000
00000000
00000000
00000000
00000000
00000000
00000000
00000000
00000000
00000000
00000000
00000000
00000000
00000000
00000000
00000000
00000000
00000000
00000000
00000000
00000000
00000000
00000000
00000000
00000000
00000000
00000000
00000000
00000000
00000000
;

//--------------- dance-double - XLev450X†-CDP ----------------
#NOTES:
     dance-double:
     XLev450X†:
     Challenge:
     18:
     0,0,0,0,0:
00000000
00000000
00000000
00000000
,
00000000
00000000
00000000
00000000
,
00000000
00000000
00000000
00000000
,
00010000
00000000
10000000
00000000
01000000
00000000
00100000
00000000
01000000
00000000
00000000
01000000
00000000
00100000
00010000
00000000
,
01000000
00000000
00000000
01000000
00000000
00001000
00010000
00000000
00000010
00000000
00001000
00000000
00000100
00000010
00000100
00000000
,
00000010
00000000
00000001
00000000
00000100
00000000
00000010
00000000
00000100
00000000
00000000
00000100
00000000
00000010
00000100
00000000
,
00000110
00000000
00000000
00000000
00011000
00000000
00000000
00000000
01100000
00000000
10000000
00000000
00010000
01000000
00010000
00000000
,
00100000
00000000
00010000
00000000
01000000
00000000
00010000
00000000
00100000
00000000
00000000
00100000
00000000
00001000
00010000
00000000
,
00000100
00000000
00000000
00000100
00000000
00010000
00001000
00000000
00100000
00000000
00000000
00100000
00000000
01000000
00100000
00000000
,
01000000
00000000
00010000
00000000
00001000
00000000
00000010
00000000
00000100
00000000
00000000
00000100
00000000
00000010
00000001
00000000
,
00001000
00000010
00000000
00000100
00000000
00000010
00001000
00000000
00000001
00000010
00000000
00000100
00000000
00010000
00001000
00000000
,
00011000
00000000
00110000
00000000
10000000
00010000
01100000
00000000
,
00100000
00000000
10000000
00100000
10000000
00000000
00010000
00000000
00100000
00000000
00010000
00100000
00010000
00000000
01000000
00000000
,
00001000
00000000
00010000
00001000
00010000
00000000
00000100
00000000
00000010
00000100
00000010
00000000
00000001
00001000
00000001
00000000
,
00000100
00000000
00000010
00001000
00000010
00000000
00000100
00000000
00000001
00000000
00001000
00000100
00001000
00000000
00000100
00000000
,
00010000
00000000
00001000
00010000
00001000
00000000
00100000
00000000
00010000
01000000
00010000
00000000
10000000
00100000
10000000
00000000
,
01000000
00000000
00100000
00010000
01000000
00000000
00100000
00000000
01000000
00000000
00010000
10000000
01000000
00000000
00010000
00000000
,
00001000
00000000
00000010
00000100
00001000
00000000
00000010
00000000
00000100
00000001
00000100
00000000
00000010
00001000
00000010
00000000
,
00000100
00000000
00000001
00001000
00000100
00000000
00000010
00000000
00001000
00000000
00010000
00001000
00010000
00000000
01000000
00000000
,
10000000
00000000
00010000
00000000
00100000
00010000
10010000
00000000
,
00010000
00000000
01000000
00100000
00010000
00000000
00001000
00000100
00000010
00000000
00001000
00000100
00001000
00000010
00000100
00000001
,
00000010
00000100
00000000
00000010
00000100
00000000
00000010
00000100
00001000
00000100
00010000
00001000
00100000
00010000
01000000
00000000
,
00100000
10000000
01000000
00100000
00010000
00000000
01000000
00010000
00100000
00010000
01000000
00000000
00100000
00000000
00010000
00000000
,
00011000
00000000
00001000
00000000
00001100
00000000
00001000
00000000
00011000
00000000
00001000
00010000
00000100
00001000
00000010
00000000
,
00000100
00000001
00000100
00000001
00000010
00000001
00001000
00000010
00010000
00001000
00100000
00001000
00010000
00001000
01000000
00000000
,
00100000
10000000
00100000
10000000
00020000
00000000
02030000
00000000
03100000
10000000
00100000
10000000
00100000
00010000
00100000
00000000
,
00010000
00001000
00010000
00001000
00020000
00000000
00030010
00001000
00000010
00000100
00000010
00000100
00000010
00001000
00000001
00000010
,
00000100
00001000
00000100
00010000
00001000
00100000
00010000
00100000
01000000
00000000
01000000
00000000
00100000
00000000
00100000
00000000
,
10010000
00000000
10000000
01000000
00100000
00000000
00010000
01000000
00100000
10000000
00100000
10000000
00010000
01000000
00010000
01000000
,
00001000
00100000
00000000
00001000
00100000
00000000
00001000
00100000
00001000
00010000
00001000
00010000
00001000
00000010
00001000
00000000
,
00000010
00000001
00000100
00000010
00001000
00000000
00000100
00000010
00001000
00000010
00000100
00000000
00010000
00001000
00010000
00000000
,
01000000
00000000
10000000
00100000
00010000
00000000
00100000
00010000
00001000
00000000
00010000
00001000
00000100
00000000
00000001
00000000
,
00002002
00000000
00003003
00000000
00000001
00000010
00000100
00010000
00001000
00100000
00010000
01000000
00100000
10000000
00010000
00000000
,
20020000
00000000
30030000
00000000
10000000
00100000
01000000
00001000
00010000
00000010
00001000
00000100
00000010
00000001
00001000
00000000
,
00002002
00000000
00003003
00000000
00000001
00000100
00001000
00010000
00100000
00000000
00000000
00000000
10000000
01000000
00010000
00001000
,
00000010
00000000
00000010
00000000
00000001
00000000
00000001
00000000
00001000
00000000
00001000
00000000
00000001
00000010
00001000
00010000
,
10000000
00000000
00000000
00000000
10000000
00100000
01000000
00000000
00010000
00000000
01000000
00000000
00001000
01000000
00001000
01000000
,
00001000
00000000
00000000
00000000
00010000
00000000
00000010
00000000
00000100
00000000
00000000
00000000
00000001
00000010
00000100
00000000
,
00001000
00000000
00000100
00000000
00010000
00001000
00100000
01000000
,
00100000
00000000
10000000
00100000
01000000
00010000
00001000
00000000
,
00000010
00000000
00000000
00000000
00000001
00000000
00000000
00000000
00000001
00000000
00001000
00000000
00000001
00000100
00000001
00000000
,
00000100
00000000
00000000
00000000
00000001
00000000
00000100
00000000
00001000
00000000
00000000
00000000
00010000
00100000
01000000
00000000
,
10000000
00000000
00100000
00000000
01000000
10000000
01000000
00000000
,
10000000
00000000
00000000
00000000
00010000
00000000
10000000
00000000
01000000
00000000
00000000
00000000
00010000
00001000
00010000
00001000
,
00010000
00000000
00001000
00000000
00000100
00000000
00000001
00000000
00000010
00000000
00000001
00000000
00000010
00000100
00001000
00000100
,
00010000
00001000
00000000
00010000
01000000
00000000
10000000
00000000
,
00100000
00000000
00010000
00000000
00000000
00000000
00001000
00000000
00000100
00000000
00000001
00000010
00000100
00000010
00000001
00000000
,
00000010
00000000
00000001
00000000
00000000
00000000
00000100
00000000
00001000
00000000
00010000
00100000
01000000
00000000
00100000
00000000
,
10000000
00000000
00010000
00000000
00100000
00000000
00001000
00000000
00010000
00000000
00000100
00000000
00001000
00000100
00000010
00000000
,
00000001
00000100
00001000
00010000
00100000
10000000
01000000
00000000
,
10000000
00000000
01000000
00000000
00010000
00000000
00001000
00000000
00000100
00000000
00000001
00000000
00001000
00000100
00000010
00000000
,
00000001
00000100
00001000
00010000
00100000
00000000
01100000
00000000
,
10010000
00000000
00000000
00000000
00010000
00000000
00000000
00000000
00100000
00000000
00001000
00100000
00001000
00000000
00010000
00000000
00000100
00000000
00001000
00000010
00001000
00000000
00000001
00000000
00000100
00000000
00000010
00000000
00001000
00000000
00000100
00000000
,
00010000
00001000
00010000
01000000
10000000
00000000
00010000
10000000
01000000
00100000
00001000
00000000
00010000
01000000
10000000
00010000
,
10010000
00000000
00000000
00000000
00100000
00000000
00000000
00000000
00001000
00000000
00100000
00001000
00100000
00000000
00001000
00000000
00010000
00000000
00000010
00001000
00000010
00000000
00000100
00000000
00000001
00000000
00001000
00000000
00000100
00000000
00000010
00000000
,
00001000
00000000
00010000
00000000
00001000
00000000
00000010
00000000
00000001
00000000
00001000
00000000
00000100
00000000
00010000
00000000
00001000
00000000
00010000
00000000
01000000
00000000
10000000
00000000
00010000
00100000
00010000
00000000
01000000
00100000
01000000
00000000
,
00000011
00000000
00001100
00010100
00000000
00011000
00101000
00000000
,
01100000
00000000
10100000
01100000
00000000
00110000
00011000
00000000
,
00001010
00000000
00000101
00000110
00000000
00011000
01001000
00000000
,
00110000
00000000
00000000
01001000
00000000
00000000
00011000
00000000
00000000
00010100
00000000
00000000
00001010
00000000
00000000
00000000
,
00001000
00000001
00001000
00000010
00001000
00000100
00001000
00000000
,
00010000
10000000
00010000
01000000
00010000
00100000
00010000
00000000
,
00001000
00000000
00000001
00000000
00001000
00000000
00000010
00000000
00001000
00000100
00010000
00001000
00100000
00001000
01000000
00100000
,
00000001
00000000
00000000
00000100
00000000
00000000
00001000
00000000
00000000
00010000
00000000
00000000
00100000
00000000
00000000
00000000
,
20200000
00000000
00000000
00000000
00000000
00000000
00000000
00000000
00000000
30300000
00000000
00000000
00000000
00000000
00000000
00000000
00220000
00000000
00000000
00000000
00000000
00000000
00000000
00000000
00000000
00330000
00000000
00000000
00000000
00000000
00000000
00000000
,
00022000
00000000
00000000
00000000
00000000
00000000
00000000
00000000
00000000
00033000
00000000
00000000
00000000
00000000
00000000
00000000
02020000
00000000
00000000
00000000
00000000
00000000
00000000
00000000
00000000
03030000
00000000
00000000
00000000
00000000
00000000
00000000
,
00100000
00000000
10000000
01000000
00100000
00010000
01000000
00001000
00000000
00010000
00000000
00000100
00000000
00000000
00000000
00000000
,
00001000
00000000
00000001
00000100
00000010
00001000
00000100
00000010
00000000
00000001
00000000
00000010
00000000
00000000
00000000
00000000
,
00000001
00000000
00000100
00000010
00001000
00010000
01000000
00100000
00000000
00100000
00000000
01000000
00000000
00000000
00000000
00000000
,
00100000
00000000
10000000
00100000
01000000
00010000
10000000
01000000
00000000
01000000
00000000
00010000
00000000
00000000
00000000
00000000
,
00001000
00000000
00010000
00000010
00001000
00000100
00000010
00000001
00000000
00001000
00000000
00000001
00000000
00000000
00000000
00000000
,
00001000
00000000
00000100
00000010
00000001
00000100
00000010
00001000
00000000
00000001
00000000
00001000
00000000
00000000
00000000
00000000
,
00000001
00000100
00000010
00001000
00000100
00010000
00001000
00100000
,
00010000
00100000
01000000
10000000
00010000
01000000
00100000
10000000
,
20020000
00000000
00000000
00000000
,
00000000
00000000
00000000
00000000
,
00000000
00000000
00000000
00000000
,
00000000
00000000
00000000
00000000
,
00000000
00000000
30030000
00000000
,
00000000
00011000
00010000
00000010
00001000
00000001
00000010
00000110
,
00000000
00001000
00000100
00010000
00001000
00010000
00000010
00100000
,
00001000
00011000
00000000
01000000
01010000
00000000
00010000
10010000
,
00000000
10000000
11000000
00000000
00000000
00010000
00000000
00100000
,
00001000
00011000
00010000
00000100
00001000
00000001
00000100
00000110
,
00000000
00001000
00000010
00010000
00001000
00010000
00000100
01000000
,
00001000
00011000
00000000
00100000
00110000
00000000
00010000
10010000
,
00000000
10000000
10100000
00000000
00010000
00000000
01000000
00010000
,
01000000
00001000
00001000
00000000
00010000
00001000
00010000
00000100
,
00001000
00000001
00000100
00001000
00010000
00001000
00100000
00010000
,
10000000
01000000
00010000
00001000
00010000
00001000
00000010
00000001
,
00001000
00001100
00001100
00000000
00011000
00011000
00000000
01000000
,
00010000
10000000
01000000
00010000
00001000
00010000
00000010
00001000
,
00000001
00000100
00001000
00010000
00001000
00010000
00100000
10000000
,
00010000
01010000
01010000
00000000
00011000
00011000
00000000
00010000
,
00001000
00000100
00001000
00010000
01000000
00001000
00000100
00000001
,
00000100
00010000
00001000
00010000
00100000
10000000
00100000
00010000
,
00001000
00001100
00001100
00000000
00000101
00000101
00000000
00000001
,
00000010
00001000
00010000
00001000
00000010
00010000
00100000
10000000
,
00100000
00010000
00001000
01000000
00001000
00000100
00000001
00000100
,
00001000
00000000
00000000
00010000
00000000
00000000
00001000
00000000
00000000
00100000
00000000
00000000
10000000
00000000
00000000
00010000
00000000
00000000
01000000
00000000
00000000
10000000
00000000
00100000
,
00000000
10000000
00000000
00100000
00000000
00000000
00000000
00000000
00000000
00000000
00000000
00000000
01000000
00000000
00001000
00000000
01000000
00000000
00001000
00000000
00000000
00000000
00000000
00000000
,
00000000
00000000
00000000
00010000
00000000
00000100
00000000
00010000
00000000
00000100
00000000
00000000
00000000
00000000
00000000
00000000
00000000
00000000
00002002
00000000
00000000
00000000
00000000
00000000
,
00000000
00000000
00000000
00000000
,
00000000
00000000
00000000
00000000
,
00000000
00003003
00000000
00000000
;
