#TITLE:Overblow;
#ARTIST:MAX;
#GENRE:EUROBEAT;
#MUSIC:Overblow.ogg;
#BANNER:Overblow.png;
#BACKGROUND:Overblow-bg.png;
#OFFSET:-0.222;
#SAMPLESTART:13.935;
#SAMPLELENGTH:15;
#BPMS:0=155;
#BGSTAGE:29;

//--------------- dance-single - XLev450X-bSP ----------------
#NOTES:
     dance-single:
     XLev450X:
     Beginner:
     3:
     0,0,0,0,0:
0000
0000
0000
0000
,
0000
0000
0000
0000
,
0000
0000
0000
0000
,
0000
0000
0000
0000
0000
0000
0000
0010
,
0000
0000
0000
1000
0000
0000
0000
0001
,
0000
0000
0000
0100
0000
0000
0000
0010
,
0000
0000
0000
1000
0000
0000
0000
0001
,
0000
0000
0000
0000
,
0000
0000
0000
0000
0000
0000
0000
1000
,
0000
1000
0000
1000
0000
0000
0000
0010
,
0000
0100
0000
0010
0000
0000
0000
0001
,
0000
0001
0000
0001
0000
0000
0000
2002
,
0000
0000
0000
3003
0000
0000
0000
0010
,
0000
0100
0000
0010
0000
0000
0000
1000
,
0000
0010
0000
1000
0000
0000
0000
0001
,
0000
0100
0000
0001
0000
0000
0000
0110
,
0000
0000
0000
0000
0000
0000
0000
1000
,
0000
0000
0000
1000
0000
0000
0000
1000
,
0000
0000
0000
0000
0000
0000
0000
0010
,
0000
0000
0000
0001
0000
0000
0000
0010
,
0000
0000
0000
0000
0000
0000
0000
0100
,
0000
0000
0000
0100
0000
0000
0000
0100
,
0000
0000
0000
0000
0000
0000
0000
0010
,
0000
0000
0000
1000
0000
0000
0000
0010
,
0000
0000
0000
0000
0000
0000
0000
0001
,
0000
0000
0000
1000
0000
0000
0000
0001
,
0000
0000
0000
0100
0000
0000
0000
0010
,
0000
0000
0000
0000
0000
0000
0000
1000
,
0000
0000
0000
0000
0000
0000
0000
0010
,
0000
0000
0000
1000
0000
0000
0000
0001
,
0000
0000
0000
0100
0000
0000
0000
0001
,
0000
0000
0000
0000
0000
0000
0000
0010
,
0000
0000
0000
0000
0000
0000
0000
1000
,
0000
0000
0000
0001
0000
0000
0000
1000
,
0000
0000
0000
0000
0000
0000
0000
0010
,
0000
0000
0000
0100
0000
0000
0000
0010
,
0000
0000
0000
0000
0000
0000
0000
1000
,
0000
0000
0000
0010
0000
0000
0000
1000
,
0000
0000
0000
0000
0000
0000
0000
0100
,
0000
0000
0000
0001
0000
0000
0000
0100
,
0000
0000
0000
0000
0000
0000
0000
0001
,
0000
0000
0000
1000
0000
0000
0000
0001
,
0000
0000
0000
0000
0000
0000
0000
0010
,
0000
0000
0000
0010
0000
0000
0000
0100
,
0000
0000
0000
0000
0000
0000
0000
1000
,
0000
0000
0000
0100
0000
0000
0000
0100
,
0000
0000
0000
0000
0000
0000
0000
0001
,
0000
0000
0000
0100
0000
0000
0000
0100
,
0000
0000
0000
0000
0000
0000
0000
0001
,
0000
0000
0000
1000
0000
0000
0000
0001
,
0000
0000
0000
0010
0000
0000
0000
1000
,
0000
0000
0000
0100
0000
0000
0000
0010
,
0000
0000
0000
0000
0000
0000
0000
0001
,
0000
0000
0000
1000
0000
0000
0000
0001
,
0000
0000
0000
0100
0000
0000
0000
0010
,
0000
0000
0000
0100
0000
0000
0000
0000
,
0000
0000
0000
0000
0000
0000
0000
0010
,
0000
0001
0000
0010
0000
0000
0000
1000
,
0000
0010
0000
1000
0000
0000
0000
0100
,
0000
0001
0000
0100
0000
0000
0000
1001
,
0000
0000
0000
0000
0000
0000
0000
1000
,
0000
0001
0000
1000
0000
0000
0000
0010
,
0000
1000
0000
0010
0000
0000
0000
0100
,
0000
0001
0000
0100
0000
0000
0000
0220
,
0000
0000
0000
0000
,
0000
0000
0000
0000
,
0330
0000
0000
0000
;

//--------------- dance-single - XLev450X-BSP ----------------
#NOTES:
     dance-single:
     XLev450X:
     Easy:
     6:
     0,0,0,0,0:
0000
0000
0000
0000
,
0000
0000
0000
0000
,
0000
0000
0000
0000
,
0000
0000
0000
0000
0000
0000
0000
1000
,
0000
0001
0000
1000
0000
0010
0000
1000
,
0000
0010
0000
0100
0000
0000
0000
0001
,
0000
1000
0000
0001
0000
0000
0000
2020
,
0000
0000
0000
0000
0000
3030
0000
0220
,
0000
0000
0000
0000
0000
0000
0330
0001
,
0000
1000
0000
0001
0000
0010
0000
1000
,
0000
0001
0000
0100
0000
0000
0000
1000
,
0000
0010
0000
1000
0000
0010
0000
0200
,
0000
0000
0000
0000
0300
0000
0000
0001
,
0000
1000
0000
0010
0000
0000
0000
0100
,
0000
1000
0000
0001
0000
0100
0000
0010
,
0000
1000
0000
0001
0000
1000
0000
0020
,
0000
0000
0000
0000
0000
0000
0030
0001
,
0000
1000
0000
0001
0000
0000
0000
0010
,
0000
1000
0000
0100
0000
0001
0000
1000
,
0000
0010
0000
0001
0000
0000
0000
1000
,
0000
1000
0000
0000
0000
0100
0000
0001
,
0000
1000
0000
0001
0000
0000
0000
0010
,
0000
1000
0000
0001
0000
0000
0000
0100
,
0000
0010
0000
0100
0000
0000
0000
2002
,
0000
0000
0000
0000
0000
0000
3003
0010
,
0000
0010
0000
1000
0000
0000
0000
0001
,
0000
0001
0000
0010
0000
0000
0000
0100
,
0000
0100
0000
0001
0000
1000
0000
0001
,
0000
0010
0000
0100
0000
0000
0000
0001
,
0000
0001
0000
1000
0000
0000
0000
0010
,
0000
0010
0000
1000
0000
0000
0000
0100
,
0000
0001
0000
1000
0000
0010
0000
0200
,
0000
0000
0000
0000
0000
0000
0300
0001
,
0000
1000
0000
0001
0000
0010
0000
1000
,
0000
0100
0000
0001
0000
0000
0000
0010
,
0000
1000
0000
0100
0000
1000
0000
0001
,
0000
0010
0000
0001
0010
0001
0000
1000
,
0000
0100
0000
1000
0000
0001
0000
0100
,
0000
0010
0000
1000
0000
0000
0000
0100
,
0000
1000
0000
0010
1000
0010
0000
0200
,
0000
0002
0000
0000
0000
0000
0303
0001
,
0000
1000
0000
0010
0000
0100
0000
1000
,
0000
0001
0000
0010
0100
0010
0000
1000
,
0000
0001
0000
1000
0010
1000
0000
0001
,
0000
0100
0000
0001
0000
0000
0000
1000
,
0000
1000
0000
0001
0000
0010
0000
0100
,
0000
1000
0000
0001
0010
0001
0000
0100
,
0000
1000
0000
0001
1000
0001
0000
0220
,
0000
0000
0000
0000
0000
0000
0330
1000
,
0000
0001
0000
1000
0000
0100
0000
0001
,
0000
1000
0000
0010
0000
0000
0000
0001
,
0000
0100
0000
0001
0000
0100
0000
0020
,
0000
0000
0000
0000
0030
0000
0000
1000
,
0000
0001
0000
0100
0000
0000
0000
0010
,
0000
0001
0000
1000
0000
0010
0000
0100
,
0000
0001
0000
1000
0000
0001
0000
0200
,
0000
0000
0000
0000
0000
0000
0300
0010
,
0000
1000
0000
0001
0000
0000
0000
0100
,
0000
1000
0000
0001
0000
0000
0000
0010
,
0000
0100
0000
0010
0000
0100
0000
1002
,
0000
0000
0000
0000
0000
0000
0003
0100
,
0000
0010
0000
1000
0000
0001
0000
0100
,
0000
0001
0000
0100
0000
0001
0000
1000
,
0000
0010
0000
1000
0000
0010
0000
0100
,
0000
2002
0000
0000
,
0000
0000
0000
0000
,
3003
0000
0000
0000
;

//--------------- dance-single - XLev450X-DSP ----------------
#NOTES:
     dance-single:
     XLev450X:
     Medium:
     10:
     0,0,0,0,0:
0000
0000
0000
0000
,
0000
0000
0000
0000
,
0000
0000
0000
0000
,
0000
0000
0000
0000
0000
0000
0000
0010
,
0000
1000
0000
0001
0000
0100
0000
0010
,
0000
1000
0000
0010
1000
0010
0000
0001
,
1000
0001
1000
0010
0100
0000
1000
0001
,
0000
1000
0000
0000
0010
0000
0000
0100
0000
0000
1000
0000
0022
0000
0000
0000
,
0000
0000
0000
0000
0000
0000
0033
1000
,
0000
0001
0000
0000
0010
0000
0000
0100
0000
0000
1000
0000
0001
0000
0010
0000
,
0000
0100
0000
0000
1000
0000
0000
0001
0000
0000
0100
0000
1000
0000
0001
0000
,
0000
0010
0000
0000
1000
0000
0000
0100
0000
0000
0001
0000
0000
0000
1000
0000
,
0001
0010
0000
1000
0001
1000
0010
0001
,
0000
1000
0000
0000
0010
0000
0000
0100
0000
0000
1000
0000
0001
0000
0010
0000
,
0000
1000
0000
0000
0010
0000
0000
0100
0000
0000
1000
0000
0001
0000
0100
0000
,
0000
1000
0000
0000
0001
0000
0000
0010
0000
0000
1000
0000
0100
0000
0101
0000
,
0000
1010
0000
0000
0220
0000
0000
0000
0000
0000
0000
0000
0330
0000
0001
0000
,
0000
0001
0000
0000
1000
0000
0000
0010
0000
0000
0100
0000
1000
0000
0001
0000
,
0000
0010
0000
0000
0010
0000
1000
0000
0000
0100
0000
0000
0100
0000
1000
0000
,
0000
0001
0000
0000
0100
0000
0000
0001
0000
0001
1000
0000
0010
0000
1000
0000
,
0001
0000
1000
0000
0010
0000
0000
0100
0001
0000
0010
0000
1000
0000
1000
0000
,
0000
1000
0000
0000
0001
0000
0000
0100
0000
0000
0010
0000
0001
0000
1000
0000
,
0000
0100
0000
0000
0100
0000
1000
0001
0000
0010
0000
1000
0000
0100
0001
0000
,
0000
1000
0000
0000
0010
0000
0000
1000
0000
1000
0001
0000
0100
0000
0001
0000
,
1000
0000
0001
0000
0100
0000
0000
0010
1000
0000
0100
0000
0001
0000
0001
0000
,
0000
1000
0000
0010
1000
0010
0001
0010
,
0000
1000
0000
0010
0000
1000
0000
0001
,
1000
0001
0000
0010
1000
0010
0000
0001
,
0000
0100
0000
1000
0000
0001
0000
1000
,
0000
0001
0000
0010
1000
0010
1000
0001
,
0000
0010
0000
0100
1000
0100
0000
0001
,
0000
1000
0000
0001
1000
0010
0000
2002
,
0000
0000
0000
0000
0000
0000
3003
0001
,
0000
1000
0000
0010
0000
0100
0000
1000
,
0000
0001
0000
1000
0001
1000
0000
0010
,
0000
1000
0000
0100
0000
1000
0000
0010
,
0001
0010
0000
1000
0100
1000
0000
0010
,
0000
1000
0000
0100
0000
0001
0000
1000
,
0000
0001
0000
0010
1000
0010
0000
0010
,
0000
0100
0000
1000
0001
1000
0001
0200
,
0000
0002
0000
0000
0000
0000
0303
1000
,
0000
0001
0000
0010
0000
0100
0000
1000
,
0010
1000
0001
0100
1000
0001
0000
0010
,
0000
1000
0000
0100
0000
0010
1000
0001
,
0000
1000
0000
0010
0000
0100
0000
0001
,
0001
1000
0000
0010
0100
0100
0000
1000
,
0001
1000
0000
0010
0000
1000
0000
0010
,
0100
0001
0000
0010
1000
0001
0000
2002
,
0000
0000
0000
0000
0000
0000
3003
0001
,
0000
1000
0000
0000
0100
0000
0000
0010
0000
0000
0001
0000
1000
0000
0100
0000
,
0000
0010
0000
0000
0001
0000
0000
1000
0000
0000
0010
0000
0001
0000
1000
0000
,
0000
0100
0000
0000
0001
0000
0000
0010
0000
0000
1000
0000
0000
0000
0001
0000
,
1000
0100
0000
0001
1000
0001
0100
1000
,
0000
0001
0000
0000
0100
0000
0000
0010
0000
0000
0001
0000
1000
0000
0100
0000
,
0000
0001
0000
0000
0100
0000
0000
0010
0000
0000
0001
0000
1000
0000
0010
0000
,
0000
0001
0000
0000
1000
0000
0000
0100
0000
0000
0001
0000
0010
0000
2020
0000
,
0000
0000
0000
0000
0000
0000
3030
0001
,
0000
1000
0000
0000
0100
0000
0000
0001
0000
0000
1000
0000
0010
0000
1000
0000
,
0000
0001
0000
0000
0100
0000
0000
1000
0000
0000
0010
0000
1000
0000
0010
0000
,
0000
0100
0000
0000
1000
0000
0000
0001
0000
0000
1000
0000
0000
0000
0010
0000
,
1000
0001
0100
1000
0001
0010
1000
0001
,
0000
1000
0000
0000
0010
0000
0000
1000
0000
0000
0010
0000
1000
0000
0001
0000
,
0000
0100
0000
0000
1000
0000
0000
0001
0000
0000
1000
0000
0001
0000
1000
0000
,
0000
0010
0000
0000
0100
0000
0000
1000
0000
0000
0001
0000
1000
0000
0011
0000
,
0000
1100
0000
0000
2002
0000
0000
0000
0000
0000
0000
0000
0000
0000
0000
0000
,
0000
0000
0000
0000
,
3003
0000
0000
0000
0000
0000
0000
0000
0000
0000
0000
0000
0000
0000
0000
0000
0000
0000
0000
0000
0000
0000
0000
0000
0000
0000
0000
0000
0000
0000
0000
0000
0000
0000
0000
0000
0000
0000
0000
0000
0000
0000
0000
0000
0000
0000
0000
0000
0000
0000
0000
0000
0000
0000
0000
0000
0000
0000
0000
0000
0000
0000
0000
0000
0000
0000
0000
0000
0000
0000
0000
0000
0000
0000
0000
0000
0000
0000
0000
0000
0000
0000
0000
0000
0000
0000
0000
0000
0000
0000
0000
0000
0000
0000
0000
0000
0000
0000
0000
0000
0000
0000
0000
0000
0000
0000
0000
0000
0000
0000
0000
0000
0000
0000
0000
0000
0000
0000
0000
0000
0000
0000
0000
0000
0000
0000
0000
0000
0000
0000
0000
0000
0000
0000
0000
0000
0000
0000
0000
0000
0000
0000
0000
0000
0000
0000
0000
0000
0000
0000
0000
0000
0000
0000
0000
0000
0000
0000
0000
0000
0000
0000
0000
0000
0000
0000
0000
0000
0000
0000
0000
0000
0000
0000
0000
0000
0000
0000
0000
0000
0000
0000
0000
0000
0000
0000
0000
0000
0000
0000
0000
0000
;

//--------------- dance-single - XLev450X-ESP ----------------
#NOTES:
     dance-single:
     XLev450X:
     Hard:
     14:
     0,0,0,0,0:
0000
0000
0000
0000
,
0000
0000
0000
0000
,
0000
0000
0000
0000
,
0000
0000
0000
0000
0000
0000
0000
0010
,
0000
1000
0000
0001
0000
0100
0000
0001
,
0000
1000
0000
0010
0000
0100
0000
0001
,
0010
0000
0001
0010
0100
1000
0100
0000
0100
0000
1000
0100
0010
0001
0010
0000
,
0000
0100
0000
0000
1000
0000
0000
0001
0000
0000
0010
0000
0200
0000
0020
0000
,
0000
0000
0000
0000
0000
0000
0330
0001
,
0000
1000
0000
0000
0010
0000
0000
0100
0000
0000
0001
0000
1000
0100
0001
0000
,
0000
0010
0000
0000
1000
0000
0000
0100
0000
0000
1000
0000
0001
0000
0010
0000
,
0000
1000
0000
0000
0001
0000
0000
0100
0000
0000
1000
0000
0100
0000
0010
0001
,
1000
0000
0100
0000
0001
0000
0010
1000
0001
0100
0010
1000
0001
0010
1000
0000
,
0000
0001
0000
0000
1000
0000
0000
0010
0000
0000
0100
0000
1000
0100
0010
0000
,
0000
0001
0000
0000
1000
0000
0000
0100
0000
0000
0010
0000
0001
0000
0100
0000
,
0000
1000
0000
0000
0100
0000
0000
1000
0000
0000
0010
0000
0100
0000
1100
0000
,
0000
0101
0000
0000
2020
0000
0000
0000
0000
0000
0000
0000
0000
3030
0001
0000
,
0000
1000
0000
0000
0001
0000
0000
1000
0000
0000
0010
0000
0100
0000
1000
0000
,
0000
0001
0000
0000
0100
0000
1000
0000
0000
0010
0000
0000
1000
0000
0001
0000
,
0000
0100
0000
0000
1000
0000
0000
0010
0000
1000
0010
0000
0001
0000
0010
1000
,
0001
0010
0100
1000
0100
0010
0100
1000
0001
0010
0200
0000
0000
0300
1000
0000
,
0000
0001
0000
0000
1000
0000
0000
0001
0000
0000
0100
0000
0010
0000
0001
0000
,
0000
1000
0000
0000
0010
0000
0001
0000
0000
0100
0000
0000
0001
0000
1000
0000
,
0000
0010
0000
0000
0001
0000
0000
0100
0000
0001
0100
0000
1000
0000
2002
0000
,
0000
0000
0000
0000
0000
0000
3003
0001
,
0000
1000
0000
0010
1000
0010
0000
0001
,
0100
0001
0000
0010
1000
0010
0000
0001
,
1000
0001
1000
0010
0100
1000
0001
0010
,
0100
1000
0001
0010
1000
0001
1000
0001
,
0000
1000
0000
0100
1000
0001
0000
0010
,
1000
0010
1000
0010
0000
1000
0000
0001
,
1000
0001
0000
0010
1000
0010
0001
0100
,
0000
1000
0000
0000
0001
0000
0000
0010
0000
0000
0100
0000
1000
0000
0001
0000
,
0000
1000
0000
0010
1000
0010
0000
0001
,
0010
0000
0001
0000
1000
0001
0100
0000
1000
0000
0001
0000
1000
0000
0001
0000
,
0010
0000
1000
0000
0001
0000
0100
0000
1000
0000
0010
0000
0001
0000
0100
1000
,
0010
0100
0010
1000
0010
0100
0001
0100
0010
1000
0100
0010
0100
1000
0001
0000
,
1000
0010
0100
1000
0001
0010
1000
0001
,
1000
0000
0010
0000
0001
0100
1000
0000
0010
0000
0001
0100
1000
0100
0010
0000
,
1000
0100
0001
1000
0001
0010
1000
0011
,
0000
0000
1100
0000
0000
0000
0000
0010
1000
0001
1000
0100
0001
0010
0100
0000
,
1000
0001
1000
0010
1000
0100
1000
0001
,
0010
1000
0001
1000
0010
0001
0000
1000
,
0100
1000
0001
1000
0010
1000
0001
0100
,
0000
0000
1000
0000
0000
0000
0010
0000
1000
0000
0010
0000
1000
0100
0001
0000
,
0001
1000
0010
1000
0010
0100
1000
0100
,
0001
1000
0001
0010
1000
0001
0010
1000
,
0100
1000
0001
0010
1000
0001
0010
2001
,
0000
0000
0000
0000
0000
0000
0000
0001
0000
0000
0001
0000
3001
0000
1000
0000
,
0000
0001
0000
0000
0100
0000
0000
0010
0000
0000
1000
0000
0001
0010
1000
0000
,
0000
0100
0000
0000
0001
0000
0000
0010
0000
0000
0001
0000
1000
0000
0100
0000
,
0000
0001
0000
0000
1000
0000
0000
0010
0000
0000
0001
0000
0010
0000
0100
1000
,
0001
0000
0010
0000
1000
0000
0100
0001
1000
0010
0100
0001
1000
0100
0001
0000
,
0000
1000
0000
0000
0001
0000
0000
0100
0000
0000
0010
0000
0001
0010
0100
0000
,
0000
1000
0000
0000
0001
0000
0000
0010
0000
0000
0100
0000
1000
0000
0010
0000
,
0000
0001
0000
0000
0010
0000
0000
0001
0000
0000
0100
0000
0010
0000
0022
0000
,
0000
0000
0000
0000
0000
0000
0033
0001
,
1000
0010
1000
0100
1000
0001
0010
0001
,
1000
0010
0100
1000
0001
0010
0100
1000
,
0001
0000
0010
0000
1000
0000
0001
0000
1000
0000
0020
0000
0130
0000
0100
1000
,
0001
0100
0001
1000
0010
0100
0010
0100
0001
1000
0001
0010
0001
0100
0001
0000
,
1000
0000
0010
0000
1000
0000
0010
0000
0100
0000
1000
0000
0001
0000
0010
0100
,
1000
0001
0010
0100
1000
0100
1000
0100
0010
0001
1000
0100
0010
0001
1000
0000
,
0001
0000
0010
0000
1000
0000
0001
0010
0100
1000
0100
0010
0001
0010
1100
0000
,
0000
1010
0000
0000
0220
0000
0000
0000
0000
0000
0000
0000
0000
0000
0000
0000
,
0000
0000
0000
0000
,
0330
0000
0000
0000
;
