#TITLE:Over (RGR-Special);
#SUBTITLE:;
#ARTIST:Mark Hill Presents Kelly Marie;
#TITLETRANSLIT:;
#SUBTITLETRANSLIT:;
#ARTISTTRANSLIT:;
#GENRE:;
#CREDIT:;
#MUSIC:Over (RGR-Special).ogg;
#BANNER:Over (RGR-Special).png;
#BACKGROUND:Over (RGR-Special)-bg.png;
#CDTITLE:./CDTitles/DDR UNIVERSE3.png;
#SAMPLESTART:38.399;
#SAMPLELENGTH:15.000;
#SELECTABLE:YES;
#OFFSET:-0.001;
#BPMS:0.000=125.000;
#STOPS:;
#BGSTAGE:3;
#BGCHANGES:;
#FGCHANGES:;

//--------------- dance-single - XLev450X ----------------
#NOTES:
     dance-single:
     XLev450X:
     Challenge:
     12:
     0,0,0,0,0:
0000
0000
0000
0000
,
0000
0000
0000
0000
,
0000
0000
0000
0000
,
0000
0000
0000
0000
,
0000
1000
0010
0100
0001
0000
2000
0000
,
3000
0000
0010
0001
1000
0000
0001
0000
0100
0000
0010
0000
2000
0000
0000
0000
,
3000
0010
1000
0001
0100
0000
2000
0000
,
3000
0000
0010
1000
0001
0000
1000
0000
0010
0000
0100
0000
0002
0000
0000
0000
,
0003
1000
0010
0001
1000
0000
0200
0000
,
0300
0000
1000
0001
0010
0000
0001
0000
0100
0000
1000
0000
0200
0000
0000
0000
,
0300
0010
0001
1000
0010
0100
0001
1000
,
0020
0000
0000
0000
0030
0000
0010
0001
,
0100
0000
0001
0000
1000
0000
0010
0000
0100
0000
0000
0000
0001
0000
0000
1000
,
0000
0000
0010
0000
0100
0000
1000
0100
,
0001
0000
0000
0000
0000
0000
1000
0000
0000
0010
0000
0000
0100
0000
0001
0000
,
1000
0000
0010
0100
0000
0001
0000
0000
,
1000
0000
0001
0000
0100
0000
0010
0000
1000
0000
0000
0000
0001
0000
0000
1000
,
0000
0000
0010
0000
0100
0001
1000
0000
,
0010
0000
1000
0001
0000
0100
0000
0000
,
0001
0000
1000
0000
0010
0000
0100
0000
0010
0001
0010
0000
0100
1000
0100
0000
,
0001
0000
0000
1000
0000
0000
0010
0000
0000
0100
0000
0000
0001
0000
0000
1000
,
0010
0000
0000
0000
1000
0000
0000
0000
0001
0000
0100
0000
0010
1000
0100
0000
,
0001
0000
0000
1000
0000
0000
0010
0000
0000
0100
0000
0000
0001
0000
0000
1000
,
0001
0010
1000
0001
0100
0010
1000
0001
,
0010
0000
0000
0100
0000
0000
0001
0000
0000
1000
0000
0000
0010
0000
0000
0001
,
0010
0000
1000
0000
0010
0000
0100
0000
0001
0000
1000
0000
0010
0000
0000
0001
,
0000
0000
1000
0000
0010
0000
0000
0000
0100
0000
0001
0000
1000
0000
0000
0010
,
0000
0000
0100
0000
0001
0000
1000
0000
0010
0001
0010
0000
1000
0100
1000
0000
,
0001
0000
0000
0000
1000
0000
0000
0000
0010
0000
0000
0100
0000
0000
0001
0000
,
1000
0000
0000
0000
0001
0000
0000
0100
0000
0000
0010
0000
1000
0000
0000
0000
,
0001
0000
0000
0000
0010
0000
0000
0000
1000
0000
0000
0001
0000
0000
0100
0000
,
0010
0000
0000
0000
1000
0000
0000
0001
0000
0000
0100
0000
0010
0000
0000
0000
,
1000
0000
0000
0000
0010
0000
0000
0000
0100
0000
0000
0001
0000
0000
1000
0000
,
0010
0000
0000
0000
0100
0000
0000
0001
0000
0000
1000
0000
0010
0000
0000
0000
,
0001
1000
0010
0000
0100
0001
1000
0000
,
0010
0000
0001
0000
1000
0000
0100
0000
0010
0100
0010
0000
0100
1000
0100
0000
,
0001
0000
0000
1000
0000
0000
0010
0000
0000
0100
0000
0000
0001
0000
0000
1000
,
0010
0000
0100
0000
0001
0000
1000
0000
0010
0000
0100
0000
0010
1000
0100
0000
,
0001
0000
0000
1000
0000
0000
0010
0000
0000
0100
0000
0000
0001
0000
0000
1000
,
0010
0100
0001
0010
0001
1000
0010
0001
,
0100
0000
0000
0001
0000
0000
1000
0000
0000
0010
0000
0000
0100
0000
0000
0001
,
1000
0000
0010
0000
0100
0000
1000
0000
0001
0000
0100
0000
0010
0000
0000
1000
,
0000
0000
0001
0000
0100
0000
0000
0000
0010
0000
1000
0000
0001
0000
0000
0100
,
0000
0000
0010
0000
1000
0000
0001
0000
0010
0000
0001
1000
0010
0000
0100
0000
,
0001
0000
0000
1000
0000
0000
0010
0000
0000
0100
0000
0000
0001
0000
0000
1000
,
0010
0000
0100
0000
0001
0000
1000
0000
0010
0000
0100
0000
0001
1000
0010
0000
,
0100
0000
0000
0001
0000
0000
1000
0000
0000
0010
0000
0000
0100
0000
0000
0001
,
1000
0010
0100
0001
0010
0001
1000
0001
,
0010
0000
0000
0100
0000
0000
0001
0000
0000
1000
0000
0000
0010
0000
0000
0100
,
0001
0000
1000
0000
0010
0000
0100
0000
0001
0000
1000
0000
0010
0000
0000
0100
,
0001
1000
0010
0000
0100
0001
0010
1000
,
0001
0010
0001
0000
0100
1000
0100
0000
0010
0000
0100
0000
0001
1000
0001
0000
,
0010
0000
1000
0000
0001
0010
0100
0000
,
2002
0000
0000
0000
0000
0000
0000
3003
;
