#TITLE:Out Law;
#ARTIST:CROOVE;
#GENRE:Nu Skool Breakz;
#MUSIC:Out Law.ogg;
#BANNER:Out Law.png;
#BACKGROUND:Out Law-bg.png;
#CDTITLE:./CDTitles/DJMAX Portable 1.png;
#SAMPLESTART:84.304;
#SAMPLELENGTH:15;
#OFFSET:-0.018;
#BPMS:0=126;
#STOPS:208.75=1.65;
#BGCHANGES:0.000=Out Law.mp4=1.000=0=0=0=StretchNoLoop====,
99999.000=-nosongbg-=1.000=0=0=0=StretchNoLoop====
;

//--------------- dance-single - XLev450X -フードラット--bSP ----------------
#NOTES:
     dance-single:
     XLev450X -フードラット-:
     Beginner:
     3:
     0,0,0,0,0:
0000
0000
0000
0000
,
0000
0000
0000
0000
,
0000
0000
0000
0000
,
0000
0000
0000
0000
,
0000
1000
0000
0010
,
0000
1000
0000
0000
,
0000
0001
0000
0100
,
0000
0001
0000
0000
,
0000
0010
0000
0000
,
0000
1000
0000
0000
,
0000
0001
0000
0100
,
0000
0010
0000
0000
,
0000
1000
1000
1000
,
0000
0001
0001
0001
,
0000
1000
0001
1000
,
0000
0010
0100
0010
,
0000
0001
0000
1000
,
0000
0100
0000
0010
,
0000
1000
0000
0010
,
0000
0100
0000
0001
,
0000
0001
0001
0001
,
0000
1000
0000
0010
,
0000
0100
0100
0100
,
0000
0001
0000
1000
,
0000
0001
0001
0000
,
0000
1000
1000
0000
,
0000
0100
0010
0000
,
0000
0010
1000
0001
,
0000
0010
0000
0000
,
0000
1000
0000
0000
,
0000
0001
0000
0000
,
0000
1001
0000
0000
,
0000
0010
0010
0010
,
0000
1000
0100
1000
,
0000
0101
0000
1010
,
0000
0011
0000
0000
,
0000
1000
0000
0001
,
0000
1000
0000
0000
,
0000
0010
0000
0100
,
0000
0010
0000
0000
,
0000
1000
0000
0010
,
0000
0100
0000
0001
,
0000
1000
0000
0010
,
0000
0100
0000
0000
,
0000
0001
1000
0010
,
0100
0001
0000
1000
,
0000
0010
1000
0001
,
0100
0010
0000
0000
,
0000
0010
0010
0010
,
0000
1000
0001
0100
,
0000
1000
0010
0100
,
0000
0001
1000
0010
,
0000
0000
0000
1000
0000
0001
0000
1000
,
0000
0000
0000
0100
0000
0001
0000
0010
,
0000
0000
0000
1000
0000
0010
0000
1000
,
0000
0000
0000
0100
0000
0010
0000
0001
,
0000
0000
0000
1000
0000
0000
0000
0001
,
0000
0000
0000
1000
0000
0001
0000
0100
,
0000
0000
0000
0010
0000
0000
0000
1000
,
0000
0000
0000
0010
0000
1000
0000
0001
,
0000
0100
0000
0000
0000
0000
0000
0000
;

//--------------- dance-single - XLev450X -フードラット--BSP ----------------
#NOTES:
     dance-single:
     XLev450X -フードラット-:
     Easy:
     7:
     0,0,0,0,0:
0000
0000
0000
0000
,
0000
0000
0000
0000
,
0000
0000
0000
0000
,
0000
0000
0000
0000
,
0000
1000
0001
1000
,
0000
0100
0010
1000
,
0000
0001
0100
1000
,
0001
0100
0010
1000
,
0000
0001
0001
0001
,
0000
1000
1000
0010
,
0000
0100
1000
0100
,
0001
1000
0010
1001
,
0000
0100
0100
0010
,
1000
0001
0100
0010
,
0000
1000
0001
1000
,
0010
0100
0001
1000
,
0000
1000
0010
0100
,
1000
0001
0100
0010
,
0000
0001
1000
0010
,
0100
0000
1000
0000
0010
0000
0001
0100
,
0010
1000
0001
0100
,
0000
0010
1000
0010
,
0000
0001
0100
0010
,
1000
0000
0001
0010
0001
0000
1000
0100
,
1000
0010
0100
0001
,
0000
1000
0010
0100
,
0000
0001
1000
0010
,
0100
0000
1000
0010
1000
0000
0100
0001
,
0100
0000
0010
0000
1000
0000
0001
0100
,
0001
1000
0010
0200
,
0300
0000
0001
0000
1000
0000
0010
0100
,
0001
0000
0020
0000
0000
0000
0000
0030
,
1001
0000
0001
0000
0100
0000
0001
1000
,
0010
0100
1000
0020
,
0000
0030
1000
0000
0001
0000
1000
0000
,
0001
0100
0010
0000
1000
0000
0010
0001
,
0010
1000
0001
0100
,
0000
0010
1000
0001
,
0000
0100
0010
1000
,
0000
0000
0001
0000
1000
0000
0010
0100
,
0010
1000
0100
1000
,
0000
0001
0010
1000
,
0000
0100
0001
1000
,
0010
0000
0100
0000
1000
0000
0001
0100
,
0001
1000
0010
0100
,
0000
1000
0001
0100
,
0000
1000
0010
0100
,
1000
0000
0001
0000
0100
0000
0010
1000
,
0010
0100
0001
0100
,
0000
0001
1000
0010
,
0000
1000
0001
0100
,
0010
0000
0001
0010
0001
0000
1000
0100
,
1000
0000
0000
1000
0000
0001
0000
0100
,
0000
0010
0000
1000
0000
0001
0000
0100
,
0000
0000
0000
0001
0000
0100
0000
1000
,
0000
0010
0000
1000
0010
1000
0000
0100
,
0001
0100
0000
0010
0000
1000
0000
0001
,
0000
0000
0000
1000
0000
0010
0000
0100
,
0000
0000
0000
1000
0000
0001
0000
0100
,
0000
0000
0000
0001
1000
0001
0000
0100
,
0000
0010
0100
0000
0000
0000
0000
0000
;

//--------------- dance-single - XLev450X -フードラット--DSP ----------------
#NOTES:
     dance-single:
     XLev450X -フードラット-:
     Medium:
     11:
     0,0,0,0,0:
0000
0000
0000
0000
,
0000
0000
0000
0000
,
0000
0000
0000
0000
,
0000
0000
0000
0000
,
0000
1000
0001
0100
,
0010
0000
1000
0000
0010
0000
0100
0001
,
0100
0010
1000
0001
,
0100
0000
0010
0000
1000
0000
0010
1000
,
0010
0000
0100
0001
0100
0000
0010
1000
,
0010
0100
0010
1001
,
0000
0000
0010
0001
0010
0000
1000
0100
,
1000
0010
0100
0110
,
0000
0000
0010
0000
1000
0000
0001
0100
,
0001
0000
1000
0000
0010
0000
1000
0100
,
1000
0010
0100
0001
,
0000
1000
0010
0100
,
1000
0000
0001
0100
0001
0000
1000
0000
,
0010
0000
0010
0001
0010
0000
0100
0010
,
0100
0010
2002
3003
0010
0000
0100
0000
,
0001
0000
0010
0001
0010
1000
0002
0000
,
0013
0000
0000
0000
1000
0000
0000
0000
0001
0000
1000
0000
0000
0100
0000
0001
,
0000
0010
0000
0000
0001
0000
0100
0000
1000
0000
0100
0010
0000
0001
0000
1000
,
0000
0100
0000
0000
0010
0000
1000
0000
0001
0000
0100
1000
0000
0001
0000
1000
,
0010
0001
0000
0100
1000
0000
0001
0000
0100
0000
0010
0000
1000
0000
0000
0000
,
0220
0000
0330
0000
0001
0000
0100
0000
1000
0000
0001
0000
1000
0100
0000
0001
,
0000
1000
0000
0000
0010
0000
0001
0000
0010
0000
1000
0000
0001
0100
0000
0001
,
0000
1000
0000
0100
0001
0000
1000
0000
0100
0000
0001
0000
0100
0001
0000
1000
,
0000
0001
1000
0100
0000
0000
0001
0000
0000
1000
0000
0000
0010
0000
0000
0100
,
0000
0001
0000
0000
1000
0000
0000
0000
0010
0000
0000
0000
0010
0000
0001
0000
,
1000
0100
1000
0010
,
0101
0000
0010
0000
1000
0000
0010
0100
,
0001
0100
1000
0020
0000
0000
0000
0030
,
0101
0000
0000
1000
0010
0000
1000
0000
0001
0000
0000
0100
0000
0000
0010
0000
,
0000
1000
0000
0010
0001
0000
1000
0000
0001
0000
0100
0000
0010
0000
0000
0000
,
0000
0000
1000
0001
1000
0000
0010
0000
0100
0000
0010
0000
1000
0000
0000
0001
,
0000
0000
0100
0000
0010
0000
0001
0000
1000
0000
0010
0000
0100
0000
0001
1000
,
0020
0030
1000
0000
0001
0000
0100
0010
,
0001
0000
1000
0000
0100
0000
0010
1000
,
0001
0100
0010
0000
0001
0000
0100
0000
,
1000
0000
0010
1000
0010
0000
0100
0001
,
0010
1000
0001
0100
,
0010
1000
0001
0100
,
0000
0000
1000
0000
0010
0000
0100
0001
,
1000
0000
0010
0000
1000
0000
0001
0100
,
0010
0000
1000
0000
0001
0000
0000
0000
1000
0000
0001
0000
0000
0010
0000
1000
,
0000
0100
0000
0000
1000
0000
0010
0000
0001
0000
0010
0100
0000
1000
0000
0001
,
0000
0010
0000
0000
0100
0000
0001
0000
1000
0000
0010
0001
0000
1000
0000
0001
,
0100
1000
0000
0010
0001
0000
1000
0000
0010
0000
0100
0000
0001
0000
0000
0000
,
0220
0000
0330
0000
1000
0000
0010
0000
0001
0000
1000
0000
0001
0010
0000
1000
,
0000
0001
0000
0000
0100
0000
1000
0000
0100
0000
0001
0000
1000
0010
0000
1000
,
0000
0001
0000
0010
1000
0000
0001
0000
0010
0000
1000
0000
0010
1000
0000
0001
,
0000
1000
0001
0010
0000
0000
1000
0000
0000
0001
0000
0000
0100
0000
0000
0010
,
0000
1000
0000
0010
0000
0000
1000
0000
0000
0000
0001
0000
0000
0000
0100
0000
,
0010
1000
0000
0001
0000
0100
0000
0010
,
0001
1000
0010
0100
0000
1000
0000
0010
,
1000
0010
0000
0100
0000
0001
0000
0100
,
0000
0000
0000
0010
0000
1000
0000
0001
,
0010
0001
0000
1000
0000
0100
0000
1000
,
0010
0100
1000
0010
0000
0100
0000
0001
,
1000
0000
0010
0000
0000
0000
0000
0000
0100
0001
0100
0000
0001
0000
1000
0000
,
0100
0010
0100
0000
0000
0000
0000
0000
;

//--------------- dance-single - XLev450X -フードラット--ESP ----------------
#NOTES:
     dance-single:
     XLev450X -フードラット-:
     Hard:
     15:
     0,0,0,0,0:
0000
0000
0000
0000
,
0000
0000
0000
0000
,
0000
0000
0000
0000
,
0000
0000
0000
0000
,
0000
0000
0000
0000
0001
0000
1000
0010
0000
0100
0000
0000
0001
0000
1000
0001
,
0000
0010
0000
0000
1000
0100
1000
0100
0001
0000
0100
0010
1000
0000
0001
0100
,
0000
0010
0000
0000
1000
0001
0100
0010
1000
0000
0001
1000
0100
0000
0010
1000
,
0000
0001
0000
0000
1000
0010
0100
0001
1000
0000
0010
0001
0100
0000
0001
1000
,
0001
1000
0100
0000
0001
1000
0100
0001
0010
0000
1000
0000
0001
0010
0100
0010
,
0100
0000
1000
0001
0100
0001
1000
0010
0001
1000
0100
0001
0010
0100
1000
0001
,
0000
0100
0010
1000
0001
0100
0010
1000
0010
0000
0001
1000
0100
0001
0010
1000
,
0100
0000
0001
1000
0100
0000
0010
0001
1000
0001
0000
0100
0000
0010
0000
1000
,
0000
0001
1000
0001
1000
0010
0001
0010
1000
0000
0010
0100
0000
0000
0001
0000
,
1000
0010
0000
0000
1000
0001
1000
0000
0010
0000
1000
0010
0001
0000
0100
0010
,
0000
1000
0000
0010
0001
0000
0100
0000
0010
1000
0001
0000
0100
0000
0010
0000
,
1000
0001
0000
0100
1000
0100
1000
0000
0001
0000
0100
0000
0010
0000
1000
0001
,
0000
0100
0000
0000
1000
0010
0001
0000
0100
0000
0010
0000
0001
0100
0001
0000
,
1000
0010
1000
0000
0100
0001
0100
0000
0010
1000
0001
0000
0100
0000
0010
0001
,
1000
0000
0001
0100
0020
0000
0030
0000
1000
0010
0001
0000
0100
0000
0010
0000
,
1000
0001
0200
0000
0300
0000
1000
0100
0001
0000
1000
0001
0010
1000
0010
0000
,
0001
0000
0100
0000
0010
0000
1000
0000
0001
0000
0010
0100
0000
0010
0100
0000
,
0001
0000
0100
0000
0010
0000
1000
0000
0001
0000
0100
0001
0000
1000
0010
0000
,
0100
0000
0001
0000
1000
0000
0010
0000
0100
0000
0001
1000
0000
0010
0100
0000
,
0002
0000
0003
0000
1000
0000
0010
1000
0000
0001
0000
0010
0100
0000
0010
0000
,
1000
0001
1000
0001
0100
0000
0010
0000
1000
0000
0001
0100
0000
0010
1000
0000
,
0001
0000
0100
0000
0010
0000
1000
0000
0001
0000
1000
0010
0000
1000
0010
0000
,
0001
0000
0100
0000
0010
0000
1000
0000
0010
0000
0001
0100
0000
1000
0001
0000
,
0200
0000
0300
0000
0001
1000
0000
0010
0000
0100
0000
0001
1000
0100
0010
0100
,
0001
0000
0000
1000
0000
0000
0010
0000
0000
0001
0000
0000
0010
0000
0000
0000
0000
0000
1000
0000
0000
0000
0000
0000
0010
0000
0000
0000
0000
0000
0010
0000
0000
1000
0100
0000
0001
0000
0000
0000
0000
0000
0100
0000
0000
0000
0000
0000
,
0001
0000
1000
0000
0010
0000
0100
0010
0001
0000
1000
0000
0001
1000
0010
0000
,
0000
0010
1000
0100
0001
0000
0010
0000
0010
0100
0001
0010
0001
1000
0001
0010
,
0100
0000
0000
1000
0000
0000
0010
0000
0000
1000
0000
0000
0010
0000
0000
0000
0000
0000
0200
0000
0000
0000
0000
0000
0000
0000
0000
0000
0000
0000
0000
0000
0000
0000
0000
0000
0300
0000
0000
0000
0000
0000
0001
0000
1000
0000
0001
0000
,
1000
0000
0000
0010
0000
0000
0100
0000
0001
1000
0000
0010
0000
0000
0100
0000
,
0000
0001
0000
1000
0010
0000
1000
0000
0010
0000
0001
0000
1000
0000
0020
0000
,
0030
0000
0001
0010
0001
0000
1000
0000
0001
0000
0010
0000
0100
0000
0000
0001
,
0000
0000
1000
0000
0010
0000
0100
0000
0001
0000
1000
0000
0010
0000
0001
0010
,
0002
0000
0003
0000
1000
0001
1000
0100
0001
0000
0010
0001
1000
0000
0100
0001
,
0010
0000
1000
0001
0100
0000
0001
0000
1000
0000
0010
0100
0001
0000
1000
0000
,
0010
0000
0100
0001
1000
0100
0010
0001
0100
0000
0001
0010
0001
0100
1000
0001
,
0010
0000
0100
0001
1000
0000
0010
0100
0001
0000
1000
0010
0100
0001
0100
0000
,
1000
0000
0001
1000
0010
0000
0100
0000
0001
0000
1000
0000
0010
0100
0001
1000
,
0100
0000
0010
1000
0001
0000
1000
0010
0000
0100
0000
0001
0000
1000
0100
0001
,
0010
0000
0100
0010
0100
0000
0001
0100
0010
0000
1000
0001
0000
0100
0001
1000
,
0001
0000
0100
0000
0001
0010
1000
0001
0010
0100
0001
1000
0000
1000
0001
0010
,
0100
0001
1000
0000
0100
0000
0001
0000
1000
0000
0100
0010
0000
0100
0010
0000
,
1000
0000
0010
0000
0100
0000
0001
0000
1000
0000
0010
1000
0000
0001
0100
0000
,
0010
0000
1000
0000
0001
0000
0100
0000
0010
0000
1000
0001
0000
0100
0010
0000
,
2000
0000
3000
0000
0001
0000
0100
0001
0000
1000
0000
0100
0010
0000
0100
0000
,
0001
1000
0001
1000
0010
0000
0100
0000
0001
0000
1000
0010
0000
0100
0001
0000
,
1000
0000
0010
0000
0100
0000
0001
0000
1000
0000
0001
0100
0000
0001
0100
0000
,
1000
0000
0010
0000
0100
0000
0001
0000
0100
0000
1000
0010
0000
0001
1000
0000
,
0020
0000
0030
0000
1000
0001
0000
0100
0000
0010
0000
1000
0001
0010
0100
0010
,
1000
0001
0100
1000
0100
0000
0100
0000
1000
0010
0000
0100
0000
0001
0000
0010
,
0001
0000
1000
0000
0000
0000
0100
0000
0010
0001
0000
0010
0000
0100
0000
1000
,
0010
0000
0001
0000
0000
0000
0010
0000
0100
0001
0000
0100
0000
1000
0000
0100
,
0010
0000
1000
0000
0000
0000
0100
0000
0010
0001
0000
0100
0000
0010
0000
0000
,
1010
0000
0001
0200
0300
0000
0010
0000
0001
0100
0000
0010
0000
1000
0000
0100
,
1000
0000
0001
0000
0000
0000
0010
0000
0100
1000
0000
0100
0000
0010
0000
0001
,
0100
0000
1000
0000
0000
0000
0100
0000
0010
1000
0000
0010
0000
0001
0000
0010
,
0100
0000
0001
0000
0000
0000
0010
0000
0100
1000
0000
0010
0000
0100
0000
0001
,
1000
0000
0010
0000
2002
0000
0000
3003
0000
0000
0000
0000
0000
0000
0000
0000
;
