#TITLE:音楽 (STARDOM Remix);
#ARTIST:cosMo@暴走P;
#TITLETRANSLIT:Ongaku (STARDOM Remix);
#ARTISTTRANSLIT:cosMo@BousouP;
#MUSIC:Ongaku (STARDOM Remix).ogg;
#BANNER:Ongaku (STARDOM Remix).png;
#BACKGROUND:Ongaku (STARDOM Remix)-bg.png;
#CDTITLE:./CDTitles/DANCERUSH STARDOM.png;
#SAMPLESTART:96.000;
#SAMPLELENGTH:15;
#BPMS:0=135;
#BGSTAGE:17;

//--------------- dance-single - XLev450X-bSP ----------------
#NOTES:
     dance-single:
     XLev450X:
     Beginner:
     3:
     0,0,0,0,0:
0000
0000
0000
0000
,
0000
0000
0000
0000
,
0000
0000
0000
0000
,
0000
0000
0000
0000
,
0000
0000
0000
0000
,
0000
0000
0000
0000
,
0001
1000
0010
0000
,
0100
0001
0010
0000
,
1000
0001
0100
0010
,
2002
0000
0000
3003
,
0010
0000
0100
0000
,
0001
0000
0000
0000
,
1000
0000
0010
0000
,
0100
0100
0100
0000
,
0001
0001
0001
0000
,
1000
1000
1000
0000
,
0010
0010
0010
0000
,
0001
0000
0100
0000
,
1000
0000
0000
0000
,
0100
0000
0001
0000
,
0010
0000
0000
0000
,
0001
0000
0100
0000
,
1000
0000
0000
0000
,
0010
0000
0000
0000
,
0100
0000
0000
0000
,
0010
0000
0000
0000
,
0000
0000
0000
0000
,
0000
0000
0000
0000
,
0000
0000
0000
0000
,
0010
1000
0001
0000
,
0100
0010
0001
0000
,
0100
0000
1000
0000
,
0001
0000
1000
0000
,
0010
0000
0100
0000
,
0001
0000
1000
0000
,
0010
0000
0100
0000
,
0001
0000
1000
0000
,
0010
0000
0000
0000
,
0100
0000
0000
0000
,
1000
0000
0001
0000
,
0100
0000
0010
0000
,
0001
0000
0000
0000
,
1000
0000
0000
0000
,
0010
0000
0100
0000
,
0001
0000
0000
0000
,
1000
0000
0001
0000
,
0100
0000
0000
0000
,
0010
0000
1000
0000
,
0001
0000
0000
0000
,
0010
0000
0100
0000
,
0010
0000
0100
0000
,
0010
0000
1000
0000
,
0001
0000
0100
0000
,
0010
0000
0000
0000
,
1000
0000
0010
0000
,
0100
0000
0001
0000
,
1000
0000
0010
0000
,
0100
0000
0001
0000
,
0010
0000
0010
0000
,
0010
0000
0000
0000
,
0100
0000
0100
0000
,
0100
0000
0000
0000
,
1000
0001
1000
0000
,
0010
0100
0010
0000
,
1000
0000
1000
0000
,
0010
0000
0010
2002
,
0000
0000
0000
0000
,
0000
0000
0000
0000
,
0000
0000
0000
0000
,
3003
0000
0000
0000
;

//--------------- dance-single - XLev450X-BSP ----------------
#NOTES:
     dance-single:
     XLev450X:
     Easy:
     5:
     0,0,0,0,0:
0000
0000
0000
0000
,
0000
0000
0000
0000
,
0000
0000
0000
0000
,
0000
0000
0000
0000
,
0000
0000
0000
0000
,
0000
0000
0000
0000
,
0001
1000
0010
0100
,
0001
0000
0010
0000
,
0100
1000
0001
0010
,
0200
0000
0000
0300
,
0001
0000
1000
0000
,
0010
0100
0001
0000
,
0010
0000
1000
0000
,
0001
0100
0010
0000
,
0010
1000
0001
0000
,
0100
1000
0010
0000
,
0010
0100
0001
0000
,
0001
0000
1000
0000
,
0010
0000
0100
0000
,
0001
0000
1000
0000
,
0010
0000
0100
0000
,
0001
0000
1000
0000
,
0010
0000
0100
0000
,
0001
0000
1000
0000
,
2002
0000
0000
3003
,
0020
0000
0000
0030
,
0200
0000
0000
0300
,
0002
0003
2000
3000
,
0020
0000
0000
0030
,
0200
0310
0002
1003
,
2000
3001
0020
1030
,
0200
0301
0002
0103
,
2000
0010
0001
3010
,
0020
1030
0200
0310
,
0002
0013
2000
3100
,
0020
1030
0200
0310
,
0002
0100
1000
0103
,
1000
0100
0002
0003
,
2000
0010
0100
3010
,
0010
1000
0002
0003
,
0200
0300
0002
0003
,
1000
0000
0010
0000
,
0100
0000
0001
0000
,
1000
0001
0010
0000
,
0100
1000
0001
0000
,
0010
0100
0001
0000
,
1000
0001
0100
0000
,
0010
1000
0001
0010
,
0100
0000
0001
0000
,
1000
0010
0100
0001
,
1000
0010
0100
0001
,
0010
0000
0100
0000
,
2002
0000
0000
3003
,
0202
0000
0000
0303
,
0001
1000
0010
0000
,
0100
0000
0001
0000
0010
1000
0001
0000
,
0100
0010
0001
1000
,
0010
0000
0000
0000
0100
0001
0010
0000
,
1000
0100
0010
0100
,
0001
0100
0001
0000
1000
0010
1000
0000
,
0010
0001
0100
0010
,
2002
0000
0000
3003
,
0010
0100
0001
1000
,
0001
0000
0100
0010
1000
0000
0001
0000
,
0220
0330
2200
3300
,
0001
1000
0010
2002
,
0000
0000
0000
0000
,
0000
0000
0000
0000
,
0000
0000
0000
0000
,
3003
0000
0000
0000
;

//--------------- dance-single - XLev450X-DSP ----------------
#NOTES:
     dance-single:
     XLev450X:
     Medium:
     10:
     0,0,0,0,0:
0000
0000
0000
0000
,
0000
0000
0000
0000
,
0000
0000
0000
0000
,
0000
0000
0000
0000
,
0000
0000
0000
0000
,
0000
0000
0000
0000
,
0001
1000
0010
0000
0100
0001
1000
0001
,
0100
0010
0100
0000
0001
1000
0010
0000
,
0100
0001
1000
0010
0100
0001
0100
0010
,
1000
0001
1000
0000
0001
0010
0002
0000
0000
0003
0000
0000
1001
0000
0000
0000
,
1000
0000
0001
0000
0010
0100
0001
0000
,
0010
0000
1000
0001
0000
0100
0000
0010
,
1000
0000
0000
0000
0100
0000
0000
0000
0010
0000
0000
0100
0001
0000
1000
0000
,
0010
0000
0001
0000
1000
0010
0100
0000
,
0001
0000
0010
0000
0100
1000
0010
0000
,
0100
0000
0001
0000
0010
0100
0001
0000
,
1000
0000
0000
0000
0010
0000
0000
0000
0100
0000
0000
1000
0100
0000
0010
0000
,
0001
0100
0001
0000
,
1000
0010
0100
0000
,
1000
0001
0100
0010
,
0001
0010
0100
0000
1000
0010
0100
0000
,
0001
0000
1000
0000
,
0010
0100
0001
0000
,
1000
0010
0100
0001
,
0010
0001
0100
0010
1000
0010
0100
0000
,
2002
0000
0000
3003
,
0010
0000
1000
0000
0100
0000
0010
1000
,
0001
0000
1000
0000
0010
0100
0010
0000
,
1000
0000
0010
0000
1000
0001
0100
0001
,
0010
0000
0000
1000
0100
0000
0010
0000
,
0001
0000
0000
0001
1000
0000
0001
1000
,
0010
1000
0001
0010
,
0100
0000
0010
0000
1000
0010
1000
0000
,
0001
0100
0010
0000
1000
0010
0100
0000
,
0001
0000
0100
0000
0010
1000
0001
0000
,
0100
0000
0000
1000
0000
0000
0010
0000
0001
0000
0000
0000
1000
0000
0000
0000
,
0010
0000
0000
0100
0000
0000
1000
0000
0001
0000
0000
0000
0100
0000
0001
0000
,
1000
0010
0100
0001
,
1000
0010
0100
0000
1000
0001
0100
0000
,
0010
0001
1000
0010
,
0100
1000
0100
0000
0010
0001
0010
0000
,
0010
0000
0000
1000
0000
0000
0100
0000
0001
0000
0000
0000
0001
0000
0000
0000
,
0010
0000
0000
1000
0000
0000
0100
0000
0001
0000
0000
0000
1000
0000
0010
0000
,
0100
0000
0000
1000
0000
0000
0010
0000
0001
0000
0000
0000
1000
0000
0000
0000
,
0010
0000
0000
0100
0000
0000
1000
0000
0001
0000
0010
0000
1000
0000
0000
0000
,
0100
0000
0000
1000
0000
0000
0010
0000
0001
0000
0000
0000
1000
0000
0000
0000
,
0001
0000
0000
0100
0000
0000
0010
0000
1000
0000
0000
0000
0100
0000
0001
0000
,
0100
0000
0000
1000
0000
0000
0010
0000
0001
0000
0000
0000
1000
0000
0000
0000
,
0010
0000
0000
1000
0000
0000
0100
0000
0001
0000
0000
0000
1000
0000
0001
0000
,
0010
0100
1000
0010
,
0001
0010
1000
0100
,
0001
0100
1000
0000
0010
0100
0001
0000
,
0010
1000
0001
0100
0010
1000
0001
0010
,
0202
0000
0000
0303
,
1000
0001
0010
0000
0100
1000
0010
0000
,
0001
0100
0010
1000
0000
0010
0100
0000
,
0001
0000
1000
0000
0010
0000
0100
1000
,
0001
0000
0100
0000
0001
1000
0001
0000
,
0010
0000
0100
0000
0001
1000
0010
0000
,
0100
0001
1000
0000
0010
0000
0100
0000
,
1000
0001
0010
0000
0100
1000
0100
0000
,
0010
0001
0010
0100
1000
0010
0100
0010
,
0001
1000
0010
0000
0100
0001
0010
0000
,
0100
0001
0010
0100
1000
0010
0100
1000
,
0001
0000
0010
0001
1000
0000
0010
0000
0100
0000
1000
0100
0001
0000
0010
0000
,
1000
0001
0010
0000
0100
0000
0001
1000
0010
0000
0000
0000
2002
0000
0000
0000
,
0000
0000
0000
0000
,
0000
0000
0000
0000
,
0000
0000
0000
0000
,
3003
0000
0000
0000
;

//--------------- dance-single - XLev450X-ESP ----------------
#NOTES:
     dance-single:
     XLev450X:
     Hard:
     16:
     0,0,0,0,0:
0000
0000
0000
0000
,
0000
0000
0000
0000
,
0000
0000
0000
0000
,
0000
0000
0000
0000
,
0000
0000
0000
0000
,
0000
0000
0000
0000
,
0001
1000
0010
0000
0100
0010
0001
0010
,
0100
1000
0010
0000
0100
0001
0010
0000
,
1000
0001
0100
0010
1000
0001
0010
0100
,
0100
0001
1000
0000
0100
0000
0010
0000
0001
1000
0100
0000
0001
0000
0020
0000
0000
0000
0000
0000
0000
0000
0000
0000
1000
0000
0000
0000
0030
0000
0000
0000
,
0001
1000
0010
0000
0100
0001
0010
0000
,
1000
0001
0100
0010
1000
0001
0100
0000
,
0010
0000
0001
0000
1000
0000
0010
0000
0100
0000
0001
1000
0001
0000
0010
0000
,
0010
1000
0001
0000
0100
0010
0001
0100
,
1000
0001
0100
0010
1000
0000
0001
0000
,
0100
0010
0001
0000
1000
0010
0100
0001
,
1000
0000
0000
0000
0010
0000
0000
0000
0100
0000
0001
1000
0010
0000
0100
0001
,
1000
0000
0001
0000
0010
0100
1000
0001
,
0100
0000
0010
0000
0010
1000
0001
0100
,
0010
0000
0000
0000
1000
0000
0000
0000
0001
0000
0010
1000
0100
0000
0010
0000
,
0001
0000
0000
0000
0100
0000
0000
0000
1000
0000
0000
1000
0010
0000
0100
0000
,
0001
1000
0010
0000
0100
0000
0000
0000
0022
0000
0000
0000
0033
0000
0000
0000
1000
0100
0010
0000
0001
0000
0000
0000
0220
0000
0000
0000
0330
0000
0000
0000
,
0001
0100
0010
0000
1000
0000
0000
0001
0010
0000
1000
0001
0100
0000
0000
0010
0001
0000
0100
0000
1000
0000
0000
0000
0010
0000
0000
0000
0000
0000
0000
0000
,
0001
0010
0100
1000
0100
1000
0100
0010
,
0010
0000
0000
0100
0000
0000
0010
0000
0000
0100
0000
0000
0001
0000
0000
1000
0000
0000
0001
0000
0000
1000
0000
0000
0010
0000
1000
0000
0100
0000
0010
0000
0100
0000
0010
0000
0100
0000
1000
0000
0001
0000
0100
0000
0001
0000
1000
0000
,
0001
0000
0010
0100
0001
0000
1000
0010
0100
0000
0001
0010
1000
0000
0010
0000
,
0100
0000
0001
1000
0010
0000
0100
0001
1000
0000
0010
1000
0100
0000
0001
0000
,
1000
0000
0010
0100
0001
0000
1000
0010
0100
0000
0001
0100
1000
0000
0010
0000
,
0100
0000
1000
0001
0100
0000
1000
0100
0001
0000
0010
0000
0001
0100
1000
0000
,
0010
0000
0100
0001
0100
0000
0010
0000
1000
0000
0001
0000
0010
0000
0100
0000
,
0001
0000
0100
0000
1000
0000
0010
0100
0000
0001
0000
1000
0010
0000
1000
0001
,
0010
1000
0001
1000
0100
0010
0001
0100
,
1000
0100
0001
0000
0100
0000
0010
0000
1000
0000
0001
1000
0001
0000
0100
0000
,
1000
0000
0010
0000
0100
0001
1000
0000
,
0010
0000
0100
0000
0001
0000
1000
0000
0010
0000
0100
0000
1000
0000
0001
0100
,
0010
0000
0000
1000
0000
0100
0001
0000
1000
0000
0010
0000
0100
0000
0010
1000
,
0001
0000
0000
1000
0000
0001
0010
0000
0100
0001
1000
0100
0001
0100
1000
0001
,
0010
1000
0001
0100
1000
0010
0100
0001
,
0010
0001
0100
1000
0010
0000
0110
0000
,
0001
0010
1000
0100
0001
0100
0010
0001
,
1000
0000
0100
0010
0001
0000
0010
0000
0100
0000
1000
0000
0010
0000
0100
0000
1000
0001
0100
0000
0001
0000
1000
0000
0010
0000
0100
1000
0001
0000
1000
0000
,
0100
0000
0000
1000
0000
0100
0001
0000
1000
0000
0001
0000
0010
0000
1000
0010
,
0100
0000
0000
0001
0000
0010
1000
0000
0010
0000
0001
1000
0010
0000
1000
0000
,
0001
0000
0000
0100
0000
1000
0010
0000
1000
0000
0001
0000
0010
0000
0001
1000
,
0100
0000
0000
0001
0000
0100
1000
0000
0010
0000
1000
0000
0100
1000
0001
0010
,
1000
0000
0000
0010
0000
0001
0100
0000
0001
0000
0100
0000
1000
0000
0001
1000
,
0010
0000
0000
0100
0000
0010
0001
0000
1000
0100
0001
0000
0010
0000
0100
0000
,
0001
0100
0000
1000
0000
0001
0010
0000
0100
0000
1000
0100
0001
0000
0010
0100
,
1000
0000
0000
0001
0000
0001
0100
0000
0010
0100
0001
0100
1000
0100
0001
0000
,
0010
0001
1000
0100
0010
0001
0100
0001
,
0010
0100
1000
0010
0100
0001
1000
0010
,
0100
0001
1000
0100
0010
0100
1000
0010
0001
1000
0010
0001
0100
0010
1000
0001
,
0100
0000
0000
0010
0000
0000
0100
0000
0000
0010
0000
0000
0001
0000
0000
1000
0000
0000
0010
0000
0000
1000
0000
0000
0001
0000
0010
0000
0001
0000
0010
0000
0001
0000
0100
0000
0010
0000
1000
0000
0001
0000
1000
0000
0100
0000
0010
0000
,
0001
1000
0010
0100
,
0001
0100
1000
0000
0010
0000
0001
0000
0100
1000
0001
0000
1000
0000
0010
0000
,
0100
0000
1000
0001
0010
0000
0001
1000
0100
0000
0001
0000
0010
0000
1000
0000
,
0001
0000
0100
0000
0010
0000
1000
0001
0100
0000
0001
0000
0100
0000
0010
0000
,
1000
0100
0000
0010
0001
0000
1000
0001
0100
0000
0010
0000
0001
0000
0010
0000
,
0100
0000
1000
0001
0010
0000
0001
0000
0100
0000
0001
0100
1000
0000
0001
0000
,
0010
0000
0100
1000
0001
0000
1000
0000
0010
1000
0100
0000
0001
0000
0100
0010
,
1000
0010
0100
0001
1000
0010
0100
0001
,
1000
0100
0010
0100
0001
1000
0010
0100
,
0001
0010
1000
0100
0010
0100
0001
1000
,
0100
0000
1000
0000
0100
0000
0010
0000
0100
0000
1000
0000
0001
0000
0010
0000
0001
1000
0010
0000
0100
0000
1000
0000
0010
0001
0100
0000
0001
0000
1000
0000
,
0010
0000
0000
0000
0001
0100
1000
0000
0001
0000
0010
0000
0001
0000
0100
0000
0001
0000
0000
1000
0010
0000
0100
0000
0001
0000
0010
0000
0001
0000
1000
0000
,
0100
0000
0010
0000
0100
0000
1000
0000
0000
0010
0000
0000
0001
0000
0000
0100
0000
0000
0001
0000
0000
1000
0000
0000
0002
0000
0000
0000
0000
0000
0003
0000
0000
0000
0000
0000
2002
0000
0000
0000
0000
0000
0000
0000
0000
0000
0000
0000
,
0000
0000
0000
0000
,
0000
0000
0000
0000
,
0000
0000
0000
0000
,
3003
0000
0000
0000
;
