#TITLE:On Repeat;
#SUBTITLE:;
#ARTIST:Tom Orlando;
#TITLETRANSLIT:;
#SUBTITLETRANSLIT:;
#ARTISTTRANSLIT:;
#GENRE:;
#CREDIT:;
#MUSIC:On Repeat.ogg;
#BANNER:On Repeat.png;
#BACKGROUND:On Repeat-bg.png;
#CDTITLE:;
#SAMPLESTART:5.103;
#SAMPLELENGTH:15.000;
#SELECTABLE:YES;
#OFFSET:-0.165;
#BPMS:0.000=182.244;
#STOPS:;
#BGSTAGE:30;
#BGCHANGES:;
#FGCHANGES:;

//--------------- dance-single - XLev450X-bSP ----------------
#NOTES:
     dance-single:
     XLev450X:
     Beginner:
     2:
     0,0,0,0,0:
0000
0000
0000
0000
,
0000
0000
0000
0000
,
0000
0000
0000
0000
,
0000
0000
0000
0000
,
0000
0000
0000
0000
,
0000
0000
0000
0000
,
0000
0000
0000
0000
,
0000
0000
0000
0000
,
0000
0000
0000
0000
,
0000
0000
0000
0000
,
0000
0000
0000
0000
,
0000
0000
0000
0000
,
0000
0000
0000
0000
,
1000
0000
0000
0000
,
0000
0000
0000
0000
,
0010
0000
0000
0000
,
0000
0000
0000
0000
,
0001
0000
0000
0000
,
0000
0000
0000
0000
,
0100
0000
0000
0000
,
0000
0000
0000
0000
,
1000
0000
1000
0000
,
1000
0000
0000
0000
,
0001
0000
0001
0000
,
0001
0000
0000
0000
,
0010
0000
0010
0000
,
0010
0000
0000
0000
,
0100
0000
0100
0000
,
0100
0000
0000
0000
,
1000
0000
0001
0000
,
0010
0000
0000
0000
,
0100
0000
1000
0000
,
0001
0000
0000
0000
,
0100
0000
0010
0000
,
1000
0000
0000
0000
,
0001
0000
0010
0000
,
0100
0000
1000
0000
,
0000
0000
0001
0000
,
0010
0000
0001
0000
,
0000
0000
1000
0000
,
0100
0000
1000
0000
,
0000
0000
0000
0000
,
0010
0000
0100
0000
,
1000
0000
0000
0000
,
0010
0000
0000
0000
,
1000
0000
0000
0000
,
0100
0000
0010
0000
,
0001
0000
0000
0000
,
1000
0000
0000
0000
,
0010
0000
0000
0000
,
0100
0000
0000
0000
,
1001
0000
0000
0000
,
0000
0000
0000
0000
,
0000
0000
0000
0000
,
1000
0000
0001
0000
,
0110
0000
0000
0000
,
0000
0000
0000
0000
,
0100
0000
0000
0000
,
1000
0000
0001
0000
,
1100
0000
0000
0000
,
0010
0000
0000
0000
,
0100
0000
0000
0000
,
1000
0000
0000
0000
,
0001
0000
0000
0000
,
0100
0000
0000
0000
,
0010
0000
0010
0000
,
0010
0000
0000
0000
,
0100
0000
0100
0000
,
0100
0000
0000
0000
,
1000
0000
1000
0000
,
1000
0000
0000
0000
,
0001
0000
0001
0000
,
0001
0000
0000
0000
,
1001
0000
0110
0000
,
1001
0000
0000
0000
,
0010
0000
0010
0000
,
0010
0000
0000
0000
,
1000
0000
0100
0000
,
1000
0000
0000
0000
,
0010
0000
0001
0000
,
0100
0000
0000
0000
,
1000
0000
0000
0000
,
0010
0000
1000
0000
,
0001
0000
0000
0000
,
0100
0000
0000
0000
,
0010
0000
1000
0000
,
0100
0000
0010
0000
,
0001
0000
0000
0000
,
0100
0000
0000
0000
,
1000
0000
0001
0000
,
0010
0000
0000
0000
,
1001
0000
0000
0000
;

//--------------- dance-single - XLev450X-BSP ----------------
#NOTES:
     dance-single:
     XLev450X:
     Easy:
     8:
     0,0,0,0,0:
0000
0000
0000
0000
,
0000
0000
0000
0000
,
0000
0000
0000
0000
,
0000
0000
0000
1000
,
0010
0000
0001
0000
0100
0010
0001
0000
,
0000
0000
0010
0001
,
0000
0100
1000
0010
,
0000
0000
0001
0100
,
1000
0001
0010
1001
,
0000
0000
0000
1001
,
0000
0110
0000
0000
,
1001
0000
0000
1000
,
0010
0001
0100
0001
,
0000
0000
0000
0000
1000
0010
0100
1000
,
0001
0100
0010
0000
1001
0110
1001
0000
,
0010
1000
0001
0100
,
1000
0000
0010
0000
0100
0010
0000
0100
,
0001
0000
0000
0000
0000
0000
1001
0220
,
0330
0000
1001
0220
0000
0000
0330
0000
,
0011
0000
0000
1000
,
0010
0001
0010
0000
,
1000
0100
0000
0000
1000
0010
0000
0000
,
1000
0001
0000
0000
0010
0000
0100
0000
,
0001
1000
0000
0000
0001
0100
0000
0000
,
0001
0010
0000
0000
0100
0000
0001
0000
,
0010
0100
0000
0000
0010
1000
0000
0000
,
0010
0001
0000
0000
0001
0000
0010
0000
,
0100
1000
0000
0000
0100
0010
0000
0000
,
0100
0001
0000
0000
0000
0000
0000
0000
,
1000
0000
0001
0000
,
0010
1000
0001
0000
,
0100
0000
1000
0000
,
0001
0000
0000
0000
,
0100
0000
0010
0000
,
1000
0010
0100
0000
,
0001
0000
0010
0000
,
0100
0000
1000
0010
,
0000
0000
0001
1000
,
0010
1000
0001
0110
,
0000
0000
1000
0010
,
0100
0000
0001
0000
1000
0010
0000
0000
,
0000
0000
0000
0000
0000
0000
0110
2002
,
3003
0000
0110
2002
0000
0000
3003
0000
,
1001
0000
0000
0000
,
0010
1000
0001
0010
,
1000
0010
0100
0001
,
0100
0000
1000
0000
0010
1000
0000
0000
,
0001
0100
0001
0010
,
1000
0100
0010
0001
,
0000
0000
0000
0000
0000
0000
0100
0011
,
2200
3300
0000
0011
2200
0000
3300
0000
,
1001
0000
0000
0000
,
0000
0000
0000
0000
,
0000
0000
0000
0000
,
1000
0000
0001
0000
,
0220
0000
0000
0000
,
0000
0000
0000
0330
,
0000
0000
0000
0000
0000
0000
0100
0010
,
0100
1000
0100
0000
0001
0010
0000
0000
,
1100
0000
0000
0001
1000
0001
0000
0000
,
0000
0000
0000
0000
0000
0000
0001
0000
1000
0000
0000
1000
0001
0000
0000
0000
,
1000
0100
1000
0000
0100
0010
0100
0000
,
0010
0001
0010
0000
1000
0010
0000
0010
,
0100
0001
1000
0000
0010
0000
0100
0010
,
1000
0010
0000
0100
0010
0001
0000
0001
,
1000
0010
0000
0010
0100
0000
1000
0010
,
0100
0000
0100
0001
0010
0000
0100
0000
,
0000
0000
0000
0000
0010
0001
0010
0000
,
0000
0000
1000
0010
0100
0010
1000
0001
,
0000
0000
0000
0000
0010
0100
0010
0000
,
1000
0000
0000
0000
0010
0000
0010
0100
,
0000
0000
0000
0000
0100
0001
1000
0000
,
0000
0000
0010
0001
0100
0000
0000
0000
,
0000
0000
0000
0000
0100
0010
0100
0000
,
0000
0000
0001
0100
1000
0010
1000
0000
,
0010
0000
0010
0000
,
0010
0000
0000
0000
,
1000
0000
0100
0000
,
1000
0100
0000
0000
0000
0000
0000
0000
,
0010
0000
0001
0000
,
0100
0010
0000
0000
0000
0000
0000
0000
,
1000
0100
0000
0000
0000
0000
0000
0000
,
0010
0001
0000
0000
1000
0100
0000
0000
,
0001
0010
0000
0000
0000
0000
0000
0000
,
0100
0010
0000
0000
0000
0000
0000
0000
,
0010
0100
0000
0000
1000
0100
0000
0000
,
0100
0010
0000
0000
0010
1000
0000
0000
,
0001
0010
0000
0000
0000
0000
0000
0000
,
0100
0010
0100
0010
,
1000
0000
0001
0000
,
0010
1000
0010
0000
,
1001
0000
0000
0000
;

//--------------- dance-single - XLev450X-DSP ----------------
#NOTES:
     dance-single:
     XLev450X:
     Medium:
     10:
     0,0,0,0,0:
0000
0000
0000
0000
,
0000
0000
0000
0000
,
0000
0000
0000
0000
,
0000
0000
0000
0000
,
0000
0000
0000
0000
,
0000
0000
0000
0000
,
0000
0000
0000
0000
,
0000
0000
0001
0100
,
0010
0000
1000
0000
0001
0010
0200
0000
,
0300
0000
0000
0000
0000
0000
0010
1000
,
0100
0000
0010
0100
0002
0000
0003
0000
,
1001
0000
0000
0100
,
0010
1000
0001
0200
,
0300
0000
0000
0000
0010
0001
1000
0000
,
0100
1000
0001
0000
1000
0001
0200
0000
,
0300
0000
0010
0001
,
0100
1000
0010
0100
,
0000
0000
0000
0000
0000
0000
0100
1000
,
0010
0100
0002
0003
,
0110
0000
0000
0000
0000
0000
0010
1000
,
0100
1000
0010
0100
0010
0000
0000
0000
,
0100
1000
0001
0000
0100
1000
0001
0000
,
0010
0100
0010
0000
0001
1000
0000
0000
,
0010
0100
0010
1000
0100
0000
0000
0010
,
0100
0010
0000
1000
0010
0000
0000
0000
,
0100
0001
0100
0000
0010
0100
0010
0000
,
1000
0001
0000
0000
0000
0000
0110
0000
,
0000
0000
0000
0000
0000
0000
1000
0001
,
0010
0100
0010
0100
1000
0001
0000
0000
,
0100
0010
1000
0000
0100
0001
1000
0000
,
0000
1000
0100
0010
0100
0001
0000
0000
,
0100
0001
1000
0000
0010
0100
1000
0000
,
1000
0010
0100
0010
0100
0000
0000
0000
,
1000
0001
1000
0000
0100
0010
1000
0000
,
1000
0100
0010
0000
0010
0001
0100
0000
,
0000
0000
0000
0100
,
0010
1000
0001
0200
,
0300
0000
0000
0000
0010
0001
1000
0000
,
0100
1000
0001
0000
1000
0001
0200
0000
,
0300
0000
0010
0001
,
0100
1000
0010
0100
,
0000
0000
0000
0000
0000
0000
0100
1000
,
0010
0100
0002
0003
,
0110
0000
0000
0100
,
0010
1000
0001
0200
,
0300
0000
0000
0000
0010
0001
1000
0000
,
0100
1000
0001
0000
1000
0001
0200
0000
,
0300
0000
0010
0001
,
0100
1000
0010
0100
,
0000
0000
0000
0000
0000
0000
0100
1000
,
0010
0100
0002
0003
,
0110
0000
0000
0000
,
0000
0000
0000
0000
,
0000
0000
0000
0000
0000
0000
1000
0001
,
0010
0000
0100
1000
0002
0000
0003
0000
,
0011
0000
0000
0000
,
0000
0000
0000
0000
,
0000
0000
0000
0000
0000
0000
0001
0010
,
0100
0000
1000
0100
0002
0000
0003
0000
,
1010
0000
0000
0001
1000
0001
0010
0100
,
0020
0000
0000
0000
0030
0000
0000
0000
1000
0000
0001
0100
0010
0000
0000
0000
,
1000
0100
1000
0000
0100
0010
0100
0000
,
0010
0001
0010
0000
1000
0010
0100
0000
,
0100
0001
1000
0000
0010
0001
0100
0000
,
1000
0010
1000
0000
0010
0001
0010
0000
,
1000
0010
1000
0000
0100
0000
1000
0010
,
0100
0000
0100
0001
0010
0000
0000
0000
,
0000
0000
0000
0000
0010
0001
0010
0000
,
1000
0000
1000
0010
0100
0000
1000
0001
,
0000
0000
0000
0000
0010
0100
0010
0000
,
1000
0000
1000
0001
0010
0000
0010
0100
,
0010
0000
0000
0000
0100
0001
1000
0000
,
1000
0000
0010
0001
0100
0000
0000
0000
,
0000
0000
0000
0000
0100
0010
0100
0000
,
0010
0000
0001
0100
1000
0010
1000
0000
,
0000
0000
0000
0100
,
0010
1000
0001
0200
,
0300
0000
0000
0000
0010
0001
1000
0000
,
0100
1000
0001
0000
1000
0001
0200
0000
,
0300
0000
0010
0001
,
0100
1000
0010
0100
,
0000
0000
0000
0000
0000
0000
0100
1000
,
0010
0100
0002
0003
,
0110
0000
0000
0100
,
0010
1000
0001
0200
,
0300
0000
0000
0000
0010
0001
1000
0000
,
0100
1000
0001
0000
1000
0001
0200
0000
,
0300
0000
0010
0001
,
0100
1000
0010
0100
,
0000
0000
0000
0000
0000
0000
0100
1000
,
0010
0100
0002
0003
,
0110
0000
0000
0000
;

//--------------- dance-single - XLev450X-ESP ----------------
#NOTES:
     dance-single:
     XLev450X:
     Hard:
     12:
     0.410989,0.628616,0.065015,0.170665,0.004063,354,346,8,21,0,0,0.410989,0.628616,0.065015,0.170665,0.004063,354,346,8,21,0,0:
0000
0000
0000
0000
,
0000
0000
0000
0000
,
0000
0000
0000
0000
,
0000
0000
0000
1000
,
0001
0000
0100
0010
0001
0000
0200
0000
,
0300
0000
0000
0000
0001
0010
1000
0100
,
0010
0001
0100
1000
0010
0100
0020
0000
,
0030
0000
0001
0100
,
0010
0000
1000
0000
0001
0010
0200
0000
,
0300
0000
0000
0000
0000
0000
0010
1000
,
0100
0000
0010
0100
0002
0000
0003
0000
,
1001
0000
0000
0100
,
0010
0000
1000
0000
0001
1000
0200
0000
,
0300
0000
0000
0000
0010
0001
1000
0010
,
0100
1000
0001
0100
1000
0001
0200
0000
,
0300
0000
0010
0001
,
0100
0000
1000
0000
0010
0001
0200
0000
,
0300
0000
0000
0000
0000
0000
0100
1000
,
0010
0000
0100
1000
0002
0000
0003
0000
,
0110
0000
0000
0000
0000
0000
0010
1000
,
0100
1000
0010
0100
0010
0000
0000
0000
,
0100
1000
0001
0010
0100
1000
0001
1000
,
0010
0100
0010
1000
0001
0000
0000
0000
,
0010
0100
0010
1000
0002
1000
0003
0010
,
0100
0010
0100
1000
0010
0000
0000
0000
,
0100
0001
0100
0001
0010
0100
0010
0100
,
1000
0001
1020
0100
0031
0000
0100
0000
,
0000
0000
0000
0000
0000
0000
1000
0001
,
0010
0100
0010
0100
1000
0001
0000
0000
,
0100
0010
1000
0010
1000
0002
1000
0100
,
0013
1000
0100
0010
0100
0001
0000
0000
,
0100
0001
1000
0100
0010
0100
1000
0001
,
1000
0010
0100
0010
0100
0000
0000
0000
,
1000
0001
1000
0001
0100
0010
1000
0100
,
1000
0100
0010
0001
0010
0001
0100
0010
,
0000
0000
0000
1000
,
0001
0000
0100
0010
0001
0000
0200
0000
,
0300
0000
0000
0000
0001
0010
1000
0100
,
0010
0001
0100
1000
0010
0100
0020
0000
,
0030
0000
0001
0100
,
0010
0000
1000
0000
0001
1000
0200
0000
,
0300
0000
0000
0000
0000
0000
0010
1000
,
0100
0000
0010
0100
0002
0000
0003
0000
,
1001
0000
0000
0100
,
0010
0000
1000
0000
0001
0010
0200
0000
,
0300
0000
0000
0000
0010
0001
1000
0010
,
0100
1000
0001
0010
1000
0001
0200
0000
,
0300
0000
0010
0001
,
0100
0000
1000
0000
0010
1000
0200
0000
,
0300
0000
0000
0000
0000
0000
0100
1000
,
0010
0000
0100
0010
0002
0000
0003
0000
,
0110
0000
0000
0000
,
0000
0000
0000
0000
,
0000
0000
0000
0000
0000
0000
1000
0001
,
0010
0000
0100
1000
0002
0000
0003
0000
,
0011
0000
0000
0000
,
0000
0000
0000
0000
,
0000
0000
0000
0000
0000
0000
0001
0010
,
0100
0000
1000
0100
0002
0000
0003
0000
,
1010
0000
0000
0001
1000
0001
0010
0100
,
0020
0000
0000
0000
0030
0000
0001
0000
1000
0000
0001
0100
0010
0000
0000
0000
,
1000
0100
1000
0010
0100
0010
0100
0001
,
0010
0001
0010
0100
1000
0010
0100
0010
,
0100
0001
1000
0100
0010
0001
0100
0010
,
1000
0010
1000
0100
0010
0001
0010
0001
,
1000
0010
1000
0010
0100
0000
1000
0010
,
0100
0000
0100
0001
0010
0001
0100
0020
,
1000
0000
0030
0000
0010
0001
0010
0100
,
1000
0000
1000
0010
0100
0010
1000
0001
,
0000
0000
0000
0000
0010
0100
0010
0100
,
1000
0000
1000
0001
0010
0100
0010
0100
,
0000
0000
0000
0000
0100
0001
1000
0100
,
1000
0000
0010
0001
0200
0000
0001
0000
,
0000
0000
0300
0000
0100
0010
0100
0001
,
0010
0000
0001
0100
1000
0010
1000
0000
,
0000
0000
0000
1000
,
0001
0000
0100
0000
0001
1000
0200
0000
,
0300
0000
0000
0000
0001
0100
1000
0001
,
0010
1000
0100
0001
0010
0100
0020
0000
,
0030
0000
0001
0100
,
0010
0000
1000
0000
0001
0010
0200
0000
,
0300
0000
0000
0000
0000
0000
0010
1000
,
0100
0000
0010
0100
0002
0000
0003
0000
,
1001
0000
0000
0100
,
0010
0000
1000
0000
0001
0010
0200
0000
,
0300
0000
0000
0000
0010
0100
1000
0001
,
0100
0010
0001
0100
1000
0001
0200
0000
,
0300
0000
0010
0001
,
0100
0000
1000
0000
0010
1000
0200
0000
,
0300
0000
0000
0000
0000
0000
0100
0001
,
0010
0000
0100
1000
0002
0000
0003
0000
,
0110
0000
0000
0000
;
