#TITLE:おーまい!らぶりー!すうぃーてぃ!だーりん! (DANCERUSH Style);
#ARTIST:BEMANI Sound Team "PON" feat.NU-KO;
#TITLETRANSLIT:Oh my! lovely! sweety! darling! (DANCERUSH Style);
#MUSIC:Oh my! lovely! sweety! darling! (DANCERUSH Style).ogg;
#BANNER:Oh my! lovely! sweety! darling! (DANCERUSH Style).png;
#BACKGROUND:Oh my! lovely! sweety! darling! (DANCERUSH Style)-bg.png;
#CDTITLE:./CDTitles/DANCERUSH STARDOM.png;
#SAMPLESTART:50.217;
#SAMPLELENGTH:15;
#OFFSET:-0.439;
#BPMS:0=135;
#BGSTAGE:5;

//--------------- dance-single - XLev450X-bSP ----------------
#NOTES:
     dance-single:
     XLev450X:
     Beginner:
     3:
     0,0,0,0,0:
0000
0000
0000
0000
,
0000
0000
0000
0000
,
0000
0000
0000
0000
,
0000
0000
0000
0000
,
0001
0000
1000
0000
,
0001
0000
0000
0000
,
0010
0000
0100
0000
,
0010
0000
0000
0000
,
0010
0010
0100
0000
,
1000
1000
0001
0000
,
1000
0010
1000
0000
,
0100
0001
0100
0000
,
1000
0010
1000
0000
,
0001
0100
0010
0000
,
1000
0001
0100
0000
,
0010
0100
0010
0000
,
1001
0000
0000
0000
,
1010
0000
0000
0000
,
0011
0000
0000
0000
,
0110
0000
0000
0000
,
0010
0010
0010
0000
,
0100
0100
0100
0000
,
1000
0001
1000
0000
,
0010
1000
0010
0000
,
1000
0001
0100
0000
,
1000
1000
0001
0000
,
0001
1000
0001
0000
,
0110
0000
0000
0000
,
0010
0010
1000
1000
,
0001
0001
0100
0000
,
1000
1000
0001
0001
,
0010
0000
0000
0000
,
1000
0100
1000
0000
,
0001
0010
0001
0000
,
0100
0010
1000
0001
,
0010
0000
0000
0000
,
1000
0000
0001
0000
,
1000
0000
0010
0000
,
0100
0000
1000
0000
,
0001
0000
0100
0000
,
1000
0001
1000
0000
,
0010
1000
0010
0000
,
0100
1000
0001
0000
,
0010
0100
0010
0000
,
1001
0000
0000
0000
,
0000
0000
0000
0000
,
0010
1000
0001
0000
,
1000
0010
1000
0000
,
0001
0100
0001
0000
,
0010
0100
0010
0000
,
0001
0000
1000
0000
,
0001
0000
0010
0000
,
0100
0000
0010
0000
,
0101
0000
0000
0000
,
1000
0000
0001
0000
,
1000
0100
0001
0000
,
1000
0000
0010
0000
,
0100
1000
0010
0000
,
1000
0000
0001
0000
,
0100
0001
0010
0000
,
1000
0000
0001
0000
,
1000
0010
0100
0000
,
0011
0000
0000
0000
,
1001
0000
0000
0000
;

//--------------- dance-single - XLev450X-BSP ----------------
#NOTES:
     dance-single:
     XLev450X:
     Easy:
     5:
     0,0,0,0,0:
0000
0000
0000
0000
,
0000
0000
0000
0000
,
0000
0000
0000
0000
,
0000
0000
0000
0000
,
0001
0000
1000
0000
,
0001
0001
1000
1000
,
0002
0003
2000
3000
,
0001
1000
0001
1000
,
2002
0000
0000
3003
,
0001
0001
1000
1000
,
0002
0103
2000
3010
,
1001
0110
0100
0010
,
2000
3010
0002
0103
,
1001
0110
0010
0100
,
0002
0003
2000
3000
,
0001
1000
0001
1000
,
0100
0000
0100
0000
,
0001
2000
3010
0000
,
0100
0000
0100
0000
,
1000
0002
0103
0000
,
1000
0010
0001
0001
,
0010
0100
1000
1000
,
1000
0001
1000
0001
,
0110
1001
0110
0000
,
0001
0100
1000
1000
,
0100
0010
0001
0001
,
0001
1000
0001
1000
,
0110
1001
0110
1001
,
0002
0013
2000
3100
,
0001
1000
0001
1000
,
1001
0000
0110
0000
,
1001
0100
0110
0000
,
2000
3100
0002
0013
,
1000
0001
1000
0001
,
1001
0000
0110
0000
,
1001
0010
0110
0000
,
0002
0000
0100
0000
,
0100
0000
0100
0003
,
2000
0000
0010
0000
,
0010
0000
0010
3000
,
1001
0000
0110
0000
,
0001
0200
0310
0000
,
0002
0003
2000
3000
,
0001
1000
0001
1000
,
1001
0000
0110
0000
,
1000
0002
0103
0000
,
1000
1000
0001
0001
,
1001
0110
0010
0100
,
0001
0001
1000
1000
,
1001
0110
0100
0010
,
2000
3200
0320
0031
,
0100
0010
0100
0010
,
0200
0300
0020
0030
,
1000
0001
1000
0001
,
2000
0000
0010
0000
,
0010
0000
0010
3000
,
0002
0000
0100
0000
,
0100
0000
0100
0003
,
1000
1000
0001
0001
,
2000
3010
0002
0103
,
1001
0000
0110
0000
,
0010
0100
0010
0100
,
0100
0000
0100
0000
,
0001
1000
0110
0000
;

//--------------- dance-single - XLev450X-DSP ----------------
#NOTES:
     dance-single:
     XLev450X:
     Medium:
     8:
     0,0,0,0,0:
0000
0000
0000
0000
,
0000
0000
0000
0000
,
0000
0000
0000
0000
,
0000
0000
0000
0000
,
1000
0000
0001
0010
,
0100
2000
3010
0000
,
0200
0300
0020
0030
,
1000
0001
1000
0001
,
2002
0000
0000
3003
,
0110
1001
1000
0001
,
2000
3010
0002
0103
,
0001
0001
1000
1000
,
0002
0103
2000
3010
,
1000
1000
0001
0001
,
2000
3000
0002
0003
,
0100
0010
0100
0010
,
0100
0000
0100
1000
,
0100
0002
0013
0000
,
0020
0100
0030
0000
0200
0310
1000
0000
,
0100
0002
0013
0000
,
2000
0100
0100
3100
,
0002
0010
0010
0013
,
2000
3000
0001
0000
0002
0003
0100
0000
,
2000
3100
0002
0013
2002
0000
3003
0000
,
2000
3000
0002
0003
0200
0300
0020
0030
,
2000
3000
0020
0030
1000
0000
1000
0000
,
0001
0001
1000
1000
,
0010
0000
0100
0000
2002
0000
0000
3003
,
0100
0000
0100
0001
,
0010
2000
3100
0000
,
0200
0010
0300
0000
0020
0130
0001
0000
,
0010
2000
3100
0000
,
0101
0000
1100
0000
,
1001
0110
2002
3003
0100
0000
0000
0000
,
0010
0100
0000
0000
0001
0010
0000
1000
,
0100
0000
0220
0330
1001
0000
0000
0000
,
0002
0100
1000
0100
,
1000
0100
1000
0103
,
2000
0010
0001
0010
,
0001
0000
0010
0000
0001
0000
0010
3000
,
1001
0000
0110
0000
,
0100
0010
0220
0330
0100
0000
0000
0000
,
0002
0003
2000
3000
,
0001
1000
0001
1000
,
0010
0100
0010
0100
2002
3003
0000
0000
,
1000
0010
0002
0000
0013
0000
1001
0000
,
0002
0003
2000
3000
0002
0003
2000
3000
,
0002
0023
0032
0023
0032
0023
0032
0003
,
0020
0030
2000
3000
0002
0003
0200
0300
,
0002
0013
2000
3100
0001
0000
1000
0000
,
2000
3200
2300
3200
2300
3200
2300
3200
,
2300
3200
0301
2000
3200
2300
3001
0000
,
0002
0103
2000
0010
,
3002
0000
0000
0000
2003
0000
0000
3000
,
0002
0100
0100
0103
,
2000
0010
0010
3010
,
1001
0110
1001
0110
,
0001
0001
1000
1000
,
0010
0100
0010
0100
,
0002
0013
2000
3100
2002
0000
3003
0000
,
0010
0100
0010
0100
,
2002
0000
0000
3003
,
0100
0000
0100
0000
,
0001
0100
2002
3003
0100
0000
0000
0000
;

//--------------- dance-single - XLev450X-ESP ----------------
#NOTES:
     dance-single:
     XLev450X:
     Hard:
     11:
     0,0,0,0,0:
0000
0000
0000
0000
,
0000
0000
0000
0000
,
0000
0000
0000
0000
,
0000
0000
0000
0000
,
0001
0000
0000
0000
1000
0000
0000
0000
0010
0000
0000
0000
0001
0010
0000
1000
,
0000
0001
0000
1000
0100
0000
0001
0000
1000
0000
0010
0000
1000
0000
0000
0000
,
0001
0100
1000
0001
,
0010
0001
1000
0010
0001
0100
1000
0000
,
0001
0000
0000
0000
1000
0000
0000
0000
0010
0000
0000
0000
1000
0000
0000
0001
,
0000
0001
0000
0000
0100
0000
0000
0000
1000
0000
0000
0000
0010
0000
0000
0000
,
1000
0000
0000
0000
0100
0000
0000
0000
0001
0000
0000
0000
0010
0000
0000
1000
,
0000
1000
0000
0000
0010
0000
0000
0000
0100
0000
1000
0000
0001
0000
0000
0000
,
0100
0000
0000
0000
0001
0000
0000
0000
1000
0000
0000
0000
0001
0000
0000
0100
,
0000
0100
0000
0000
1000
0000
0000
0000
0010
0000
0000
0000
0100
0000
0000
0000
,
1000
0001
1000
0010
,
0001
1000
0010
0100
1000
0001
0010
0100
,
0001
0000
0000
0000
0101
0000
0000
0000
1000
0000
0000
0000
0010
1000
0000
0010
,
0000
0100
0000
0000
0001
0000
0000
0000
1000
0000
0010
0000
0001
0010
0001
0000
,
1000
0000
0001
0000
0100
0000
0000
0000
1000
0000
0010
0000
1000
0010
0000
0100
,
0000
1000
0000
0000
0001
0000
0000
0000
0100
0000
0000
0000
1000
0000
0000
0000
,
0010
0001
0010
1000
0000
0100
1000
0001
,
0000
0100
1000
0010
0000
0001
1000
0010
,
0000
1000
0100
1000
0000
0001
0010
0001
,
0000
1000
0100
0001
2002
0000
0000
3003
,
0001
0000
1000
0000
0010
0001
0010
0000
,
0100
0000
1000
0000
0010
1000
0010
0100
,
0001
0000
1000
0000
0001
0010
1000
0100
,
0001
0000
0000
0100
0000
0000
1000
0000
0001
0000
0000
0100
0000
0000
0010
0000
,
1000
0000
0000
0000
0001
0000
0000
0000
1000
0000
0000
0000
0010
0001
0000
1000
,
0000
0010
0000
0000
0001
0000
0000
0000
2001
0000
0000
0000
0000
0000
3000
0000
,
0001
0000
1000
0000
0010
1000
0001
0000
,
0100
0000
0010
0000
0001
0000
0000
0120
0000
0000
0000
0000
0000
0000
0000
0030
,
0001
0000
0000
0000
1000
0000
0000
0000
0010
0000
0000
0000
1000
0100
0000
0001
,
0000
1000
0000
0000
0010
0000
0000
0000
0100
0000
0000
0000
1000
0000
0000
0000
,
0010
0000
1000
0000
0100
1000
0100
0010
,
0001
0010
0001
0000
1000
0100
1000
0000
0010
0100
0010
0000
0001
1000
0001
0000
,
2001
0001
0001
0001
,
0001
0000
0001
0000
0001
0000
0001
3000
,
1002
1000
1000
1000
,
1000
0000
1000
0000
1000
0000
1000
0003
,
0001
0000
1000
0000
0100
0000
0001
0010
,
0001
0000
1000
0000
0100
1000
0010
0000
,
0100
0000
1000
0000
0001
0100
0010
0000
,
1000
0000
0100
0000
0010
0001
0010
0000
,
0001
0000
1001
0000
0001
0000
1001
0000
1002
0000
0000
0000
1003
0100
0000
0010
,
0000
0001
0000
0000
2002
3003
0000
0000
2200
0000
0000
0000
0000
0000
3300
0000
,
0001
1000
0100
1000
,
0001
0010
0001
0100
1000
0001
0010
1000
,
0001
0100
1000
0010
,
1000
0010
1000
0001
0100
1000
0001
0010
,
1000
0001
1000
0100
,
1000
0100
1000
0001
0100
0010
1000
0000
,
0001
0000
0100
0000
0010
1000
0010
0000
,
0001
1000
0001
0100
1000
0001
0100
0010
,
1000
0001
0010
0001
1000
0100
1000
0100
,
1000
0010
0100
1000
0001
0010
0001
0000
,
1000
0100
0010
0001
,
1000
0100
0001
0010
1000
0010
0100
1000
,
0001
0011
0100
1100
,
0010
1000
0010
0100
1000
0001
0010
0000
,
1000
0101
0010
1010
,
0010
0110
0010
1001
,
0010
0000
0010
0000
1001
0000
0000
0000
0100
0000
0100
0000
1000
0001
0000
1000
,
0000
0010
0000
0000
0001
0100
1000
0100
0010
0000
0000
0000
0000
0000
0000
0000
;

//--------------- dance-single - XLev450X†-CSP ----------------
#NOTES:
     dance-single:
     XLev450X†:
     Challenge:
     15:
     0,0,0,0,0:
0000
0000
0000
0000
,
0000
0000
0000
0000
,
0000
0000
0000
0000
,
0000
0000
0000
0000
,
0001
0000
0100
0000
1000
0000
0001
0000
0010
0000
1000
0000
0001
0010
0001
1000
,
0100
0000
0010
0000
0100
0000
1000
0000
0001
0000
0010
0000
0001
0010
0001
0000
,
1000
0000
0010
0001
0010
0000
1000
0000
0001
0000
1000
0001
1000
0000
0100
0000
,
0001
1000
0001
1000
0010
1000
0010
0100
0001
1000
0010
0100
0001
1000
0010
0100
,
0001
0000
1000
0000
0010
0000
1000
0000
0100
0000
1000
0000
0001
0010
0000
1000
,
0000
0010
1000
0000
0001
0000
0100
0000
1000
0000
0001
0100
0001
0000
0100
0000
,
1000
0000
0010
0000
1000
0000
0010
0000
0100
0000
0001
0000
1000
0001
0000
1000
,
0000
0010
1000
0000
0100
0000
1000
0000
0001
0000
0010
0001
0010
0000
1000
0010
,
1000
0000
0100
0000
1000
0000
0001
0000
0010
0000
1000
0000
0010
1000
0000
0010
,
0000
0100
0001
0100
1000
0000
0010
0000
0100
0000
1000
0000
0001
1000
0100
0010
,
0001
1000
0010
1000
0010
0100
1000
0100
,
0001
0010
0100
1000
0010
1000
0001
0100
0010
1000
0001
1000
0010
0100
0001
1000
,
0010
0000
0000
0000
1001
0000
0000
0000
0010
0000
0000
0000
1000
0010
0000
0100
,
0000
0001
0000
1000
0010
0000
0001
0000
0010
0000
0001
0010
0001
0010
1000
0000
,
0010
0000
0100
0000
1000
0000
0000
0000
0001
0000
0100
0000
0001
1000
0000
0010
,
0000
1000
0000
0001
0100
0000
0010
0000
1000
0000
0001
1000
0001
1000
0001
1000
,
0010
0000
0001
0010
0001
0000
1000
0000
0010
0000
1000
0010
1000
0000
0100
0000
,
0001
0000
0010
0100
0010
0000
1000
0000
0001
0000
0010
0001
0010
0000
1000
0000
,
0010
0000
1000
0010
1000
0000
0010
0000
1000
0000
0010
0100
0010
0000
0001
0000
,
0100
0000
1000
0001
1000
0000
0001
0000
0100
0000
0001
1000
0100
0001
0010
0100
,
1000
0000
0001
0010
0001
0000
1000
0000
0010
0000
1000
0010
1000
0000
0001
0000
,
0100
0000
0100
0010
0001
0000
1000
0000
0010
0000
1000
0000
0001
0010
0100
1000
,
0100
0000
0010
1000
0001
0000
1000
0000
0010
0000
1000
0001
1000
0000
0010
0000
,
0001
0010
0100
0010
0001
1000
0010
1000
0010
1000
0100
0010
0100
1000
0001
1000
,
0001
0000
1000
0000
0010
0100
0000
0000
1000
0000
0001
0000
0010
0001
0000
1000
,
0000
0010
0000
0000
0001
0000
1000
0001
1000
0000
0010
0001
1000
0010
1000
0010
,
0001
1000
0010
0000
1000
0100
1000
0001
,
0011
0000
0011
0000
0001
0000
0000
1000
0000
0000
0010
1000
0010
1000
0001
0100
,
0010
0000
1000
0000
0001
0000
0000
0000
1000
0000
0010
0000
0001
0010
0001
0000
,
1000
0010
0001
1000
0010
0001
1000
0000
,
0010
1000
0010
0100
1000
0001
0010
1000
,
0001
1000
0001
1000
0010
1000
0001
0100
0010
1000
0001
1000
0010
1000
0001
0100
,
0010
0000
1000
0000
0001
0000
0100
1000
,
0001
0100
1000
0000
0010
0000
0100
0000
,
1000
0010
1000
0100
0001
0010
1000
0000
,
0001
1000
0001
0100
1000
0001
0010
0000
,
0001
0000
0000
0000
1000
0000
0000
0000
0010
0000
0100
0000
1000
0001
0000
0100
,
0000
1000
0000
0000
0001
0000
0010
0000
1000
0000
0001
0000
0100
0000
0000
0000
,
0001
0010
0001
0000
1000
0000
0001
0000
1000
0010
1000
0000
0010
0000
1000
0000
,
0001
0100
0001
0000
1000
0000
0001
0000
1000
0100
0010
0001
0100
1000
0100
0010
,
0001
0000
0000
0000
0100
0000
0000
0000
1000
0000
0000
0000
0010
0000
0000
0000
0001
0000
1000
0000
0001
0000
1000
0000
0001
0100
1000
0000
0000
0000
0001
0000
,
0000
0000
1000
0000
0000
0000
0000
0000
0020
0000
0000
0000
0000
0000
0000
0000
0230
0000
0000
0000
0000
0000
0000
0000
0320
0000
0000
0000
0000
0030
0000
0000
,
0010
0001
1000
0010
0100
1000
0100
1000
,
0100
0000
0001
0010
0001
0000
1000
0010
1000
0000
0010
0100
0010
0000
1000
0010
,
0001
0001
1000
0010
0100
1000
0001
0010
,
0001
0000
0010
0001
0010
0000
1000
0100
1000
0000
0010
0100
0010
0000
1000
0010
,
1000
0010
0100
1000
0001
0010
1000
0001
,
0010
0000
0001
0010
0001
0000
1000
0010
1000
0000
0010
0100
0010
0000
1000
0000
,
0001
0000
1000
0000
0001
0000
0100
0000
1000
0000
0001
0000
0010
0100
1000
0000
,
0001
0010
0001
0100
1000
0010
1000
0001
0100
0010
1000
0001
0100
0010
1000
0010
,
0001
1000
0010
0100
1000
0001
0010
1000
,
0010
0000
0001
0010
0001
0000
1000
0010
1000
0000
0010
0000
0001
0000
1000
0000
,
0010
1000
0100
1000
0001
0010
1000
0010
,
1000
0010
1000
0000
0100
0001
0100
0000
0010
0000
1000
0000
0001
0000
0000
0000
,
1000
0001
0100
1000
0001
0010
0100
1000
,
0001
0010
0001
0000
1000
0010
1000
0000
0010
0000
0001
0000
1000
0000
0010
0000
,
1000
0010
0100
0000
1000
0001
0100
0000
,
0001
0010
0001
0000
1000
0010
1000
0000
0100
0010
1000
0100
0001
0010
1000
0100
,
0001
0000
1000
0000
0010
0000
0000
0000
1000
0000
0001
0000
0010
0001
0000
1000
,
0000
0000
0010
0000
0000
0000
0000
0000
1000
0100
0001
0000
0010
0000
0100
0000
1000
0000
0000
0000
0000
0000
0000
0000
0000
0000
0000
0000
0000
0000
0000
0000
;
