#TITLE:OUT LAW - Reborn;
#ARTIST:CROOVE Remixed by Mr.Funky;
#GENRE:Nu Skool Breakz;
#MUSIC:OUT LAW - Reborn.ogg;
#BANNER:OUT LAW - Reborn.png;
#BACKGROUND:OUT LAW - Reborn-bg.png;
#CDTITLE:./CDTitles/DJMAX Portable 3.png;
#SAMPLESTART:51.808;
#SAMPLELENGTH:15;
#SELECTABLE:YES;
#OFFSET:-0.108;
#BPMS:0=130;
#STOPS:181=0.923
,187=0.462
,194.5=0.923;
#BGCHANGES:0.000=OUT LAW - Reborn.mp4=1.000=0=0=0=StretchNoLoop====,
99999.000=-nosongbg-=1.000=0=0=0=StretchNoLoop====;
#BGSTAGE:4;

//--------------- dance-single - XLev450X-bSP ----------------
#NOTES:
     dance-single:
     XLev450X:
     Beginner:
     4:
     0,0,0,0,0:
0000
0000
0000
0000
,
0000
0000
0000
0000
,
0000
0000
0000
0000
,
0000
0000
0000
0000
,
1000
1000
1000
0000
,
0001
0001
0001
0000
,
0010
0100
0010
0000
,
0001
0010
0001
0000
,
1000
0010
0100
0000
,
0001
0100
0001
0000
,
1000
0010
0100
0000
,
0010
0100
1001
0000
,
0001
1000
0010
1000
,
0010
0100
0001
1000
,
0010
0100
0001
1000
,
0010
0100
1000
0001
,
0100
0010
1000
0000
,
0001
0100
0010
0000
,
1000
0001
0100
0010
,
0100
0000
0001
0001
,
1000
0010
0100
0000
,
0001
1000
0010
0000
,
1000
0001
0100
0000
,
0010
0100
0001
1000
,
0010
1000
0001
0000
,
0100
0010
1000
0000
,
0010
0100
0001
0000
,
1000
0001
0100
0010
,
1000
0000
0001
1000
,
0010
0000
0100
0001
,
1000
0000
1000
0010
,
0100
0000
0001
1000
,
0010
0000
0100
0001
,
1000
0000
1000
0010
,
0100
0000
0100
0100
,
0001
0000
1000
0001
,
0010
0000
0000
0000
,
0000
0000
0000
0000
,
0000
0000
0000
0000
,
0000
0000
0000
0000
,
1000
1000
1000
0000
,
0001
0100
0010
0000
,
1000
0001
0010
0000
,
1001
0000
0000
0000
,
1000
0001
0100
0000
,
0010
0100
1000
0001
,
0100
0010
1000
0001
,
0000
0001
1000
0010
,
0100
0001
0010
1000
,
0001
0100
0010
0001
,
0001
1000
0010
1001
,
0000
0000
0000
0001
,
0001
0001
0000
1000
,
1000
1000
0000
0010
,
1000
0001
0100
0010
,
0100
0001
0000
1000
,
0001
0100
0010
1000
,
0001
0100
0010
1000
,
0001
0100
0001
1000
,
0010
0100
1001
0000
;

//--------------- dance-single - XLev450X-BSP ----------------
#NOTES:
     dance-single:
     XLev450X:
     Easy:
     7:
     0,0,0,0,0:
0000
0000
0000
0000
,
0000
0000
0000
0000
,
0000
0000
0000
0000
,
0000
0000
0000
0000
,
0001
1000
0010
0000
0100
0000
0001
0000
,
1000
0010
1000
0000
0001
0000
0010
0000
,
0100
0001
0100
0000
1000
0010
1000
0000
,
0001
0100
0010
1000
,
0001
1000
0010
0000
0001
0000
1000
0000
,
0010
0000
0100
0000
1000
0001
0100
0000
,
0010
1000
0001
0100
,
0010
1000
0001
0000
2002
0000
0000
3003
,
0100
0001
0100
0010
,
1000
0000
0001
0000
0010
0001
0010
0000
,
1000
0000
0001
0000
1000
0010
1000
0000
,
0100
0001
1000
0001
,
0010
0001
1000
0000
0010
0100
1000
0000
,
0010
0100
0001
0000
1000
0000
0010
0000
,
0100
0001
1000
0000
0010
0000
0100
0000
,
2002
0000
0000
3003
1000
0000
0001
0000
,
0010
0001
0010
0000
1000
0000
0010
0000
,
0100
0001
0100
0000
1000
0000
0001
0000
,
1000
0010
0100
0000
0001
0000
1000
0000
,
0010
0000
1000
0000
0100
0000
0001
0001
,
1000
0000
0010
0000
0100
0001
1000
0000
,
0010
0000
1000
0000
0001
0100
0010
0000
,
1000
0010
1000
0001
,
0100
0000
0010
0000
2002
0000
0000
3003
,
1000
0000
0001
0000
1000
0010
0100
0000
,
0001
0000
0010
0000
0001
0010
0001
0000
,
1000
0000
0010
0000
0100
0001
1000
0000
,
0010
0000
1000
0000
0100
0000
1000
1000
,
0010
0000
0100
0000
1000
0100
1000
0000
,
0010
0000
0100
0000
0100
0001
0100
0000
,
1000
0000
0001
0000
0100
0010
1000
0000
,
0001
0000
0100
0000
0010
0000
1001
1001
,
0220
0000
0000
0000
0000
0000
0000
0330
,
2002
0000
0000
0000
0000
0000
0000
3003
,
2200
0000
0000
0000
0000
0000
0000
3300
,
0022
0000
0000
0000
0000
0000
0000
0033
,
1000
0000
0001
0000
0100
0010
0001
0000
,
1000
0000
0010
0000
0100
0010
1000
0001
,
0100
0010
1000
0100
,
2002
0000
0000
0000
0000
3003
0001
0001
,
1000
0001
1000
0010
,
0100
0001
0020
0000
1030
0000
0001
0000
,
0100
0000
0010
0000
1000
0001
0200
0000
,
0310
0010
1000
0001
0100
0000
0010
0000
,
1000
0000
0001
0100
0010
1000
0010
0000
,
1000
0000
0001
0000
0100
0000
0001
1000
,
0010
0000
0100
0001
1000
0010
0200
0000
,
0000
0000
0000
0000
0000
0000
0000
0000
0000
0000
0000
0000
1300
0000
0000
0001
,
0000
0000
0100
0000
0000
0010
0000
0000
1000
0000
0000
0000
0001
0000
0000
0100
,
0000
0000
0010
0000
0000
1000
0000
0000
0001
0000
0000
0000
0100
0000
0000
0010
,
0000
0000
1000
0000
0000
0001
0000
0000
0100
0000
0000
0000
0010
0000
0000
1000
,
0000
0000
0100
0000
2002
0000
0000
0000
0000
0000
3003
0000
0001
0000
0000
1000
,
0000
0000
0001
0000
0000
0100
0000
0000
0010
0000
1000
0000
0001
0000
0000
0100
,
0000
0000
0010
0000
0000
1000
0000
0000
0001
0000
0100
0000
0010
0000
0000
1000
,
0000
0001
0000
0100
0010
0000
1000
0001
,
0100
0010
1000
0100
2002
0000
0000
0000
,
0000
0000
0000
0000
,
3003
0000
0000
0000
;

//--------------- dance-single - XLev450X-DSP ----------------
#NOTES:
     dance-single:
     XLev450X:
     Medium:
     12:
     0,0,0,0,0:
0000
0000
0000
0000
,
0000
0000
0000
0000
,
0000
0000
0000
0000
,
0000
0000
0000
0000
,
1000
0001
0100
0000
0010
0001
0010
0000
,
1000
0001
0100
0000
0010
0001
1000
0000
,
0010
1000
0001
0100
0010
1000
0001
0000
,
0010
0001
1000
0000
0010
0100
0001
0001
,
1000
0010
0000
0000
1000
0001
0100
0000
,
1000
0000
0001
0000
0100
0010
1000
0000
,
0101
0000
1010
0000
0010
0100
0001
0000
,
1000
0000
0010
0000
0100
0000
0000
0000
0001
0000
1000
0000
0010
0000
1000
0001
,
1000
0001
1000
0000
0010
0000
0100
0000
,
0010
0001
0010
0000
1000
0010
0100
0000
,
0001
0000
1000
0000
0010
0100
0001
0000
,
0100
0010
1000
0000
0001
0000
0100
0000
,
0001
1000
0010
0100
0001
1000
0001
0000
,
1000
0000
0001
0000
0100
0010
0100
0001
,
1001
0000
0010
0100
0001
1000
0010
0000
,
0100
0001
0001
0001
1000
0010
0100
0000
,
0001
0000
1000
0000
0010
0000
0000
1000
0000
0000
0001
0000
0100
0000
0000
0000
,
0001
0000
1000
0000
0010
0000
0000
0100
0000
0000
0001
0000
0010
0000
0000
0000
,
1000
0000
0001
0000
0100
0000
0000
0010
0000
0000
1000
0000
0001
0000
0000
0000
,
1000
0000
0001
0000
0100
0000
0000
0000
0010
0000
0001
0000
1000
0001
1000
0001
,
0100
0000
0010
0000
1000
0000
0000
0001
0000
0000
0100
0000
0010
0000
0000
0000
,
1000
0000
0001
0000
0100
0000
0000
0010
0000
0000
1000
0000
0001
0000
0000
0000
,
0100
0000
1000
0000
0010
0000
0000
0100
0000
0000
0001
0000
1000
0000
0000
0000
,
0001
0000
0100
0000
0010
0000
1000
0000
0001
0100
0001
0000
1000
0010
1000
0000
,
0001
0000
0000
1000
0000
0000
0001
0000
0000
0100
0000
0000
0010
0000
1000
0000
,
0001
0000
0000
0100
0000
0000
0010
0000
0000
1000
0000
0000
0001
0000
0100
0000
,
0010
0000
0000
1000
0000
0000
0001
0000
0000
0010
0000
0000
1000
0000
0001
0000
,
0100
0000
0000
0010
0000
0000
1000
0000
0000
0001
0000
0000
0100
0000
0001
0000
,
1000
0000
0000
0010
0000
0000
1000
0000
0000
0001
0000
0000
0100
0000
0010
0000
,
1000
0000
0000
0001
0000
0000
1000
0000
0000
0010
0000
0000
0100
0000
0001
0000
,
1000
0000
0000
0001
0000
0000
1000
0000
0000
0010
0000
0000
0100
0000
0001
0000
,
1000
0000
0000
0001
0000
0000
0100
0000
0000
0010
0000
0000
1000
0000
0001
0000
,
0100
0010
1000
0001
,
1000
0000
0010
0000
0100
0001
0100
0000
,
0010
1000
0001
0100
,
0010
0000
1000
0000
0100
0001
0100
0000
,
0010
0000
1000
0000
0001
0100
0001
0000
,
1000
0000
0010
0000
1000
0001
0100
0000
,
0010
1000
0010
0000
0100
0001
1000
0100
,
0001
1000
0001
0000
0100
0010
0000
0100
0010
0000
0001
0000
1000
0000
1000
0000
,
1000
0000
0001
0000
1000
0000
0000
0010
0000
0000
0100
0000
0001
0000
1000
0000
,
0010
0000
0100
0000
0002
0000
0000
0000
1003
0000
0001
0000
0100
0000
0000
0010
,
0000
1000
0001
0100
0001
0010
2000
0000
,
3001
0000
0001
0000
0100
0000
1000
0000
0001
0000
0000
0010
0000
0000
1000
0000
,
0001
0000
0100
0010
1001
1001
0010
0100
,
0001
0000
0000
1000
0000
0000
0010
0000
0100
0000
0000
0000
0001
0000
0010
1000
,
0000
0100
0000
0010
0001
0000
1000
0000
0001
0100
0001
1000
0020
0000
0000
0000
,
0000
0000
0000
0000
0000
0000
0000
0000
0000
0000
0000
0000
0031
0000
0000
1000
,
0000
0000
0010
0000
0000
0100
0000
0000
0001
0000
1000
0010
1000
0000
0000
0100
,
0000
0000
1000
0000
0000
0001
0000
0000
0100
0000
0010
0000
1000
0000
0000
0001
,
0000
0000
0100
0000
0000
0010
0000
0000
1000
0000
0001
0100
0001
0000
0000
1000
,
0000
0000
0010
0000
0001
0010
0001
0000
0010
1000
0010
0000
0100
0000
0010
0000
,
1000
0000
0001
0000
0100
0000
0010
0000
1000
0010
1000
0010
0001
0000
1000
0000
,
0010
0000
0100
0000
0001
0000
1000
0000
0001
0100
0001
0100
1000
0000
0010
0000
,
1000
0000
0001
0000
0100
0000
0010
0000
1000
0000
0001
0000
0010
1000
0010
1000
,
0001
0010
0000
0100
0000
1000
0010
0000
2002
0000
0000
0000
0000
0000
0000
0000
,
0000
0000
0000
0000
,
3003
0000
0000
0000
;

//--------------- dance-single - XLev450X-ESP ----------------
#NOTES:
     dance-single:
     XLev450X:
     Hard:
     16:
     0,0,0,0,0:
0000
0000
0000
0000
,
0000
0000
0000
0000
,
0000
0000
0000
0000
,
0000
0000
0000
0000
,
1000
0000
0001
0100
0000
0010
0000
0000
1000
0000
0001
1000
0000
0100
0000
0000
,
0001
0010
0001
0010
1000
0000
0010
0100
0001
0000
1000
0010
0000
0100
0000
0000
,
0001
1000
0010
0100
0001
0000
1000
0001
0010
0000
0100
0001
0000
1000
0000
0000
,
0001
0100
0010
1000
0001
0000
0100
1000
0010
0000
1000
0001
1000
0000
0001
0000
,
1000
0001
0010
1000
0100
0000
0001
0000
1000
0100
0010
0100
0010
0000
0001
1000
,
0010
1000
0001
0100
1000
0001
0010
1000
0100
0010
0001
1000
0000
0010
0100
0001
,
1000
0010
0100
0001
0100
0000
1000
0001
0010
1000
0100
0001
0010
0000
1000
0001
,
0010
0000
0100
1000
0001
1000
0000
0010
0000
0100
0000
0001
0000
1000
0001
1000
,
0001
0100
1000
0100
0001
0000
0100
0010
0000
0000
1000
0000
0001
0100
0000
0000
,
0001
1000
0001
0000
0100
0000
0001
0100
1000
0000
0010
0100
0000
0001
0000
0100
,
1000
0000
0010
0000
0100
0001
1000
0000
0010
0000
0100
0000
0001
1000
0000
0010
,
0001
0010
0001
0000
1000
0000
0010
0000
0100
0000
0001
1000
0000
0010
0000
0000
,
0001
0100
1000
0000
0010
0000
0100
0000
1000
0010
1000
0000
0001
0100
0001
0000
,
0010
1000
0010
0000
0100
0001
1000
0000
0010
0000
0100
1000
0001
0000
1000
0010
,
0200
0000
0300
0000
0001
0100
1000
0000
0010
0000
0100
0000
0001
1000
0020
0000
,
0030
0000
0001
0000
1000
0000
0001
0000
0100
0001
0100
0000
1000
0000
0010
0000
,
0100
0000
0001
0000
1000
0000
0100
0010
0000
0100
0010
0000
1000
0000
0010
0000
,
0100
0000
0001
0000
1000
0000
0010
1000
0000
0001
0100
0000
0010
0000
1000
0000
,
0001
0000
0100
0000
0010
0000
1000
0001
0000
0100
0010
0000
2000
0000
3000
0000
,
0001
0000
0100
0001
0000
1000
0000
0100
0010
0000
0100
0000
0001
1000
0001
1000
,
0010
0000
0100
0000
0001
0000
1000
0010
0000
0100
0001
0000
1000
0000
0010
0000
,
0100
0000
0001
0000
1000
0000
0001
0100
0000
0001
0100
0000
1000
0000
0010
0000
,
0100
0000
0001
0000
0100
0000
1000
0010
0000
0001
1000
0000
0020
0000
0030
0000
,
1000
0001
0000
0100
0000
0010
0000
1000
0001
0010
0100
0010
1000
0001
0100
1000
,
0001
0000
1000
0010
0000
0100
0001
0000
0010
0000
1000
0010
0000
0100
0001
0000
,
0010
0000
1000
0001
0000
0100
0001
0000
1000
0000
0010
0100
0001
0000
1000
0000
,
0010
0000
0100
0001
0000
0100
0001
0000
1000
0000
0010
1000
0000
0010
1000
0000
,
0001
0000
0100
0010
0000
1000
0001
0100
0010
0000
1000
0000
0101
0000
0101
0000
,
1000
0000
0010
1000
0000
0010
1000
0000
0001
0000
0100
0001
0000
0100
0001
0000
,
1000
0000
0000
0010
0000
0000
1000
0000
0000
0001
0000
0000
0100
0000
0010
0000
,
1000
0000
0001
0100
0000
0010
1000
0000
0001
0000
0100
0010
0000
1000
0001
0000
,
0100
0000
0000
0001
0000
0000
1000
0000
0000
0010
0000
0000
0001
0000
0100
0000
,
1000
0001
1000
0100
0001
0000
0010
0001
1000
0000
0100
0001
0010
0000
1000
0001
,
0100
0000
0001
0000
1000
0000
0010
0100
0001
0000
1000
0000
0010
0000
0100
0001
,
1000
0100
0010
0001
0100
0000
0001
0010
0001
0100
1000
0001
0010
0000
0100
0001
,
1000
0000
0010
0100
0001
0000
1000
0010
0100
0001
0100
0000
1000
0000
0001
1000
,
0010
0000
0100
0000
0001
0000
1000
0000
0010
0100
0001
1000
0100
0000
0010
1000
,
0001
0000
1000
0010
0000
0100
0000
0001
0000
1000
0100
0001
0010
0000
0100
0010
,
0100
0000
0001
0100
0010
0000
1000
0001
0000
0100
0001
1000
0001
0000
0100
0000
,
0001
0010
1000
0001
0010
0100
0001
1000
0000
1000
0001
0010
0100
0000
1000
0000
,
0001
0000
1000
0000
0010
0000
0100
0001
0000
0010
1000
0000
0001
0000
0100
0001
,
1000
0000
0010
0000
2002
0000
3003
0000
1000
0000
0001
0000
0100
0000
0010
1000
,
0000
0001
0100
0000
0010
0000
1000
0000
0001
0100
0010
1000
0002
0000
0003
0000
,
1001
0000
1001
0000
0010
0000
0100
0000
0001
0000
1000
0001
0000
0010
0100
0000
,
1000
0010
0100
0001
0010
0100
1000
0001
,
0100
0000
1000
0001
0000
0010
0100
0000
0001
0000
1000
0000
0001
0000
0100
0001
,
0000
1000
0000
0010
0000
0100
0000
1000
0010
0001
0100
1000
0200
0000
0000
0000
,
0000
0000
0000
0000
0000
0000
0000
0000
0000
0000
0000
0000
0310
0000
0001
0100
,
0000
0010
0000
1000
0000
0100
1000
0000
0001
0000
0000
0000
0010
0000
0100
1000
,
0000
0100
0000
0010
0000
0001
0100
0000
1000
0000
0000
0000
0100
0000
0010
1000
,
0000
0010
0000
0001
0000
0010
0100
0000
0001
0000
0000
0000
0010
0000
0100
1000
,
0000
0010
0000
0100
0000
0000
0101
0000
1000
0020
0030
0000
0010
0100
0001
1000
,
0001
0010
0100
1000
0100
1000
0001
1000
0010
0100
0001
0010
0100
1000
0010
1000
,
0001
0100
0010
1000
0100
0010
0001
0010
0001
1000
0010
0100
0010
1000
0001
0010
,
0100
1000
0100
0010
0100
1000
0010
0100
0010
1000
0010
1000
0001
1000
0001
0100
,
0010
1000
0010
1000
0001
0010
0100
0010
2002
0000
0000
0000
0000
0000
0000
0000
,
0000
0000
0000
0000
,
3003
0000
0000
0000
;
