#TITLE:Nowhere;
#ARTIST:Nhato;
#GENRE:ELECTRO TRANCE;
#MUSIC:Nowhere.ogg;
#BANNER:Nowhere.png;
#BACKGROUND:Nowhere-bg.png;
#CDTITLE:./CDTitles/bm IIDX 23 Copula.png;
#SAMPLESTART:2.611;
#SAMPLELENGTH:15;
#SELECTABLE:YES;
#OFFSET:-0.076;
#BPMS:0=140;
#BGSTAGE:15;
#BGCHANGES:2.000=Nowhere.mp4=1.000=0=0=0=StretchNoLoop====,
99999.000=-nosongbg-=1.000=0=0=0=StretchNoLoop====
;

//--------------- dance-single - XLev450X-bSP ----------------
#NOTES:
     dance-single:
     XLev450X:
     Beginner:
     4:
     0,0,0,0,0:
0000
0000
0000
0000
,
0000
0000
0000
0000
,
0000
0000
0000
0000
,
0000
0000
0000
0000
,
0000
0000
0000
0000
,
0000
0000
1000
0000
,
1000
0000
1000
0000
,
0000
0000
0001
0000
,
1000
0000
0001
0000
,
0000
0000
0010
0000
,
0000
0000
0100
0000
,
0000
0000
0001
0000
,
0000
0000
1000
0000
,
0000
0000
0001
0001
,
1000
1000
0010
0010
,
0100
0100
0000
0000
,
0000
0000
0000
0000
,
0000
0000
0001
1000
,
0001
0000
1000
0010
,
1000
0000
0101
0000
,
1010
0000
1001
0000
,
0000
0000
0001
1000
,
0010
0000
0100
0001
,
1000
0000
0001
0000
,
1000
0000
0001
0000
,
1000
0000
0010
1000
,
0010
0000
0100
0001
,
0100
0000
0001
0000
,
1000
0000
0010
0100
,
0010
0000
0010
1000
,
0001
0000
0100
0010
,
1000
0000
0001
0100
,
0010
1000
0010
0000
,
0000
0000
1001
0000
,
0000
0000
0000
0000
,
0000
0000
0000
0000
,
0000
0000
0000
0000
,
0000
0000
1000
0010
,
1000
0000
0100
0100
,
0100
0000
0010
0001
,
0010
0000
0010
0010
,
0010
0000
1000
0000
,
0001
0000
0100
0000
,
0000
0000
0010
0000
,
1000
0000
0010
0000
,
0000
0000
0001
1000
,
0010
0000
0100
1000
,
0001
0000
0011
0000
,
1100
0000
0110
0000
,
1001
0000
0010
0000
,
0000
0000
0000
0000
,
0000
0000
0001
1000
,
0001
0000
1000
0010
,
1000
0000
0100
0010
,
1000
0001
0100
0010
,
1000
0000
0001
0000
,
1000
0010
0100
0000
,
0001
0010
0001
0000
,
0000
0000
1000
0000
,
0010
0000
1000
0100
,
0010
0000
0001
1000
,
0010
0000
0001
1000
,
0001
0000
0100
0001
,
1000
0000
1000
0000
,
0010
1000
0010
0000
,
0100
0000
0001
1000
,
0001
0100
0010
1000
,
0010
0100
1001
0000
;

//--------------- dance-single - XLev450X-BSP ----------------
#NOTES:
     dance-single:
     XLev450X:
     Easy:
     8:
     0,0,0,0,0:
0000
0000
0000
0000
,
0000
0000
0000
0000
,
0000
0000
0000
0000
,
0000
0000
0000
0000
,
0000
0000
0000
0000
,
0000
0000
1000
0001
,
0100
0010
0001
1000
,
0010
0100
0010
0000
0011
0000
1100
0000
,
0010
0100
0010
0000
1001
0000
0000
0000
,
0000
0000
0110
0000
0001
0000
1000
0001
,
0000
0000
0100
0000
0010
0000
0100
0010
,
0000
0000
1000
0000
0010
0000
1000
0010
,
0000
0100
0001
0100
,
0001
0000
0001
1000
,
0001
0010
1000
0001
,
0100
0010
1000
0000
0101
0000
0000
0000
,
1010
0000
0010
0100
,
0010
0000
0001
1000
,
0001
0100
0010
1000
,
0001
0100
0001
0000
1000
0000
0000
0000
,
0010
0100
0010
0000
,
0011
0000
1001
0010
,
0100
0001
1000
0000
,
1000
0001
0100
0010
,
0100
0010
0001
1000
,
0010
0000
0001
0000
2001
3000
0100
0000
,
0010
0100
0010
0000
0001
0000
1000
0000
,
0010
0001
0010
0000
1000
0000
0101
0000
,
0010
1010
0100
0110
,
0001
1000
0001
1000
,
0010
0100
0010
0000
0001
0000
1000
0000
,
0010
0001
0010
0000
1000
0000
0001
0000
,
0100
0001
1000
0000
0202
0000
0000
0000
,
0303
1000
0001
0000
2020
0000
3030
0000
,
0000
0000
0000
0000
,
0000
0000
0000
0000
,
0000
0000
0000
0000
,
0000
0000
1000
0001
,
0100
0010
1000
0001
,
0100
0000
1000
0010
,
0100
0001
1000
0010
,
0101
0000
1000
0001
,
0100
0010
0001
0000
1000
0000
0010
0000
,
0100
0000
1000
0010
,
0100
0010
0100
0000
0001
0000
1000
0000
,
0001
0000
1000
0001
,
0100
0000
0010
0000
1000
0010
1000
0000
,
0100
0001
0100
0000
0010
0000
1000
0000
,
0001
0100
0010
0000
1001
0000
0000
0000
,
0000
0000
0110
0000
,
0000
0000
0000
0000
,
0000
0000
1000
0001
,
0100
0010
1000
0001
,
0100
0010
0100
0000
1000
0000
0001
0000
,
1100
0001
0101
0010
,
1000
0000
0000
0010
0000
0000
0100
0000
0001
0000
0000
0000
1000
0000
0000
0000
,
0001
0000
1000
0000
0010
0100
0010
0000
,
0001
1000
0110
0000
,
0001
0000
0000
0000
1000
0010
1000
0000
,
0000
0100
0010
0000
,
0001
1000
0010
0000
,
0100
0000
1000
0000
0010
0001
0010
0000
,
1000
0100
1000
0000
0010
0000
0100
0000
,
0010
0000
0001
1000
,
0101
0000
1000
0010
,
1010
0000
0010
0000
,
0100
0000
0000
0000
0001
1000
0001
0200
,
0000
0000
0300
0000
;

//--------------- dance-single - XLev450X-DSP ----------------
#NOTES:
     dance-single:
     XLev450X:
     Medium:
     10:
     0,0,0,0,0:
0000
0000
0000
0000
,
0000
0000
0000
0000
,
0000
0000
0000
0000
,
0000
0000
0000
0000
,
0000
0000
0000
0000
,
0000
0000
1000
0001
,
0100
0000
0010
0000
0001
0010
0001
0000
,
1000
0010
1000
0000
0100
0000
0010
0000
,
1000
0010
0100
0000
2002
0000
0000
0000
,
3003
0110
0001
1000
,
0000
0000
0010
0000
0100
0000
0001
1000
,
0000
0000
0010
0000
0010
0000
0001
1000
,
0000
0010
0100
0001
,
1000
0001
0100
0000
0011
0000
1100
0000
,
0110
0000
1001
0000
0001
1000
0010
0100
,
0001
1000
0010
0000
0200
0000
0000
0000
,
0310
0000
0000
0000
0001
0000
0010
1000
,
0010
0000
0101
1010
,
0010
0100
0001
1000
0010
0000
0100
0000
,
0010
0001
0010
0000
1100
0000
0011
0000
,
0110
0001
1000
0000
0010
0100
1000
0001
,
0100
0000
0000
0001
0000
0000
1000
0000
0010
0000
0000
0000
1000
0000
0000
0000
,
0001
0010
0001
0000
1000
0000
0100
0000
,
0010
0000
1000
0001
,
0100
0010
0101
0000
,
1000
0000
0010
1000
,
0010
0001
0010
0000
1000
0001
0100
0000
,
0010
1000
0001
1000
,
0001
0000
0100
0010
,
1000
0001
0100
0000
,
0001
0000
1000
0000
0010
0001
0010
0000
,
1000
0100
1000
0000
0010
0000
0100
0000
,
0001
1000
0010
0100
0020
0000
0000
0000
,
0030
0000
0000
0000
1001
0000
0000
0000
0010
0000
0000
1000
0000
0000
0000
0000
,
0001
0100
0000
0000
0010
0000
0000
0000
0100
0000
0000
1000
0000
0000
0000
0000
,
0010
0100
0000
0000
0010
0000
0000
0000
0001
0000
0000
0100
0000
0000
0000
0001
,
1000
0000
0000
0000
0100
0000
0010
0000
0001
0000
0000
1000
0000
0000
0000
0100
,
0001
0010
0001
0000
0010
0000
0100
0000
,
0010
0001
1000
0001
,
0200
0300
0010
0001
,
1000
0001
0100
0010
,
2000
0000
3000
0000
0001
0100
1000
0000
,
0010
0001
0010
1000
0100
0010
0010
0000
,
0100
1000
0100
0000
0010
0100
0001
1000
,
0000
0010
0100
0000
0001
0000
1000
0000
,
0001
0100
0010
0000
0101
0000
1010
0000
,
0110
0000
0001
1000
,
0010
0000
1000
0001
,
0100
0001
1000
0000
0010
0000
0100
0000
,
0001
1000
0010
0100
0002
0000
0000
0000
,
0003
0000
2002
0000
,
0000
3003
1000
0001
,
0100
0000
0000
0001
0000
0000
1000
0000
0010
0000
0000
0000
1000
0000
0000
0000
,
0001
0000
0000
0100
0000
0000
0010
0000
1000
0000
0001
0000
0100
0000
0000
0000
,
0010
0001
1000
0000
0010
0100
1000
0001
,
0100
0000
0000
0001
0000
0000
1000
0000
0010
0000
0000
0000
0100
0000
0001
0000
,
1000
0001
0000
0100
0000
0000
0010
0000
0001
0000
0000
0000
1000
0000
0000
0001
,
0000
0000
0100
0010
0100
0000
0010
0000
1000
0000
0000
0000
0000
0000
0000
0000
,
0001
0000
0000
0000
0010
0001
0100
0020
,
0030
1000
0020
0030
0001
0000
1000
0000
,
0010
0001
0100
0000
0010
1000
0001
0100
,
0010
1001
0001
0100
,
0010
1000
0010
0000
0011
0000
1100
0000
,
0010
0100
0010
0000
0001
0000
1000
0000
,
0001
0000
1000
0000
1000
0010
1000
0000
,
0100
0001
0100
0000
2002
0000
0000
0000
,
0000
0000
3003
0000
0100
0010
0100
0020
,
0000
0000
0030
0000
;

//--------------- dance-single - XLev450X-ESP ----------------
#NOTES:
     dance-single:
     XLev450X:
     Hard:
     15:
     0,0,0,0,0:
0000
0000
0000
0000
,
0000
0000
0000
0000
,
0000
0000
0000
0000
,
0000
0000
0000
0000
,
0000
0000
0000
0000
,
0000
0000
0000
0000
0000
0000
0000
0000
0010
0001
0010
0000
1000
0000
0010
0000
,
0100
0000
1001
0000
0010
1000
0001
0100
,
0010
0000
1000
0000
0001
0000
0000
0000
0100
0001
0100
0000
1000
0010
1000
0000
,
0010
0100
0010
0000
0001
1000
0001
0000
2002
0000
0000
0000
0000
0000
0000
0000
,
3003
0000
0110
0000
0001
0000
1000
0001
,
0000
0100
0000
0000
0010
0000
0000
0000
1000
0000
0000
0000
0001
0000
0100
0000
,
0000
0010
0000
0000
1000
0000
0000
0000
0001
0000
0000
0000
0100
0000
0010
0000
,
0000
1000
0000
0000
0001
0000
0000
0000
0010
0000
0000
0000
0001
0000
0010
0000
,
1000
0001
0100
0000
0010
0001
1000
0000
,
0100
0001
1000
0000
0100
0010
0001
0100
,
0010
0000
1000
0000
0010
0000
0000
0000
1000
0001
0100
0000
0000
0000
0010
0000
,
0000
0000
0000
1000
0000
0000
0000
0000
0010
0000
1000
0000
0001
0000
0100
0000
,
0000
0000
1100
0000
0101
0000
0010
1000
,
0001
0100
0010
0001
2000
0000
3100
0000
0010
0000
0000
0100
0000
1000
0010
0000
,
0001
0010
0001
0000
1000
0000
0000
0000
0101
0000
0000
1010
0000
0001
0010
1000
,
0100
0000
0000
1001
0000
0010
0100
0001
0010
0000
0000
1000
0000
0010
1000
0010
,
0101
0000
0000
1010
0000
0000
0110
0000
0002
0000
0003
0000
0010
0000
0100
0000
,
0010
0001
0010
0100
1000
0000
0010
0000
0100
0010
0100
1000
0000
0001
0000
0100
,
0000
0010
1000
0000
0001
0000
1000
0000
0100
0000
0000
0001
0000
0000
1000
0000
,
0010
0001
0010
0000
1000
0000
0001
0000
0100
0000
1000
0000
0001
0000
1000
0000
,
0001
0100
1000
0001
0010
0000
1000
0000
0200
0000
0300
0000
1000
0000
0100
0000
,
0001
1000
0100
0001
0010
0000
0100
0000
1000
0000
0000
0001
0000
1000
0000
0010
,
0000
0100
0001
0000
1000
0000
0000
0000
0011
0000
0000
1000
0000
0010
0100
0010
,
1000
0000
0000
0001
0000
0100
0001
1000
0001
0000
0100
0000
0000
0010
1000
0001
,
0100
0000
0000
1001
0000
0000
0110
0000
0001
0100
0001
0000
1000
0000
0100
0000
,
0010
0100
0010
0000
0010
0000
1000
0000
0001
0010
0000
0100
0000
1000
0010
0100
,
0001
0010
1000
0100
0001
0000
1000
0000
0101
0000
0000
0000
1010
0000
0000
0000
,
0010
0100
0010
0000
1000
0000
0100
0000
0001
0000
1000
0000
0010
0000
0100
0000
,
0000
0000
0010
0000
1000
0000
0000
0000
0100
0000
0000
0020
0000
0030
0000
0000
,
1000
0100
0001
0000
1000
0000
0000
0000
0010
0000
0000
0200
0000
0300
0000
0000
,
0010
0001
0100
0000
1000
0000
0001
0000
0010
0000
0000
0200
0000
0300
0000
0000
,
0100
0001
1000
0000
0010
0000
0000
0000
1000
0001
0000
0100
0000
0000
0010
0000
,
1000
0000
0100
0000
0001
0000
0000
0000
0100
0000
0000
0001
0000
0000
1000
0000
,
0001
0000
0000
0000
0100
0000
0000
0000
1000
0000
0000
0010
0000
0000
0100
0000
,
1000
0000
0001
0000
0010
0000
0000
0000
0100
0000
0000
0001
0000
0000
1000
0000
,
0001
0000
0000
0000
0100
0000
0000
0000
0010
0000
0000
1000
0000
0000
0010
0000
,
0100
0001
1000
0000
0010
0000
1000
0001
,
0100
0000
0010
0000
1000
0000
0010
0100
,
0010
0000
0000
0000
1000
0001
0000
0100
0001
0000
1000
0000
0010
0000
0000
0100
,
0000
0000
0001
0000
1000
0010
0100
0010
,
0001
1000
0001
0000
0010
0000
0000
0000
0100
0000
0000
0000
0010
0000
0000
0000
,
0001
0010
0100
0010
,
0100
0000
1000
0000
0010
0100
0001
0100
,
0010
0000
1000
0000
0100
0000
1000
0000
0100
1000
0010
0100
0001
0100
0010
1000
,
0100
1000
0010
1000
0100
0010
0100
1000
0020
0000
0000
0000
0000
0000
0000
0000
,
0000
0000
0000
0000
0000
0000
0000
0030
,
0000
0000
1001
0000
0010
0000
0100
0001
,
1000
0000
0000
0010
0000
0000
0100
0000
0001
0010
0100
0010
1000
0000
0010
0000
,
0100
0000
0000
0000
0000
0000
0001
0000
0000
0000
0000
0000
1000
0000
0000
0000
0101
0000
0000
0000
0000
0000
1010
0000
0000
0000
0001
0000
0010
0100
1000
0000
,
0100
0000
0000
0000
0000
0000
1001
0000
0000
0000
0010
0000
0100
0000
0001
1000
0010
0000
0000
0000
0000
0000
1000
0000
0000
0000
0010
0000
1000
0001
0010
0000
,
1100
0000
0000
1010
0000
0000
0110
0000
0002
0000
0003
0000
1000
0000
0010
0000
,
0100
0000
0000
1000
0000
0000
0010
0000
0001
0000
0010
0001
0010
0000
1000
0000
,
0010
0000
0000
0100
0001
0000
0010
0000
2000
0000
0000
0000
0000
0000
0000
0000
,
0001
0000
3100
0000
0010
0001
1000
0200
,
0000
0300
1001
0000
0010
0000
0100
0001
,
1000
0000
0000
0000
0010
0000
1000
0000
0001
0000
0100
1000
0001
0000
1000
0100
,
0010
0000
0100
0001
1000
0000
0010
0000
0100
0000
1000
0010
1000
0000
0100
0000
,
0001
0000
0000
1000
0000
0000
0010
0000
0100
0000
0010
0001
0010
0000
1000
0000
,
0010
0000
1000
0010
0010
0100
0010
1000
,
0100
0000
0010
0000
0100
0000
1000
0000
0100
1000
0100
1000
0001
0100
0001
0010
,
0100
0010
0100
0010
0100
1000
0010
0100
0020
0000
0030
0000
1000
0000
0001
0000
,
0010
1000
0010
0000
0100
0000
0000
0000
0010
0000
1000
0000
0001
0000
0020
0000
,
0000
0000
0030
0000
;
