#TITLE:Need You Now (RGR-Special);
#SUBTITLE:;
#ARTIST:Lady Antebellum;
#TITLETRANSLIT:;
#SUBTITLETRANSLIT:;
#ARTISTTRANSLIT:;
#GENRE:;
#CREDIT:;
#MUSIC:Need You Now (RGR-Special).ogg;
#BANNER:Need You Now (RGR-Special).png;
#BACKGROUND:Need You Now (RGR-Special)-bg.png;
#CDTITLE:./CDTITLES/DanceDanceRevolution 2010.png;
#SAMPLESTART:39.478;
#SAMPLELENGTH:15.000;
#SELECTABLE:YES;
#OFFSET:2.165;
#BPMS:0.000=108.000;
#STOPS:;
#BGSTAGE:2;
#BGCHANGES:;
#FGCHANGES:;

//--------------- dance-single - XLev450X ----------------
#NOTES:
     dance-single:
     XLev450X:
     Challenge:
     13:
     0,0,0,0,0:
0000
0000
0000
0000
,
0000
0000
0000
0000
,
0000
0000
0000
0000
,
0000
0000
0000
0000
,
0000
0000
0000
0000
,
0100
0000
0010
0000
0001
0000
0010
0000
0001
0010
0100
1000
0101
0000
0000
0000
,
0001
0000
0100
0000
0001
0000
1000
0000
0001
0100
0010
1000
0011
0000
0000
0000
,
0100
1000
0001
1000
0010
1000
0010
0000
,
0010
1000
0001
1000
0010
1000
0001
0000
,
0001
0000
0010
0000
0100
0000
1000
0000
0010
0100
0001
1000
0101
0000
0000
0000
,
0001
0000
0100
0000
0001
0000
1000
0000
0100
0010
0001
0010
1100
0000
0000
0000
,
0001
1000
0010
1000
0100
0010
0100
0000
,
0100
1000
0010
0100
0001
1000
0100
0000
,
0001
0010
0100
0000
0100
1000
0001
0000
,
0010
0100
0001
0000
0001
1000
0010
0000
,
0100
1000
0100
0010
0100
0010
0001
0000
,
0010
0100
0001
0010
0001
1000
0100
0000
,
0001
0000
1000
0000
0100
0000
0000
0000
0001
0000
1000
0000
0010
1000
0001
1000
,
0202
0000
0000
0000
0000
0303
0010
1000
,
0001
0000
0100
0000
0010
0000
1000
0000
0100
0010
0000
1000
0100
0000
0010
0000
,
0001
0000
0100
0000
0010
0000
1000
0000
0001
0010
0000
1000
0010
0000
1000
0000
,
0100
0010
0100
0010
0100
1000
0001
0000
,
0100
1000
0001
0100
0010
1000
0001
0000
,
0010
0000
0100
0000
0001
0000
0010
0000
0001
0010
0000
1000
0001
0000
0100
0000
,
0010
0000
1000
0000
0001
0000
0100
0000
0010
0100
0000
1000
0010
0000
0100
0000
,
0001
1000
0100
0010
0001
1000
0010
0000
,
0010
1000
0010
1000
0100
0010
0001
0000
,
0100
0010
0001
0000
0010
1000
0001
0000
,
0010
0100
0001
0010
0001
1000
0001
0100
,
0020
0000
0000
0000
0000
0000
0000
0000
0000
0000
0030
0000
1000
0001
0010
1000
,
0001
1000
0010
1000
0100
1000
0100
0000
,
0001
1000
0001
0100
0010
1000
0100
0000
,
0010
0100
0001
1000
0010
0100
0001
0000
,
0100
0000
1000
0000
0001
0000
0100
0000
0010
0000
0100
0010
0001
0010
0100
1000
,
0001
0010
0100
1000
0001
0100
0001
0000
,
0100
0010
0001
0100
0010
1000
0010
0000
,
0010
0100
0001
0010
0100
1000
0100
0000
,
0001
0000
1000
0000
0010
0000
0100
0000
0001
0000
0010
0100
0001
1000
0100
0010
,
0100
1000
0100
0010
0001
1000
0100
0000
,
0001
0100
0010
1000
0100
0010
0001
0000
,
0001
0010
0100
1000
0010
0100
0001
0000
,
0010
0000
1000
0000
0001
0000
0010
0000
0100
0000
0001
0010
0100
1000
0001
0100
,
0010
1000
0100
1000
0001
0010
0100
0000
,
0010
1000
0100
0010
0001
1000
0010
0000
,
0001
0100
0010
1000
0001
0010
0001
0000
,
0100
0000
1000
0000
0001
0000
0100
0000
1000
0010
0001
0100
0010
1000
0001
0100
,
2002
0000
0000
0000
0000
0000
0000
3003
,
0100
0000
0000
0000
0001
0000
0000
0000
1000
0000
0000
0010
0000
0000
0010
0000
,
0220
0000
0000
0000
0000
0000
0000
0000
0000
0330
0000
0000
0000
0000
0000
0000
;
