#TITLE:NEX+AGE;
#ARTIST:BEMANI Sound Team "Yvya";
#ARTISTTRANSLIT:Yvya;
#MUSIC:NEX+AGE.ogg;
#BANNER:NEX+AGE.png;
#BACKGROUND:NEX+AGE-bg.png;
#CDTITLE:./CDTitles/GITADORA NEX+AGE.png;
#SAMPLESTART:69.97;
#SAMPLELENGTH:15;
#OFFSET:-0.070;
#BPMS:0=200;
#BGSTAGE:28;

//--------------- dance-single - XLev450X-bSP ----------------
#NOTES:
     dance-single:
     XLev450X:
     Beginner:
     4:
     0,0,0,0,0:
0000
0000
0000
0000
,
0000
0000
0000
0000
,
0000
0000
0000
0000
,
0000
0000
0000
0000
,
0000
0000
0000
0000
,
0000
0000
0000
0000
,
0000
0000
0000
0000
0000
1000
0000
0000
,
0000
1000
0000
0000
0000
1000
0000
0000
,
0000
0000
0000
0000
0000
0010
0000
0000
,
0000
0001
0000
0000
0000
1000
0000
0000
,
0000
0000
0000
0000
0000
0010
0000
1000
,
0000
0001
0000
0000
0000
0100
0000
0010
,
0000
1000
0000
0000
0000
0001
0000
0010
,
0000
0100
0000
0000
0000
0001
0000
1000
,
0000
0000
0000
0000
0000
1000
0000
0001
,
0000
1000
0000
0000
0000
0010
0000
1000
,
0000
0010
0000
0000
0000
0100
0000
0001
,
0000
0100
0000
0000
0000
0010
0000
1000
,
0000
0001
0100
0000
0000
0000
0000
1000
,
0000
0000
0000
0001
0000
0000
0000
0000
,
0000
0000
0000
1000
0000
0000
0000
0010
,
0000
0000
0000
0100
0000
0000
0000
0000
,
0000
0000
0000
0001
0000
0000
0000
1000
,
0000
0000
0000
0001
0000
0000
0000
0000
,
0000
0000
0000
1000
0000
0000
0000
0010
,
0000
0000
0000
0100
0000
0000
0000
0000
,
0000
0000
0000
0001
0000
0000
0000
1000
,
0000
0000
0000
0001
0000
0000
0000
0100
,
0000
0000
0000
0010
0000
0000
0000
0000
,
0000
0000
0000
1001
0000
0000
0000
0000
,
0000
0000
0000
1000
0000
0000
0000
0010
,
0000
0000
0000
1000
0000
0000
0000
0000
,
0000
0000
0000
0100
0000
0000
0000
0001
,
0000
0000
0000
0100
0000
0000
0000
0000
,
0000
0000
0000
1000
0000
0000
0000
0001
,
0000
1000
0000
0010
0000
0000
0000
0100
,
0000
0000
0000
0001
0000
0000
0000
0000
,
0000
0000
0000
1000
0000
0000
0000
0000
,
0000
0000
0000
1000
0000
0000
0000
0010
,
0000
0000
0000
0100
0000
0000
0000
0001
,
0000
1000
0000
0000
,
0000
0010
0000
0000
,
0000
0000
0000
1000
0000
0000
0000
0001
,
0000
0000
0000
0100
0000
0000
0000
0000
,
0000
0000
0000
1000
0000
0000
0000
0010
,
0000
0000
0000
0100
0000
0000
0000
0000
,
0000
0000
0000
0001
0000
0000
0000
1000
,
0000
0000
0000
0001
0000
0000
0000
0000
,
0000
0000
0000
1000
0000
0000
0000
0000
,
0000
0000
0000
0001
0000
0000
0000
0000
,
0000
0000
0000
0010
0000
0000
0000
0100
,
0000
0000
0000
0010
0000
0000
0000
0000
,
0000
0000
0000
0001
0000
0000
0000
1000
,
0000
0000
0000
0010
0000
0000
0000
0000
,
0000
0000
0000
0101
0000
0000
0000
0000
,
0000
1010
0000
0000
,
0000
1001
0000
0000
,
0000
0020
0000
0000
,
0030
1001
0000
0001
,
0000
0100
0000
0001
,
0000
1000
0000
0010
,
0000
0100
0000
0000
,
0000
0001
0000
1000
,
0000
0010
0000
0000
,
0000
0100
0000
0001
,
0000
1000
0000
0000
,
0000
0011
0000
1000
,
0000
0010
0000
0000
,
0000
0100
0000
0010
,
0000
0100
0000
0000
,
0000
0001
0000
1000
,
0000
0001
0000
0000
,
0000
0000
1000
0000
0000
0000
0000
0010
,
0000
0000
0000
0100
0000
0000
0000
0000
,
0000
0000
0000
0001
0000
0000
0000
1000
,
0000
0000
0000
0010
0000
0000
0000
0000
,
0000
0000
0000
0001
0000
0000
0000
1000
,
0000
0000
0000
0001
0000
0000
0000
1000
,
0000
0000
0000
0010
0000
0000
0000
0100
,
0000
0000
0000
0010
0000
0000
0000
0000
,
0000
0000
0000
0001
0000
0000
0000
1000
,
0000
0000
0000
0010
0000
0000
0000
0100
,
0000
0000
0000
0001
0000
0000
0000
1000
,
0000
0000
0000
0010
0000
0000
0000
0000
,
0000
0000
0000
0100
0000
0000
0000
0001
,
0000
0000
0000
1000
0000
0000
0000
0010
,
0000
0000
0000
0100
0000
0000
0000
0001
,
0000
0000
0000
1000
0000
0000
0000
0000
,
0000
0000
0000
0010
0000
0000
0000
0100
,
0000
0000
0000
0010
0000
0000
0000
0001
,
0000
0000
0000
1000
0000
0000
0000
0010
,
0000
0000
0000
0100
0000
0000
0000
0000
,
0000
1001
0000
0000
,
0000
0110
0000
0000
,
0000
1001
0000
0000
;

//--------------- dance-single - XLev450X-BSP ----------------
#NOTES:
     dance-single:
     XLev450X:
     Easy:
     7:
     0,0,0,0,0:
0000
0000
0000
0000
,
0000
0000
0000
0000
,
0000
0000
0000
0000
,
0000
0000
0000
0000
,
0000
0000
0000
0000
,
0000
0000
0000
0000
,
0000
0000
0000
0000
0000
1000
0000
0001
,
0000
0100
0000
0010
0000
0001
0000
0010
,
0000
0000
1000
0000
0000
0001
0000
0100
,
0000
0000
0010
0000
0000
0001
1000
0000
,
1000
0000
0100
0001
0000
0001
0000
1000
,
0010
0000
0100
1000
0000
0001
0000
1000
,
0000
0001
0100
0001
0000
0100
0000
0010
,
0000
1000
0010
0000
0100
0000
0001
0000
,
1000
0010
0000
0001
0000
1000
0000
0001
,
0000
0100
0000
0010
0000
0000
0000
1000
,
0000
0000
0001
0000
0000
0100
0000
0010
,
0000
0000
1000
0000
0000
0001
0100
0001
,
0000
0010
1000
0020
0000
0030
0000
0001
,
0000
0000
0000
1000
0000
0001
0000
0100
,
0000
0000
0000
0010
0000
0000
0000
1000
,
0000
0000
0000
0001
0000
0010
0000
0100
,
0000
0001
0000
1000
0000
0000
0000
0001
,
0000
0000
0000
0010
0001
1000
0000
0010
,
0000
0000
0000
1000
0000
0100
0000
1000
,
0000
0000
0000
0010
0000
0000
0000
0100
,
0000
0000
0000
0010
0000
0001
0000
0010
,
0000
0000
0000
1000
0000
0100
0000
0010
,
0000
0000
0000
0001
0000
1000
0010
1000
,
0000
0100
0000
0001
0000
1000
0000
0001
,
0100
0000
0001
0010
0000
1000
0000
0001
,
0000
0100
0000
0000
0000
0001
0000
1000
,
0000
0010
0000
0000
0000
0100
0000
0001
,
0000
1000
0000
0010
0000
0001
0000
1000
,
0000
0010
0100
0000
0000
0000
0000
0001
,
0000
0000
0000
1000
0001
0000
0000
1000
,
0000
0000
0010
0000
0000
0000
0000
0100
,
0000
0000
0000
0010
0001
0010
0000
1000
,
0000
0100
0001
0010
0000
0100
0000
1000
,
0000
0000
0000
0010
1000
0010
0000
0001
,
0000
0000
0000
0100
0000
0010
0000
1000
,
0000
0000
0001
0000
0000
0100
0000
0010
,
0000
0000
0000
0001
0000
1000
0000
0001
,
0000
0000
0000
0100
0000
0010
0000
0001
,
0000
1000
0000
0010
0000
0100
0000
1000
,
0000
0000
0000
0010
0000
0001
0000
1000
,
0000
0000
0000
0002
0000
0003
0000
2000
,
0000
3000
0000
0020
0000
0030
0000
0200
,
0000
0300
0000
0001
0000
0010
0000
0001
,
0000
0000
0000
1000
0000
0100
0000
1000
,
0000
0010
0000
0200
0000
0000
0300
0002
,
0000
0000
0003
2000
0000
0000
3000
0020
,
0000
0000
0030
0200
0000
0000
0300
0002
,
0000
0000
0003
0010
0000
0001
0000
0010
,
0000
0000
0000
1000
0000
0000
0000
0101
,
0000
0000
0000
1010
0000
0000
0000
0010
,
0000
0000
0000
0100
0000
0010
0000
1000
,
0000
1100
0011
0110
,
1001
0000
0001
1000
0001
0000
0010
0000
,
1000
0100
0001
1000
,
0010
0000
0100
0000
0001
0000
0010
0001
,
0010
0000
1000
0010
1000
0000
0100
0010
,
0100
0001
1000
0001
,
0000
1000
0010
0100
,
0000
0001
0000
1000
,
0000
0010
0100
0010
,
0000
1000
0000
0001
,
0000
1000
0010
0100
,
0000
0010
0000
1000
,
0000
0001
0100
0001
,
1000
0010
0000
0100
,
0000
1000
0001
0100
,
0010
1000
0000
0001
,
0000
1000
0001
0100
,
0010
1000
0000
0001
,
0000
0110
0000
1001
,
0000
0000
0010
0000
0000
0100
0000
0001
,
0000
1000
0000
0000
0000
0001
0000
0010
,
0000
1000
0000
0000
0100
0000
0000
0010
,
0000
0001
1000
0000
0000
0001
0000
0010
,
0000
0001
0010
0000
0000
1000
0000
0010
,
0000
0100
0000
1000
0000
0001
0000
0100
,
0010
0000
1000
0000
0000
0001
0000
1010
,
0000
0001
0100
0000
0000
0010
0000
0100
,
0000
0000
1000
0000
0000
0001
0000
1000
,
0000
0001
0000
0100
0000
0010
0000
1000
,
0001
0000
0100
0000
0000
0010
0000
0001
,
0000
0010
0001
0000
0000
1000
0000
0010
,
0000
0100
0010
0100
0000
1000
0000
0001
,
0000
1000
0000
0010
0000
0100
0000
1000
,
0000
0000
0000
0001
0000
1000
0000
0010
,
0000
0100
0001
0000
0000
1000
0000
0010
,
0100
0001
1000
0000
0000
0010
0000
0100
,
0000
0000
0001
0000
0000
1000
0000
0010
,
0000
0100
0000
0000
;
