#TITLE:My Time;
#ARTIST:RiraN;
#MUSIC:My Time.ogg;
#BANNER:My Time.png;
#BACKGROUND:My Time-bg.png;
#CDTITLE:./CDTitles/DANCERUSH STARDOM.png;
#SAMPLESTART:84.799;
#SAMPLELENGTH:15;
#SELECTABLE:YES;
#OFFSET:-0.199;
#BPMS:0=150;
#BGSTAGE:28;

//--------------- dance-single - XLev450X-bSP ----------------
#NOTES:
     dance-single:
     XLev450X:
     Beginner:
     3:
     0,0,0,0,0:
0000
0000
0000
0000
,
0000
0000
0000
0000
,
0000
0000
0000
0000
,
0000
0000
0000
0000
,
0000
0000
0000
0000
0000
0000
0000
0001
,
0000
0000
0000
1000
0000
0000
0000
0001
,
0000
0000
0000
0000
0000
0000
0000
0100
,
0000
0000
0000
0010
0000
0000
0000
0100
,
0000
0000
0000
0000
0000
0000
0000
0010
,
0000
0000
0000
0001
0000
0000
0000
0010
,
0000
0000
0000
0001
0000
0000
0000
1000
,
0000
0000
0000
0010
0000
0000
0000
1000
,
0000
0000
0000
0000
0000
0000
0000
0010
,
0000
0010
0000
0010
0000
0000
0000
0100
,
0000
0100
0000
0100
0000
0000
0000
0001
,
0000
1000
0000
0001
0000
0000
0000
1000
,
0000
0001
0000
1000
0000
0000
0000
0010
,
0000
0100
0000
0001
0000
0000
0000
0010
,
0000
0100
0000
1000
0000
0000
0000
0010
,
0000
0000
0000
0100
0000
0000
0000
0001
,
0000
1000
0000
0010
0000
0000
0000
0001
,
0000
1000
0000
0010
0000
0000
0000
0100
,
0000
0001
0000
0100
0000
0000
0000
1000
,
0000
0010
0000
0100
0000
0001
0000
1000
,
0000
0000
0000
0000
0000
0000
0000
1001
,
0000
0000
0000
0000
,
0000
0000
0000
0000
,
0000
0000
0000
0000
,
0000
0000
0000
0000
0000
0000
0000
0010
,
0000
1000
0000
0001
0000
0000
0000
0010
,
0000
0000
0000
0100
0000
0000
0000
0001
,
0000
1000
0000
0001
0000
0000
0000
0100
,
0000
0000
0000
0010
0000
0000
0000
1000
,
0000
1000
0000
1000
0000
0000
0000
0001
,
0000
0001
0000
0001
0000
0000
0000
0010
,
0000
0100
0000
0010
0000
0000
0000
0100
,
0000
0000
0000
0001
0000
0000
0000
1000
,
0000
0001
0000
0100
0000
0000
0000
0010
,
0000
1000
0000
0001
0000
0000
0000
0010
,
0000
0100
0000
1000
0000
0000
0000
0010
,
0000
0001
0000
0100
0000
0000
0000
0010
,
0000
0000
0000
1000
0000
0000
0000
0001
,
0000
0000
0000
0000
0000
0000
0000
0100
,
0000
0000
0000
0010
0000
0000
0000
1000
,
0000
0000
0000
0000
0000
0000
0000
0001
,
0000
0100
0000
0010
0000
0000
0000
1000
,
0000
0010
0000
0100
0000
0000
0000
0001
,
0000
0100
0000
0010
0000
0000
0000
1000
,
0000
0010
0000
0100
0000
0000
0000
0001
,
0000
1000
0000
0010
0000
0000
0000
0100
,
0000
1000
0000
0010
0000
0000
0000
0100
,
0000
0001
0000
1000
0000
0010
0000
1001
,
0000
0000
0000
0000
0000
0000
0000
0001
,
0000
1000
0000
0001
0000
0000
0000
0010
,
0000
0000
0000
0100
0000
0000
0000
0001
,
0000
1000
0000
0010
0000
0000
0000
0100
,
0000
0000
0000
0001
0000
0000
0000
1000
,
0000
0001
0000
0100
0000
0000
0000
0010
,
0000
0000
0000
0010
0000
0000
0000
1000
,
0000
0001
0000
0100
0000
0010
0000
0100
,
0000
0000
0000
0000
0000
0000
0000
0010
,
0000
0000
0000
0000
0000
0000
0000
0100
,
0000
0000
0000
0000
0000
0000
0000
0001
,
0000
0000
0000
0000
0000
0000
0000
1000
,
0000
0000
0000
0000
0000
0000
0000
1000
,
0000
1000
0000
1000
0000
0000
0000
0001
,
0000
0001
0000
0001
0000
0000
0000
0010
,
0000
0100
0000
1000
0000
0001
0000
0010
,
0000
0000
0000
0000
0000
0000
0000
1001
;

//--------------- dance-single - XLev450X-BSP ----------------
#NOTES:
     dance-single:
     XLev450X:
     Easy:
     6:
     0,0,0,0,0:
0000
0000
0000
0000
,
0000
0000
0000
0000
,
0000
0000
0000
0000
,
0000
0000
0000
0000
,
0000
0000
0000
0000
0000
0000
0000
0001
,
0000
1000
0000
0010
0000
0000
0000
0100
,
0000
0001
0000
1000
0000
0000
0000
0010
,
0000
0100
0000
0001
0000
1000
0000
2002
,
0000
0000
0000
0000
0000
0000
3003
0001
,
0000
1000
0000
0010
0000
0000
0000
0100
,
0000
0001
0000
0010
0000
0000
0000
1000
,
0000
0010
0000
0100
0000
0001
0000
1000
,
0000
0010
0000
0100
0000
0000
0000
0001
,
0000
1000
0000
0010
0000
0000
0000
1000
,
0000
0001
0000
0100
0000
0000
0000
0010
,
0000
1000
0000
0001
0000
0100
0000
0010
,
0000
0000
0000
0000
0000
0000
0000
0001
,
0000
1000
0000
0010
0000
0100
0000
0001
,
0000
1000
0000
0010
0000
0000
0000
1000
,
0000
0001
0000
0100
0000
0000
0000
0010
,
0000
0100
0000
0001
0000
0000
0000
0001
,
0000
1000
0000
0010
0000
0000
0000
0100
,
0000
0001
0000
1000
0000
0000
0000
0010
,
0000
0100
0000
0001
0000
1000
0000
0010
,
0000
0000
0000
0100
0000
0001
0000
0020
,
0000
0000
0000
0000
,
0000
0000
0000
0000
,
0000
0000
0000
0000
,
0000
0000
0000
0000
0000
0000
0030
0010
,
0000
1000
0000
0001
0000
0000
0000
0100
,
0000
0001
0000
1000
0000
0000
0000
0010
,
0000
0100
0000
0001
0000
0000
0000
0010
,
0000
1000
0000
0100
0000
0000
0000
0010
,
0000
0001
0000
0100
0000
0000
0000
1000
,
0000
0010
0000
0100
0000
0000
0000
0001
,
0000
1000
0000
0010
0000
0000
0000
0100
,
0000
0001
0000
1000
0000
0000
0000
0010
,
0000
0000
0000
0100
0000
0000
0000
0001
,
0000
1000
0000
0010
0000
0100
0000
0001
,
0000
0000
0000
1000
0000
0000
0000
0010
,
0000
0100
0000
0001
0000
1000
0000
0010
,
0000
0000
0000
0100
0000
0000
0000
0001
,
0000
1000
0000
0010
0000
0100
0000
0001
,
0000
0000
0000
1000
0000
0000
0000
0010
,
0000
0100
0000
0001
0000
0000
0000
1000
,
0000
0001
0000
0100
0000
0000
0000
0010
,
0000
1000
0000
0001
0000
0000
0000
0100
,
0000
0010
0000
1000
0000
0000
0000
0010
,
0000
0001
0000
0100
0000
0000
0000
1001
,
0000
1010
0000
0101
0000
0000
0000
0110
,
0000
1001
0000
0110
0000
0000
0000
0001
,
0000
1000
0000
0010
0000
0100
0000
0011
,
0000
1100
0000
0110
0000
1001
0000
0010
,
0000
0100
0000
0001
0000
0000
0000
1000
,
0000
0010
0000
0100
0000
0001
0000
1000
,
0000
0010
0000
0100
0000
0000
0000
1000
,
0000
0001
0000
0100
0000
0010
0000
1000
,
0000
0000
0000
0001
0000
0100
0000
0010
,
0000
0000
0000
1000
0000
0001
0000
0100
,
0000
0010
0000
1000
0000
0001
0000
0200
,
0000
0000
0000
0000
0000
0000
0300
0010
,
0000
1000
0000
0001
0000
0100
0000
0010
,
0000
1000
0000
0001
0000
0000
0000
0100
,
0000
0001
0000
1000
0000
0010
0000
0100
,
0000
0001
0000
1000
0000
0000
0000
0010
,
0000
0100
0000
0001
0000
1000
0000
0010
,
0000
0100
0000
0001
0000
0000
0000
0010
,
0000
0001
0000
1000
0000
0010
0000
0200
,
0000
0000
0000
0000
0000
0000
0300
1001
;

//--------------- dance-single - XLev450X-DSP ----------------
#NOTES:
     dance-single:
     XLev450X:
     Medium:
     9:
     0,0,0,0,0:
0000
0000
0000
0000
,
0000
0000
0000
0000
,
0000
0000
0000
0000
,
0000
0000
0000
0000
,
0000
0000
0000
0000
0000
0000
0000
0001
,
0000
1000
0000
0010
0100
0001
0000
0010
,
0000
1000
0000
0010
0100
0001
0000
0010
,
1000
0001
0100
0010
1000
0001
0100
1001
,
0000
0000
0110
0000
0000
0010
0001
0000
1000
0000
0010
0000
0000
0000
0100
0000
,
0000
0001
0000
1000
0010
0100
0000
0001
,
0000
1000
0010
0002
0000
0000
0003
0010
,
0000
1000
0000
0001
0100
0010
0000
0001
,
1000
0010
0100
0002
0000
0000
0003
1000
,
0000
0010
0000
0100
0001
1000
0000
0010
,
0000
0100
0001
2000
0000
0000
3000
0010
,
0000
0100
0001
1000
0010
0100
0000
0001
,
0000
0000
0000
0000
1000
0000
0010
0000
0000
0001
0000
0000
0100
0000
0001
0000
,
1000
0010
0000
0100
0001
1000
0000
0010
,
1000
0001
0100
0020
0000
0000
0030
1000
,
0001
0100
0000
0010
0001
1000
0000
0100
,
1000
0001
0100
0010
0200
0000
0300
0010
,
0001
1000
0000
0010
0100
1000
0000
0001
,
0100
0010
1000
0002
0000
0000
0003
0010
,
0000
0100
0000
0001
1000
0010
0000
0100
,
0000
0000
1000
0000
0001
0000
1000
0000
0000
0010
0000
0000
1000
0000
0200
0000
,
0000
0000
0000
0000
,
0000
0000
0000
0000
,
0000
0000
0000
0000
,
0000
0000
0000
0000
0000
0000
0300
0001
,
1000
0010
0000
0100
0000
0001
0000
1000
,
0010
0100
0000
1000
0000
0000
0000
0010
,
0100
0001
0000
0010
0000
1000
0000
0100
,
1000
0010
0000
0100
0000
0000
0000
0001
,
0100
0010
0000
1000
0000
0010
0000
1000
,
0100
0010
0000
0001
0000
0000
0000
0001
,
0100
0010
0000
1000
0000
0001
0000
0100
,
0010
1000
0000
0001
0000
0000
0000
0010
,
0000
0100
0000
0001
0000
1000
0000
0010
,
0100
0001
0000
1000
0100
0010
0000
2000
,
0000
0000
3000
0010
0000
0100
0000
0001
,
1000
0010
0000
0100
0001
1000
0000
0010
,
0000
0100
0000
0001
0010
1000
0000
0100
,
0000
0010
0000
1000
0001
0100
0000
0020
,
0000
0030
1000
0001
0000
0100
0000
0010
,
1000
0001
0000
0100
0000
0010
0000
1001
,
0000
0110
0000
1100
0000
0011
0000
0110
,
0000
1001
0000
0101
0000
1001
0000
1010
,
0000
0110
0000
1001
0000
0110
0000
1001
,
0000
1100
0000
0011
0000
0110
0000
0001
,
1000
0010
0000
0100
0001
1000
0000
0010
,
0100
0001
0000
1000
0010
0100
0000
0001
,
1000
0010
0100
0001
0010
0100
0000
1001
,
0000
0110
0000
0001
1000
0010
0000
0100
,
0000
0001
0000
1000
0010
0100
0000
0001
,
0000
1000
0000
0100
0010
0001
0000
0100
,
0000
1000
0000
0010
0100
0001
0000
1000
,
0000
0010
0000
0100
0001
0010
0000
1000
,
0000
0010
0000
0100
0001
1000
0000
0010
,
0000
0100
0000
0010
1000
0010
0000
0100
,
0000
0010
0000
0001
1000
0010
0000
0200
,
0000
0000
0000
0000
0000
0000
0300
0001
,
0000
1000
0000
0010
0000
0100
0000
0001
,
0000
1000
0000
0010
0000
0100
0000
0001
,
1000
0010
0000
0100
0000
0001
0000
0010
,
0001
0010
0000
1000
0000
0010
0000
0100
,
0001
1000
0000
0010
0100
0001
0000
1000
,
0010
0100
0000
0001
0000
1000
0000
0010
,
0100
0001
0010
1000
0100
0001
1000
0020
,
0000
0000
0000
0000
0000
0000
0030
1001
;

//--------------- dance-single - XLev450X-ESP ----------------
#NOTES:
     dance-single:
     XLev450X:
     Hard:
     14:
     0,0,0,0,0:
0000
0000
0000
0000
,
0000
0000
0000
0000
,
0000
0000
0000
0000
,
0000
0000
0000
0000
,
0000
0000
0000
0000
0000
0000
0000
0010
,
1000
0000
0001
0000
0100
0000
0010
0000
1000
0000
0001
1000
0100
0000
0010
0000
,
1000
0000
0001
0000
0100
0000
0010
0000
1000
0000
0001
0100
0010
0000
0100
0010
,
1000
0100
0010
0001
0100
0010
1000
0100
0010
0001
1000
0010
0100
0010
1000
0000
,
0000
0000
0001
0000
0000
0010
1000
0000
0100
0000
1001
0000
0000
0000
0100
0000
,
0010
0000
0001
0000
0100
0000
0010
0000
0100
0000
0001
0100
1000
0000
0010
0000
,
0100
0000
0001
0000
0010
0000
0100
0000
0010
0100
0000
1000
0000
0001
0100
0000
,
1000
0000
0001
0000
0010
0000
0100
0000
0010
0000
0001
0000
1000
0010
0100
0000
,
0010
0001
0010
0100
2000
0001
3000
0010
,
1000
0000
0001
0000
1000
0000
0010
0000
0100
0000
0001
0000
1000
0100
0001
0000
,
0010
0000
0001
0000
1000
0000
0010
0000
0100
0000
0000
0010
0000
0001
0010
0000
,
0100
0001
0010
0001
0010
0100
0010
0002
,
0100
0003
0010
0000
1000
0000
0010
0000
0000
0010
0000
0000
0100
0000
0001
0000
,
0100
0000
0010
0000
1000
0000
0010
0000
1000
0000
0100
0000
0010
1000
0001
0000
,
0010
0000
0100
0000
1000
0000
0001
0000
0100
0000
0000
0001
0010
1000
0001
0000
,
0010
0100
0010
0001
0010
0001
1000
0100
,
1000
0000
0100
0000
1000
0000
0001
0010
0200
0000
0000
0000
0300
0000
0001
0000
,
0100
0000
0010
0000
0100
0000
0010
0000
0100
0000
0001
0000
0010
1000
0100
0000
,
1000
0000
0001
0000
0100
0000
1000
0000
0010
0100
0000
1000
0000
0001
0100
0000
,
1000
0000
0010
0000
0100
0000
0001
0000
1000
0000
0010
0100
0001
0000
1000
0000
,
0000
0000
0010
0000
1000
0000
0100
0000
0000
0100
0001
0000
1000
0000
0020
0000
,
0000
0000
0000
0000
,
0000
0000
0000
0000
,
0000
0000
0000
0000
,
0000
0000
0000
0000
0030
0000
0000
0010
,
0000
0000
1000
0000
0000
0000
0001
0000
0000
0100
0000
0000
0010
0000
1000
0000
,
0000
0010
0000
0001
1000
0010
0100
0001
,
0000
0000
0010
0000
0000
0000
0001
0000
0000
0100
0000
0000
0010
0000
0000
0000
,
1000
0000
0000
0000
0010
0000
0100
0000
0000
0001
0000
0000
0010
0000
1000
0000
,
0000
0000
0100
0000
0010
0000
0100
0000
0000
0001
0000
0000
1000
0000
0010
0000
,
0000
0100
0000
0001
1000
0010
0000
0100
,
0000
0000
0001
0000
0000
0000
0100
0000
0000
0010
0000
0000
1000
0000
0001
0000
,
0000
0000
0100
0000
0000
0000
0010
0000
0001
0010
0001
0000
0000
0000
0100
0000
,
0000
0000
1000
0000
0000
0000
0010
0000
0000
0100
0000
0000
0001
0000
1000
0000
,
0100
0010
0100
0001
0100
1000
0000
0010
,
0000
0000
0100
0000
0001
0000
1000
0000
0000
0010
0000
0000
0100
0000
0000
1000
,
0001
0000
1000
0000
0010
0000
0100
0000
0000
0001
0000
0000
0100
0000
1000
0000
,
0010
0000
0100
0000
0010
0000
0001
0000
0000
1000
0000
0000
0100
0000
0010
0000
,
0100
0000
0001
0000
1000
0000
0010
0000
0000
0100
0000
0000
0001
1000
0001
0000
,
0000
0000
0010
0000
0100
0000
0001
0000
0000
0010
0000
0000
1000
0000
0010
0000
,
0000
0000
0100
0000
0001
0000
1000
0000
0000
0010
0000
0000
0100
0000
1001
0000
,
0000
1100
0000
0011
0000
0110
0000
0101
,
0000
1010
0000
0110
0000
1100
0000
0011
,
0000
1100
0000
0011
0000
0110
0000
1001
,
0000
0000
1010
0000
0000
0000
0110
0000
0000
0000
0101
0000
0000
0000
0001
0100
,
1000
0000
0010
0000
0100
0000
0001
0010
1000
0000
0010
0000
0100
0000
0001
0100
,
1000
0000
0010
0000
0100
0000
0001
0100
1000
0000
0010
0000
0100
0000
0001
0010
,
1000
0100
0001
1000
0010
1000
0100
0001
1000
0010
0100
0010
0001
0000
0110
0000
,
0000
0000
0101
0000
0000
0010
1000
0000
0001
0000
0100
0000
0000
0000
0010
0000
,
0100
0000
0001
0000
1000
0000
0010
0000
0000
0100
0000
0010
0001
0100
1000
0000
,
0010
0000
0100
0000
0001
0000
1000
0000
0000
0010
1000
0000
0100
0000
0001
0000
,
0000
0000
1000
0000
0010
0000
0100
0000
0000
0001
0000
0000
1000
0000
0010
0000
,
0001
0000
0100
0000
1000
0000
0001
0000
0000
0010
0000
0001
0100
0000
1000
0000
,
0000
0000
0001
0000
1000
0000
0010
0000
0000
0100
0000
0000
0010
0000
1000
0000
,
0001
0000
0100
0000
1000
0000
0010
0000
0000
0100
0000
0000
0010
1000
0001
0000
,
0000
0000
1000
0000
0010
0000
0100
0000
0000
0010
0000
0000
0100
0001
1000
0000
,
0000
0000
0010
0000
0100
0000
0001
0000
0000
1000
0000
0000
0010
0000
0001
0000
,
0000
1010
0000
0110
0000
1100
0000
0011
,
0000
0000
1001
0000
0000
0000
1010
0000
0000
0000
0110
0000
1000
0100
0001
0000
,
0000
0000
1000
0000
0010
0000
0100
0000
0000
0001
0000
1000
0010
0000
1000
0000
,
0000
0000
0010
0000
0100
0000
0001
0000
1000
0000
0010
0000
0001
0100
1000
0000
,
0000
0000
0010
0000
0000
0000
0001
0000
0000
1000
0001
0000
0010
0000
0100
0000
,
0000
0000
0001
0000
0100
0000
1000
0100
0010
0000
0001
0000
1000
0000
0001
0000
,
0100
0000
1000
0000
0001
0000
0010
1000
0100
0000
0001
0010
0001
0000
2020
0000
,
0000
0000
3030
0000
1000
0001
1000
0000
0000
0100
0000
0000
0010
0000
1001
0000
;
