#TITLE:My Baby Mama;
#SUBTITLE:;
#ARTIST:Anquette;
#TITLETRANSLIT:;
#SUBTITLETRANSLIT:;
#ARTISTTRANSLIT:;
#GENRE:;
#CREDIT:;
#MUSIC:My Baby Mama.ogg;
#BANNER:My Baby Mama.png;
#BACKGROUND:My Baby Mama-bg.png;
#CDTITLE:;
#SAMPLESTART:29.458;
#SAMPLELENGTH:15.000;
#SELECTABLE:YES;
#OFFSET:-0.316;
#BPMS:0.000=137.944;
#STOPS:;
#BGSTAGE:2;
#DISPLAYBPM:137;
#BGCHANGES:;
#FGCHANGES:;

//--------------- dance-single - XLev450X-bSP ----------------
#NOTES:
     dance-single:
     XLev450X:
     Beginner:
     4:
     0,0,0,0,0:
0000
0000
0000
0000
,
0000
0000
0000
0000
,
0000
0000
0000
0000
0000
0000
0000
0001
,
0000
1000
0000
0010
0000
0000
0000
1000
,
0000
0010
0000
0100
0000
0000
0000
0010
,
0000
1000
0000
0001
0000
0000
0000
0100
,
0000
0010
0000
1000
0000
0000
0000
0010
,
0000
0100
0000
0010
0000
0000
0000
0001
,
0000
0001
0000
0001
0000
0000
0000
1000
,
0000
1000
0000
1000
0000
0000
0000
0100
,
0000
0100
0000
0100
0000
0000
0000
0010
,
0000
0100
0000
0010
0000
0100
0000
0010
,
0000
0000
0000
0000
0000
0000
0000
0100
,
0000
0010
0000
0100
0000
0010
0000
0100
,
0000
0000
0000
0000
0000
0000
0000
1001
,
0000
0000
0000
0000
,
0000
0000
0000
0000
0000
0000
0000
0100
,
0000
0001
0000
0100
0000
0001
0000
0100
,
0000
1000
0000
0000
0000
0000
0000
0001
,
0000
0100
0000
0001
0000
0010
0000
0001
,
0000
0100
0000
0000
0000
0000
0000
1000
,
0000
0001
0000
1000
0000
0001
0000
1000
,
0000
0010
0000
0000
0000
0000
0000
0100
,
0000
1000
0000
0010
0000
0001
0000
0100
,
0000
0010
0000
0000
0000
0000
0000
0001
,
0001
0001
0000
0010
0000
0000
0000
0100
,
0100
0100
0000
1000
0000
0000
0000
1000
,
1000
1000
0000
0010
0000
0000
0000
0100
,
0100
0100
0000
0001
0000
0000
0000
0010
,
0000
1000
0000
0100
0000
0010
0000
0010
,
0000
0000
0000
0000
0000
0000
0000
0001
,
0000
0100
0000
1000
0000
0010
0000
0001
,
0000
0000
0000
0000
0000
0000
0000
0100
,
0000
1000
0000
0010
0000
0010
0000
0001
,
0000
0000
0000
0000
0000
0000
0000
0001
,
0000
0000
0000
1000
0000
0000
0000
0010
,
0000
0000
0000
0000
0000
0000
0000
0100
,
0000
0000
0000
0001
0000
0000
0000
1000
,
0000
0000
0000
0000
0000
0000
0000
0010
,
0000
0000
0000
0100
0000
0000
0000
0001
,
0000
0000
0000
0000
0000
0000
0000
1000
,
0000
0000
0000
0010
0000
0000
0000
0100
,
0000
0000
0000
0000
0000
0000
0000
0001
,
0000
0001
0000
0001
0000
0000
0000
1000
,
0000
1000
0000
1000
0000
0000
0000
0010
,
0000
0100
0000
0010
0000
0000
0000
0001
,
0000
1000
0000
0010
0000
0000
0000
0100
,
0000
0001
0000
1000
0000
0000
0000
0010
,
0000
0100
0000
1000
0000
0000
0000
0010
,
0000
0001
0000
0100
0000
0000
0000
0001
,
0000
0010
0000
0100
0000
0001
0000
1001
,
0000
0000
0000
0000
,
0000
0000
0000
0000
0000
0110
0000
0000
;

//--------------- dance-single - XLev450X-BSP ----------------
#NOTES:
     dance-single:
     XLev450X:
     Easy:
     7:
     0,0,0,0,0:
0000
0000
0000
0000
,
0000
0000
0000
0000
,
0000
0000
0000
0000
0000
0000
0000
0001
,
0000
1000
0000
0010
0000
0100
0000
0001
,
0000
1000
0000
0010
0000
0100
0000
0001
,
0000
0000
0000
1000
0000
0000
0000
0001
,
0000
0100
0000
0010
0000
1000
0000
0101
,
0000
0000
0000
1010
0000
0000
0000
0110
,
0000
0001
0000
1000
0000
0010
0000
0100
,
0000
0000
0000
0001
0000
0000
0000
1000
,
0000
0010
0000
0100
0000
0001
0000
1000
,
0000
0000
0000
0010
0000
0100
0000
0001
,
0000
0000
0000
0001
0000
1000
0000
0010
,
0000
0000
0000
0100
0000
1000
0000
0001
,
0000
0010
0000
0100
0000
0001
0000
0001
,
0000
0000
0010
0000
0000
1000
0000
0010
,
0000
0100
1000
0001
0000
0000
0000
1010
,
0000
0001
0000
0100
0000
0010
0000
1000
,
0000
0010
0000
0101
0000
1010
0000
0001
,
0000
0000
0000
0100
0000
0010
0000
1000
,
0000
0001
0000
1010
0000
0110
0000
0101
,
0000
0000
0000
0010
0000
1000
0000
0001
,
0000
0010
0000
0101
0000
1010
0000
1001
,
0000
0000
0000
0010
0000
0100
0000
0001
,
0000
0010
0000
0101
0000
1010
0000
0110
,
0000
0000
0000
0001
0000
1000
0000
0010
,
0000
0000
0000
0100
0000
0001
0000
1000
,
0000
0000
0000
0001
0000
0100
0000
0010
,
0000
1000
0000
0001
0000
0010
0000
0100
,
0000
0000
0000
0001
0000
1000
0000
0010
,
0000
0000
0000
0100
0000
0001
0000
1000
,
0000
0000
0100
0000
0000
0001
0000
0100
,
0000
0001
0000
1000
0000
0010
0000
0100
,
0000
0000
0001
0000
0000
0100
0000
1000
,
0000
0010
1000
0100
0000
0001
0000
0010
,
1000
0001
0000
0100
0000
0010
0000
0001
,
0100
0010
0000
1001
0000
0110
0000
0010
,
0001
0100
0000
0010
0000
1000
0000
0001
,
0100
0010
0000
1000
0000
0010
0000
0100
,
0001
0010
0000
1000
0000
0010
0000
0100
,
0001
1000
0000
0010
0000
0100
0000
0001
,
1000
0010
0000
0100
0000
0010
0000
0001
,
0100
0010
0000
1000
0000
0001
0000
0010
,
0000
0000
0000
0100
0000
0001
0000
1000
,
0000
0000
0000
0010
0100
0001
0000
1000
,
0000
0001
0000
0010
0100
0001
0000
0001
,
0000
0100
0000
1001
0000
0110
0000
0001
,
0000
0000
0000
1000
0000
0010
0000
0100
,
0000
0000
0000
0001
0000
1000
0000
0010
,
0100
0001
0000
0010
1000
0100
0000
0001
,
0100
0010
0000
1000
0001
0100
0000
0001
,
0000
0000
1000
0000
0000
0010
0000
0000
,
0000
0000
0100
0001
0000
1001
0000
0000
;

//--------------- dance-single - XLev450X-DSP ----------------
#NOTES:
     dance-single:
     XLev450X:
     Medium:
     10:
     0,0,0,0,0:
0000
0000
0000
0000
,
0000
0000
0000
0000
,
0000
0000
0000
0000
0000
0000
0000
0001
,
1000
0010
0100
0001
0000
0010
0000
0100
,
0001
1000
0010
0100
0000
0001
0000
0010
,
0001
0100
0000
1000
0010
0100
0000
0010
,
0001
0100
1010
0000
0000
0101
0000
0010
,
0000
1000
0000
0010
0100
0001
0000
1000
,
0000
0010
0000
0100
0001
0010
0000
0100
,
0000
0000
0000
1000
0000
0001
0000
0010
,
0100
0001
0000
1000
0010
0100
0000
0001
,
0000
0000
0000
1000
0000
0010
0000
0100
,
0000
0000
0000
0001
0000
0010
0000
0100
,
0001
1000
0000
0010
0100
0001
0000
1000
,
0000
0010
0000
0100
0000
0001
0000
1010
,
0000
0000
0101
0000
0000
1001
0000
0010
,
0000
0100
0001
1000
0000
0000
0000
0010
,
0000
0100
0000
0001
0000
1000
0000
0010
,
0000
0100
0000
0001
0100
0010
1000
0001
,
0000
0010
0000
0100
0000
0000
0000
0001
,
0000
1000
0000
0010
0100
0001
1000
0010
,
0000
0100
0000
0001
0000
0000
0000
0010
,
0000
0100
0000
0001
1000
0010
0100
0001
,
0000
0010
0000
0100
0000
0000
0000
0001
,
0000
1000
0000
0010
0100
0001
1000
0010
,
0000
0100
0000
1000
0001
0100
0000
0010
,
0000
0100
0000
0001
0010
1000
0000
0001
,
0000
0100
0000
0010
0100
0001
0000
1000
,
0000
0010
0000
1000
0001
0100
0010
0001
,
0000
0010
0000
0100
1000
0001
0000
0010
,
0000
0100
0000
1000
0001
0010
0000
0100
,
0000
0000
0001
0000
0000
1000
0000
0010
,
0000
0100
0000
0001
0000
1000
0000
0101
,
0000
0000
1010
0000
0000
0110
0000
0001
,
0000
0010
0001
1000
0000
0000
0000
0010
,
0000
0100
0000
0001
1000
0010
0000
0100
,
0000
0001
0000
1000
0001
0100
0010
0001
,
0000
1000
0000
0010
0000
0000
0000
0100
,
0000
0001
0000
1000
0010
0100
0000
0001
,
0000
0010
0000
0100
0000
0000
0000
0001
,
0000
1000
0000
0001
0000
0100
0010
0001
,
0000
1000
0000
0001
0000
0000
0000
0100
,
0000
0010
0000
1000
0001
0100
0000
0010
,
0000
0000
0000
0100
0000
0001
0000
1000
,
0000
0010
0000
0100
0001
1000
0000
0010
,
0000
0100
0000
0001
0000
0000
0000
0100
,
0000
0010
0000
1000
0001
0100
0010
1000
,
0000
0001
0000
0100
0000
0000
0000
0010
,
0000
0001
0000
1000
0010
0100
0000
0001
,
0000
0010
0000
1000
0001
0100
0000
0010
,
0000
1000
0000
0001
0010
0100
0000
0101
,
0000
0000
1010
0000
0000
0110
0000
0000
,
0000
0000
0001
1000
0010
1001
0000
0000
;

//--------------- dance-single - XLev450X-ESP ----------------
#NOTES:
     dance-single:
     XLev450X:
     Hard:
     13:
     0,0,0,0,0:
0000
0000
0000
0000
,
0000
0000
0000
0000
,
0000
0000
0000
0000
0000
0000
0000
0010
,
0000
1000
0000
0000
0001
0000
0100
0000
0010
0000
1000
0000
0000
0000
0010
0000
,
0000
0100
0000
0000
0001
0000
1000
0000
0000
0000
0010
0000
0000
0000
0100
0000
,
0000
0001
0000
0000
1000
0000
0010
0000
0100
0000
0001
0000
0000
0000
1000
0000
,
0000
0010
0000
0000
0100
0000
0001
0000
0000
0000
1000
0000
0000
0000
0010
0000
,
0100
0001
1000
0010
0100
0000
0001
0000
,
0010
1000
0100
0001
0100
0000
0010
0000
,
1000
0001
0100
0010
1000
0001
0010
0000
,
0100
1000
0000
0010
0001
0100
0000
0010
,
0000
1000
0000
0001
0100
0010
0000
0100
,
0001
1000
0010
0100
0001
1000
0000
0010
,
0100
0001
0000
0010
1000
0100
0000
0010
,
0001
0000
0100
0000
1000
0000
0010
0000
0100
0000
0001
0000
0000
0000
1000
0100
,
1000
0100
0000
0000
0100
0010
0100
0010
0000
0000
0010
1000
0010
1000
0000
0000
,
0001
0000
1000
0000
0001
0100
1000
0001
0010
0100
1000
0001
0100
0000
0001
0000
,
0000
1000
0000
0000
0010
0000
0100
0000
0001
0000
1000
0000
0000
0000
0010
0000
,
0000
0100
0000
0000
0001
0000
1000
0000
0000
0000
0010
0000
0000
0000
0100
0000
,
0000
0001
0000
0000
1000
0000
0010
0000
0100
0000
0001
0000
0000
0000
0010
0000
,
0000
1000
0000
0000
0001
0000
0100
0000
0000
0000
0010
0000
0000
0000
1000
0000
,
0000
0001
0000
0000
0100
0000
1000
0000
0001
0000
0100
0000
0000
0000
0001
0000
,
0000
1000
0000
0000
0010
0000
0100
0000
0000
0000
0001
0000
0000
0000
1000
0000
,
0000
0010
0000
0000
0100
0000
0001
0000
1000
0000
0010
0000
0000
0000
0100
0000
,
0000
0001
0000
0000
1000
0000
0010
0000
0000
0000
0100
0000
0000
0000
0001
0000
,
1000
0010
0100
0001
0010
0100
0000
1000
,
0001
0100
0010
1000
0100
0010
0000
0010
,
1000
0001
0000
0100
0010
0001
1000
0010
,
0000
0100
0001
1000
0010
0100
0000
0001
,
1000
0010
0100
0001
1000
0010
0000
0100
,
0001
0000
1000
0000
0010
0000
0100
0000
0001
0000
1000
0000
0000
0000
1000
0010
,
1000
0010
0000
0000
0001
0100
0001
0100
0000
0000
0001
1000
0001
0000
1010
0000
,
0000
0000
0101
0000
0000
0000
1100
0000
0000
0000
1001
0000
0000
0000
0001
0100
,
0001
0100
0000
0000
0010
1000
0010
1000
0000
0000
0001
0100
0001
0100
0000
0000
,
0001
0000
1000
0000
0001
0100
1000
0001
0010
0100
1000
0001
0100
0000
0010
0000
,
0000
1000
0000
0000
0010
0000
0100
0000
0001
0000
1000
0000
0000
0000
0010
0000
,
0000
0100
0000
0000
0001
0000
1000
0000
0000
0000
0010
0000
0000
0000
0100
0000
,
0000
0001
0000
0000
1000
0000
0010
0000
0100
0000
0001
0000
0000
0000
1000
0000
,
0000
0001
0000
0000
0100
0000
0010
0000
0000
0000
0001
0000
0000
0000
1000
0000
,
0000
0001
0000
0000
0100
0000
0010
0000
1000
0000
0001
0000
0000
0000
0010
0000
,
0000
0100
0000
0000
0001
0000
1000
0000
0000
0000
0010
0000
0000
0000
0100
0000
,
0000
0001
0000
0000
1000
0000
0001
0000
0100
0000
0001
0000
0000
0000
1000
0000
,
0000
0010
0000
0000
0100
0000
0001
0100
0000
0000
0010
1000
0000
0000
0001
0000
,
1000
0010
1000
0100
0001
0010
0000
0100
,
1000
0010
0100
1001
0000
0110
0000
0001
,
0100
0010
1000
0001
0010
0100
0000
0010
,
0001
0100
1000
0101
0000
1010
0000
0010
,
0100
0001
0010
1000
0010
0100
0000
0001
,
1000
0010
0100
0011
0000
1010
0000
0010
,
0100
0001
1000
0010
0100
0001
1000
0010
,
0100
0000
0001
0000
1000
0000
0010
0000
0100
0000
0001
0000
0010
0000
1000
0100
,
1000
0100
0000
0000
0100
0010
0100
0010
0000
0000
0010
1000
0010
1000
0000
0000
,
0001
0000
1000
0000
0001
0100
1000
0001
0010
0000
1001
0000
0000
0000
0000
0000
;

//--------------- dance-single - XLev450X-CSP ----------------
#NOTES:
     dance-single:
     XLev450X:
     Challenge:
     9:
     0,0,0,0,0:
0000
0000
0000
0000
,
0000
0000
0000
0000
,
0000
0000
0000
0000
0000
0000
0000
0001
,
0010
0001
0000
1000
0010
1000
0000
0001
,
0010
0001
0000
1000
0000
0001
0000
0010
,
0001
1000
0000
0001
0000
0010
0000
0001
,
0010
0001
1000
0010
0000
0100
0000
0100
,
0010
0100
0000
1010
0000
0101
0000
0001
,
0010
1000
0010
0001
0010
1000
0000
1000
,
0010
0001
0000
0001
1000
0100
0000
1010
,
0000
0101
0000
1100
0000
0011
0000
0100
,
0001
0010
0000
0001
0010
0001
0000
1000
,
0010
0100
0000
1010
0000
0101
0000
1000
,
0010
1000
0000
0001
0000
0010
0001
0010
,
1000
0000
0010
0000
0001
0000
0101
0000
0000
0000
0101
0000
0000
0000
1000
0001
,
0000
0000
0000
0000
0010
0001
0000
0000
0000
0000
1000
0100
0000
0000
0000
0000
,
0000
0000
1000
0010
0001
0010
0001
0010
,
1000
0001
0000
1000
0010
1000
0000
0010
,
1000
0001
1000
0001
0000
1000
0000
0010
,
1000
0010
0000
0001
0000
0010
0001
0010
,
0001
0010
0000
1000
0000
0001
0000
0010
,
0001
1000
0000
1000
0010
1000
0000
0001
,
0010
0001
0000
1000
0000
0001
0000
0010
,
0001
0010
0000
0001
0010
1000
0000
0010
,
0001
0010
0000
1000
0001
1000
0000
0100
,
0010
0001
0000
1000
0010
0001
0000
1000
,
0010
0001
0000
1000
0001
1000
0000
0100
,
0010
0001
0010
1000
0010
0001
0000
1000
,
0010
0001
0000
1100
0000
0011
0000
1000
,
0010
0001
0000
1000
0100
0001
0000
0001
,
0100
0000
1000
0000
0000
0000
1000
0000
0100
0000
0001
0000
0000
0000
1000
0001
,
0000
0000
0000
0000
0100
0010
0000
0000
0000
0000
1000
0001
0000
0000
1000
0000
,
0000
0000
0010
0000
0000
0000
0001
0000
0000
0000
0010
0000
0000
0000
1000
0001
,
0000
0000
0000
0000
0010
0001
0000
0000
0000
0000
1000
0100
0000
0000
0000
0000
,
0000
0000
0001
1000
0000
0000
0000
0001
,
0010
0001
0000
1000
0010
1000
0000
0001
,
0010
0001
0000
1000
0000
0001
0000
0100
,
0010
1000
0000
0010
1000
0010
0000
0001
,
0010
0001
0000
1000
0000
0010
0000
0001
,
0010
0001
0000
1000
0000
0010
0000
0001
,
0010
0001
0010
1000
0000
0001
0000
0010
,
0001
0010
0000
1000
0010
1000
0000
0001
,
0010
0001
0000
1000
0000
0001
0000
0010
,
0000
1000
0000
0010
0001
0100
0000
0010
,
0000
1000
0000
0001
0100
0010
1000
0001
,
0000
0100
0000
0010
0001
0100
0000
0010
,
0000
1000
0000
0101
0000
1010
0000
0010
,
0100
0001
0000
0010
0100
1000
0000
0001
,
0000
0010
0000
0101
0000
1010
0000
0010
,
0100
0001
1000
0010
0000
0100
0000
0001
,
1000
0000
0010
0000
0000
0000
0100
0000
0000
0000
0001
0000
0000
0000
1000
0001
,
0000
0000
0000
0000
0010
0001
0000
0000
0000
0000
0100
0010
0000
0000
0000
0000
,
0000
0000
0000
0000
1000
0001
1000
0001
0000
0000
0110
0000
0000
0000
0000
0000
;
