#TITLE:無双;
#ARTIST:SOUND HOLIC Vs. VENUS feat. Nana Takahashi;
#TITLETRANSLIT:Musou;
#MUSIC:Musou.ogg;
#BANNER:Musou.png;
#BACKGROUND:Musou-bg.png;
#CDTITLE:./CDTitles/SDVX III GRAVITY WARS.png;
#SAMPLESTART:22.104;
#SAMPLELENGTH:15;
#OFFSET:-0.187;
#BPMS:0=180;
#BGSTAGE:31;

//--------------- dance-single - XLev450X-bSP ----------------
#NOTES:
     dance-single:
     XLev450X:
     Beginner:
     5:
     0,0,0,0,0:
0000
0000
0000
0000
,
0000
0000
0000
0000
,
0000
0000
0000
0000
,
0000
0000
0000
0000
,
0000
0000
0000
0000
,
0000
0000
0000
0000
,
0000
0000
0000
0000
,
0000
0000
0000
0000
,
0000
0000
0000
0000
,
0001
0001
0001
0000
,
1000
0001
0100
0000
,
0010
1000
0001
0000
,
0010
0010
1000
0000
,
0001
0100
0010
0000
,
1000
0001
0100
0000
,
0010
1000
0001
0100
,
0010
0000
2000
0000
0000
0000
0000
3000
,
0001
1000
0010
0100
,
0001
0000
1000
0000
,
0001
0100
0010
0000
,
1000
0001
0100
0000
,
0010
1000
0001
0100
,
0010
0000
1000
0000
,
0001
0100
0010
0000
,
0001
1000
0010
0100
,
1001
0000
0000
0000
,
0000
0000
0000
0000
,
1000
1000
1000
0000
,
0001
0001
0001
0000
,
0010
1000
0001
0000
,
0100
0010
1000
0000
,
0001
1000
0010
0100
,
0001
0000
0000
0000
,
1000
0001
0100
0000
,
1000
0001
0010
0000
,
0100
0001
1000
0001
,
0100
0000
0010
0000
,
1000
0000
0001
0000
,
0100
0000
0010
0000
,
0001
1000
0001
0000
,
0100
0010
1000
0000
,
0001
1000
0010
0100
,
0001
0000
1000
0000
,
0001
0000
0100
0000
,
0001
1000
0010
0100
,
0001
0000
1000
0000
,
0001
1000
0010
0000
,
0100
0001
1000
0000
,
0001
1000
0010
0100
,
0001
0000
1000
0000
,
0001
1000
0001
0000
,
0100
0000
0010
0000
,
0001
0001
0001
0000
,
1000
1000
1000
0000
,
0001
1000
0010
0100
,
0001
0000
1000
0000
,
0010
1000
0001
0000
,
0200
0000
0000
0000
0000
0000
0000
0300
,
0001
1000
0010
0000
,
0100
0000
0001
0000
,
1000
0001
0100
0000
,
0010
0000
1000
0000
,
0010
0001
1000
0010
,
0100
0000
0001
0000
,
1000
0010
0100
0000
,
0001
0010
1000
0000
,
0001
0100
0010
1000
,
0001
0000
0100
0000
,
0001
0010
1000
0000
,
0001
0100
0010
0000
,
1000
0000
0001
0000
,
0010
0100
0001
0000
,
1000
0000
0001
0000
,
0010
0000
0100
0000
,
2002
0000
0000
3003
,
0020
0000
0000
0030
,
0200
0000
0000
0300
,
0001
0000
1000
0000
,
0010
1000
0001
0000
,
0001
0000
1000
0000
,
0010
0000
0100
0000
,
0001
1000
0010
0000
,
1000
0001
0100
0000
,
0010
1000
0001
0000
,
0100
0001
1000
0000
,
0010
0000
1000
0000
,
0001
0010
0001
0000
,
1000
0000
0001
0000
,
0010
0100
0001
1000
,
0010
0000
1000
0000
,
0001
0100
0010
1000
,
0001
0000
0100
0000
,
0010
0001
0010
0000
,
1000
0100
1000
0000
,
0010
0000
0100
0000
,
0001
1000
0010
0000
,
0100
0001
1000
0000
,
0010
1000
0001
0100
,
0010
0000
0000
0000
1000
0000
0001
0100
;

//--------------- dance-single - XLev450X-BSP ----------------
#NOTES:
     dance-single:
     XLev450X:
     Easy:
     9:
     0,0,0,0,0:
0000
0000
0000
0000
,
0000
0000
0000
0000
,
0000
0000
0000
0000
,
0000
0000
0000
0000
,
0000
0000
0000
0000
,
2002
0000
0000
0000
,
0000
0000
0000
0000
,
0000
0000
0000
3003
,
0001
1000
0000
0000
0010
0000
0010
0000
,
1000
0001
1000
0000
,
0100
1000
0001
0000
,
0010
1000
0001
0010
,
0100
1000
0001
0000
,
1000
0000
0010
0000
1000
0010
1000
0000
,
0001
0010
0100
0000
,
0001
0010
0001
0000
1000
0100
1000
0000
,
0001
2002
0000
3003
,
0010
1000
0001
0100
,
1000
0001
0000
0100
0000
0001
1000
0100
,
0010
1000
0001
1000
,
0001
0000
0100
0000
0001
0010
0001
0000
,
1000
0100
1000
0001
,
1000
0010
0000
0100
0000
0010
1000
0010
,
0001
0000
1000
0000
0010
0000
1000
0010
,
1000
0000
0001
0000
0010
0100
1000
0100
,
0002
1000
1000
1000
,
1000
0000
1000
0000
2000
0000
0000
3003
,
0001
1000
0100
1000
,
0001
0010
0001
0000
1000
0100
1000
0000
,
0010
1000
0001
0100
,
1000
0001
1000
0000
,
0010
1000
0001
0100
,
0010
0000
0000
0100
0000
0000
0010
0000
0000
0000
0000
0000
0001
0000
0000
0000
,
1000
0010
1000
0000
,
0100
1000
0101
0000
,
0010
1000
0001
1000
,
0010
0000
1000
0000
0010
1000
0010
0000
,
0001
0000
0000
0101
0000
0000
1000
0000
,
0000
1010
0000
0000
0001
0000
0000
2002
,
0000
3003
0010
0000
1000
0000
0100
0000
,
1000
0001
0010
1000
,
0001
0010
0001
0000
1000
0010
1000
0000
,
0001
1000
0000
0001
1000
0000
1000
0001
,
0000
0010
2000
0000
0000
0000
3000
0000
,
0010
1000
0001
0100
,
0010
0001
0010
0000
1000
0000
0100
0000
,
1000
0000
0001
0010
0000
1000
0010
0000
,
0100
0100
1000
0001
,
1000
0001
1000
0001
1000
0000
0010
0000
,
1000
0010
1000
0000
0010
0000
0001
0000
,
0010
0001
0000
1000
0000
0001
0000
1000
,
0000
0200
0000
0001
0000
0001
0300
0000
,
0001
1000
0100
1000
,
0010
1000
0010
0000
0001
0010
0001
0000
,
0100
0000
1000
0001
0000
1000
0010
0000
,
0100
1000
0001
0010
,
0101
0000
1000
0000
0010
0000
1000
0010
,
0000
0001
1000
0001
0000
2002
0000
3003
,
0010
0000
1000
0000
0001
0000
0000
0100
,
0000
1000
0010
0000
0001
0000
1000
0000
,
0010
0000
1000
0000
0001
0000
0000
0100
,
0000
0001
1000
0000
0010
0000
0001
0000
,
0010
0001
0010
0000
1000
0000
0000
0100
,
0000
0001
1000
0000
0010
0000
0000
0000
,
1000
0000
0001
0000
0010
0000
0000
1000
,
0000
0010
1000
0001
0000
0000
0000
0000
,
0100
1000
0010
1000
,
0001
1000
0001
0000
,
0010
1000
0010
0100
,
0001
0010
0001
0000
1000
0000
0000
0000
,
1000
0100
0001
1000
,
0010
1000
0001
0000
,
0010
0000
1000
0000
0000
0001
0000
0010
,
0000
1000
0000
0100
0020
0100
0100
0130
,
0002
0000
0000
0000
0000
0000
0000
0003
,
2000
0000
0000
3000
,
0200
0000
0000
0000
0000
0301
0001
0000
,
0000
1000
0000
0000
0010
0000
1000
0000
,
0001
0000
0010
0000
0001
0000
0010
0001
,
0010
0000
1000
0000
0100
0000
0010
1000
,
0010
0000
0000
1001
0000
0000
0100
0200
,
0000
0000
0000
0010
0000
0310
0000
0000
,
0001
0000
1000
0000
0010
0000
1000
0010
,
1000
0000
0001
0000
0010
0000
0100
0010
,
0100
0000
0001
1000
0000
0010
1000
0000
,
0001
0000
0100
0000
1000
0000
0001
0010
,
0001
0000
1000
0000
0100
0000
0010
0001
,
0000
1000
0001
0010
0000
1000
0000
0000
,
0001
1000
0010
1000
,
0100
1000
0001
0010
,
1000
0001
0010
0100
,
0000
0000
0001
0000
1000
0000
0010
1000
,
0100
0100
0001
0010
0000
1000
0010
0001
,
0100
0001
1000
0010
,
0010
0000
0100
0001
0000
1000
0000
0010
,
0000
0100
0000
1000
0001
0000
0010
0000
,
1000
0000
0001
1000
0000
0010
0000
0100
,
0000
1000
0000
0001
0000
0010
1000
0000
,
0001
1000
0100
0010
1000
0001
0100
0101
;

//--------------- dance-single - XLev450X-DSP ----------------
#NOTES:
     dance-single:
     XLev450X:
     Medium:
     14:
     0,0,0,0,0:
0000
0000
0000
0000
,
0000
0000
0000
0000
,
0000
0000
0000
0000
,
0000
0000
0000
0000
,
0000
0000
0000
0000
0000
0000
0000
0000
0000
0000
0000
0000
0000
0000
0010
0100
,
0020
0000
0000
0000
,
0000
0000
0000
0000
,
0000
0000
0000
0000
0000
0000
0000
0030
,
1000
0002
0000
0000
1000
0000
1003
0000
,
0001
0000
0000
0000
1000
0000
0000
0000
0010
0000
0000
0100
0000
0000
0001
0000
,
1000
0000
0000
0000
0010
0000
0000
0000
0100
0000
0000
1000
0000
0000
0001
0000
,
0010
0000
0000
0000
1000
0000
0000
0000
0100
0000
0000
0001
0000
0000
1000
0000
,
0010
0000
0000
0000
1000
0000
0000
0000
0001
0000
0000
0100
0000
0000
1000
0000
,
0001
0010
0001
0000
1000
0010
1000
0000
,
0001
1000
0001
0000
0010
1000
0010
0000
,
0001
0000
0010
0000
0001
0000
0000
0000
1000
0000
0001
0000
0100
0000
0010
0100
,
1000
0000
0100
0000
0002
0000
0000
0000
1000
0000
0000
1003
0000
0000
1000
0100
,
0001
0000
1000
0000
0010
1000
0010
1000
,
0000
0001
0000
0100
0000
0001
0010
2000
,
0001
0000
0000
0000
0000
0000
0000
0000
0000
0000
0000
0000
0001
0000
0000
0000
0000
0000
0000
0000
0000
0000
0000
0000
3001
0000
0000
0000
0000
0000
0100
0000
0000
0000
0000
0000
0010
0000
0000
0000
0000
0000
0002
0000
0000
0000
0000
0000
,
1000
0000
0000
0000
0000
0000
0000
0000
0000
0000
0000
0000
1000
0000
0000
0000
0000
0000
0000
0000
0000
0000
0000
0000
1003
0000
0000
0000
0000
0000
0000
0000
0000
0000
0000
0000
0001
0000
0000
0000
0000
0000
1000
0000
0000
0000
0000
0000
,
0010
0000
1000
0000
0100
0000
1000
0001
,
0000
0100
0000
1000
0000
0010
1000
0010
,
0001
0000
1000
0000
0100
0000
1000
0010
,
1000
0000
0001
0000
0010
0001
0010
1000
,
0002
0100
0100
0100
,
0100
0000
0103
0000
0010
1000
0001
0010
,
1000
0001
1000
0010
,
1000
0010
1000
0000
0001
0000
0100
0000
,
0001
0100
0001
0000
0010
1000
0010
0000
,
0010
0100
0010
0000
0001
0000
1000
0000
,
0001
0000
0100
0010
1000
0000
0001
0000
,
1000
0000
0000
0001
0000
0000
0100
0000
0000
0000
0001
0000
1000
0000
0010
0000
,
1000
0001
1000
0100
,
1000
0010
1000
0001
0000
0100
0000
1000
,
0000
0000
0010
0000
1000
0000
0001
1000
,
0010
0000
1000
0000
0010
0000
1000
0001
,
1000
0000
0001
0100
0000
1000
0010
0000
,
0010
0100
0000
0010
1000
0001
0000
0010
,
0001
0000
1000
0000
0010
1000
0001
0000
,
1000
0000
0100
0000
1000
0010
1000
0000
,
0001
0000
0100
0000
1000
0000
0010
0000
0001
0000
1000
0000
0001
0100
1000
0001
,
0010
1000
0000
0010
0100
0000
0001
0010
,
0000
0000
1000
0000
0001
0000
0000
0000
1000
0000
0100
0000
0001
0000
1000
0100
,
0001
0000
1000
0000
0010
0000
1000
0010
,
1000
0000
0001
0000
0010
0000
0100
0001
,
1000
0000
0010
1000
0000
0001
0100
0000
,
0010
0000
0010
0000
1000
0000
0001
1000
,
0010
0000
0100
0000
1000
0000
0001
0010
,
0001
0000
1000
0000
0100
0000
1000
0001
,
1000
0000
0010
0100
0000
1000
0010
0001
,
0000
0000
1000
0001
0010
0100
2000
0000
0000
0000
3002
0000
0000
0000
1003
0000
,
0010
0000
1000
0000
0001
0010
0001
0000
,
1000
0000
0100
0000
0010
1000
0010
1000
,
0001
0000
0100
1000
0000
0010
1000
0000
,
0001
0000
0010
0000
1000
0010
1000
0001
,
0100
0000
1000
0000
0010
0000
1000
0001
,
0000
0100
0001
1000
0000
0020
0000
1030
,
0001
0000
1000
0000
0010
0000
0000
1000
,
0000
0010
1000
0010
1000
0000
0001
0000
,
0010
0000
1000
0000
0001
0000
0000
0100
,
0000
0010
1000
0000
0001
0000
0100
0000
,
1000
0000
0001
0010
0001
0000
0000
1000
,
0000
0100
0010
0000
1000
0000
0001
0000
,
1000
0000
0010
1000
0010
0000
0000
0001
,
0000
0100
0001
2000
0000
0010
3010
0000
,
0001
0000
0010
0100
0010
0000
1000
0100
0001
0000
0010
1000
0010
0000
1000
0001
,
0100
0000
0001
1000
0010
0000
1000
0100
0001
0000
0100
0001
0010
0000
1000
0000
,
0001
0100
1000
0010
,
1000
0010
1000
0001
0100
0000
1000
0000
,
0001
0010
0001
0000
1000
0100
1000
0000
,
0010
1000
0001
0100
1000
0010
0200
0000
,
1300
0000
0010
0000
1000
0100
0001
1000
,
0000
0001
1000
0010
1000
0001
0100
1000
,
0010
0000
0000
1000
0001
0000
0000
0000
,
0100
0000
0000
0010
1000
0000
0001
0010
,
1000
0000
0001
0100
0000
1000
0020
0000
,
0000
0100
0000
0000
0130
0000
1000
0100
,
0001
1000
0001
1000
,
0010
1000
0100
1000
,
0001
0000
1000
0010
0000
0100
0000
1000
,
0000
0001
0010
1000
0000
0010
0000
0001
,
0010
1000
0001
0100
1000
0000
0010
0000
,
1000
0010
1000
0010
1000
0000
0001
0000
,
0010
0000
0100
1000
0001
0000
0100
0000
,
1000
1000
0001
1000
,
0010
1000
0010
1000
0001
0000
0100
0010
,
0000
1000
0000
0001
0000
0000
1000
0000
,
0010
0000
0010
0000
1000
0001
1000
0000
,
0010
0000
0010
0000
1000
0010
1000
0001
,
0100
1000
0001
0100
,
1000
0010
1000
0001
0100
1000
0001
0000
,
0010
1000
0010
1000
,
0100
1000
0010
1000
0001
0000
1000
0000
,
0001
0000
1000
0010
1000
0001
0100
0000
,
1000
0010
1000
1000
,
0010
1000
0010
1000
0001
0100
0001
1000
,
0001
1000
0010
1000
0001
1000
0010
0000
,
0100
1000
0010
0000
1000
0000
0001
1000
0100
0000
0010
0000
1000
0001
0200
0000
,
0000
0000
0000
0000
0000
0000
0000
0000
0000
0000
0000
0000
0000
0000
0000
0000
0000
0000
0000
0000
0000
0000
0000
0000
0000
0000
0000
0000
0000
0000
0000
0000
0000
0000
0000
0000
0000
0000
0000
0000
0000
0000
0000
0000
0000
0000
0000
0000
0000
0000
0000
0000
0000
0000
0000
0000
0000
0000
0000
0000
0000
0000
0000
0000
0000
0000
0000
0000
0000
0000
0000
0000
0000
0000
0000
0000
0000
0000
0000
0000
0000
0000
0000
0000
0300
0000
0000
0000
0000
0000
0000
0000
0000
0000
0000
0000
0000
0000
0000
0000
0000
0000
0000
0000
0000
0000
0000
0000
0000
0000
0000
0000
0000
0000
0000
0000
0000
0000
0000
0000
0000
0000
0000
0000
0000
0000
0000
0000
0000
0000
0000
0000
0000
0000
0000
0000
0000
0000
0000
0000
0000
0000
0000
0000
0000
0000
0000
0000
0000
0000
0000
0000
0000
0000
0000
0000
0000
0000
0000
0000
0000
0000
0000
0000
0000
0000
0000
0000
0000
0000
0000
0000
0000
0000
0000
0000
0000
0000
0000
0000
0000
0000
0000
0000
0000
0000
0000
0000
0000
0000
0000
0000
;

//--------------- dance-single - XLev450X vs. StormTaker21-ESP ----------------
#NOTES:
     dance-single:
     XLev450X vs. StormTaker21:
     Hard:
     16:
     0,0,0,0,0:
0000
0000
0000
0000
,
0000
0000
0000
0000
,
0000
0000
0000
0000
,
0000
0000
0000
0000
,
0000
0000
0000
0000
0000
0000
0000
0000
0000
0000
0000
0000
0000
0000
0001
1000
,
0020
0000
0000
0000
,
0000
0000
0000
0000
,
0000
0000
0000
0000
0000
0000
0000
0030
,
0001
1000
0000
0000
0010
0000
0100
0000
,
0001
0010
1000
0100
0010
0001
0010
0000
,
1000
0001
0100
0010
1000
0010
0001
0000
,
0001
1000
0010
0000
1000
0100
0001
0000
,
1000
0000
0001
0000
0100
0000
0001
0100
1000
0000
0000
0100
0001
0000
0000
0100
,
0010
1000
0001
0100
0010
0001
1000
0000
,
0001
0100
0010
1000
0001
0100
0010
0000
,
0001
1000
0010
0100
0001
1000
0010
1000
,
0100
0010
0001
0010
0100
1000
0100
0010
0002
0000
0000
0000
0003
0000
0001
1000
,
0001
0000
0000
0000
1000
0000
0000
0000
0001
0000
0100
0000
0001
0000
0100
0010
,
0100
0000
0010
0100
0010
0000
1000
0000
0100
0000
0001
0000
1000
0010
1000
0000
,
0100
0000
1000
0000
0001
0100
0010
1000
,
0000
0001
0000
0010
0001
1000
0010
0100
,
1000
0000
0001
0000
0010
1000
0001
0000
,
0100
0000
0010
0000
0000
0000
1000
0000
0000
0000
0001
0000
1000
0100
0010
0000
,
0001
0000
0100
0000
1000
0001
0100
0010
,
0010
0100
1000
0001
0100
0010
1000
0010
0100
0001
1000
0001
0100
0010
0100
0001
,
0100
0001
0001
0001
,
1000
0000
0010
0000
0100
0000
0000
0000
0001
0010
1000
0100
0010
0001
0100
1000
,
0001
0100
1000
0010
1000
0001
0010
0100
,
0010
0001
1000
0010
0000
0010
0100
0010
,
0100
0001
0010
0100
1000
0001
0010
0100
,
1000
0010
0001
0010
1000
0000
1001
0000
,
0001
0100
0001
1000
0100
0010
1000
0010
,
0100
0000
0000
1000
0000
0000
0002
0000
0000
0000
1003
0000
0001
0000
0010
0000
,
0001
0100
1000
0100
0001
0010
0100
0010
,
0001
0000
1000
0000
0010
0000
1000
0000
0001
1000
0001
0000
0000
0000
1001
0000
,
0000
0010
0100
0001
1000
0000
0010
0001
,
0000
1000
0010
0100
0001
1000
0010
0100
,
0001
0000
0000
1000
0010
0000
0100
0000
0000
0000
1000
0001
0100
0000
0000
0000
,
0100
0000
0001
0100
0000
0000
0001
0000
0010
1000
0100
0010
0100
0001
0100
0000
,
0000
0001
1000
0000
0001
0000
1000
0000
,
0001
0100
0010
0000
1000
0001
0100
0000
,
0010
0000
1000
0001
0100
0010
1000
0001
,
0100
0001
0000
1000
1000
0000
0010
0010
,
0000
1000
0002
0000
0000
0000
0000
0003
,
0001
0000
1000
0000
0010
0001
1000
0000
,
0010
0000
0100
0000
0010
1000
0010
0000
,
0100
0000
0001
1000
0000
0010
0100
0000
,
0001
0000
0000
0000
1000
0000
0000
0000
0001
0000
0010
0000
0001
0100
1000
0001
,
0010
0000
1000
0001
0100
0000
0010
0000
,
1000
0000
0010
0100
0001
0000
1000
0000
,
0010
0000
0000
0000
1000
0000
0001
0000
0000
0000
0100
0000
0010
0000
0001
0100
,
1000
0000
0100
1000
0001
0010
0001
0010
0100
0000
0010
0000
1000
0000
0001
0100
,
0010
0000
1000
0000
0001
0010
0001
0000
,
1000
0000
0010
0000
1000
0001
0100
0000
,
0010
0000
0001
1000
0000
0010
0100
0000
,
0001
0000
0000
0000
0010
0000
0000
0000
0001
0000
0010
0000
0001
0010
1000
0001
,
1000
0000
0000
0000
0010
0000
0100
0000
1000
0000
0001
0100
1000
0010
0100
0000
,
0010
0000
1000
0000
0001
0000
0100
0000
0000
0000
0020
0000
0000
0030
1000
0001
,
0010
0100
0010
0100
0001
1000
0010
0100
,
0001
0010
0001
0010
0100
0010
0100
1000
,
0001
1000
0100
0010
0001
0100
0010
0100
,
0001
0010
0001
1000
0010
0100
0010
1000
,
0100
0010
0100
0010
0001
0100
0001
0010
,
0001
0100
0010
1000
0100
0010
0100
0010
,
0001
0100
0010
0100
0010
0100
0001
0010
,
0001
0000
0100
0000
0010
0000
0200
0000
0000
0300
0001
1000
0001
1000
0001
0000
,
1000
0010
1000
0010
0100
0000
0001
1000
0001
1000
0100
0000
0010
0001
0010
0001
,
0100
0000
0010
1000
0010
1000
0001
0000
0010
0100
0010
0100
1000
0000
0020
0000
,
0000
0000
0030
0000
0100
0010
1000
0000
0100
0000
0001
0000
0100
0000
1000
0000
,
0001
0000
0000
0001
0000
0000
0100
0000
0000
0100
0000
0000
0010
0000
1000
0000
0001
0000
0010
0000
0100
0000
1000
0000
,
0001
0100
0001
0000
1000
0100
1000
0000
0200
0000
0010
0000
0310
0000
0001
0000
,
1000
0010
0000
1000
0010
0000
1000
0001
0000
1000
0001
0000
0010
0100
0000
0010
,
0100
0000
1000
0000
0010
0000
0001
0000
0010
0000
1000
0001
1000
0001
2000
0000
,
0000
0100
0100
3100
0010
0001
0100
0010
,
2000
0000
0000
3001
0200
0000
0000
0300
,
0020
0000
0000
1030
0001
0000
1000
0001
,
0100
0000
0010
1000
0000
0001
0200
0000
,
0000
0000
1300
0000
0001
0000
0000
0000
2000
0000
0000
0000
3010
0001
1000
0100
,
0010
1000
0001
1000
0010
1000
0100
0010
,
0001
0010
0100
1000
0010
0100
0001
1000
,
0001
0000
1000
0010
0000
1000
0000
0001
,
0000
0000
0100
0000
0001
1000
0010
0000
0100
0000
0001
0100
0010
1000
0001
0100
,
0010
0000
1000
0000
0001
0010
0001
0000
,
1000
0000
0010
0000
1000
0001
0100
0000
,
0010
0000
0001
1000
0000
0010
0100
0000
,
0001
0000
0000
0000
0010
0000
0000
0000
0001
0000
0010
0000
0001
0010
1000
0001
,
1000
0000
0000
0000
0010
0000
0100
0000
1000
0000
0001
0100
1000
0010
0100
0000
,
0010
0000
1000
0000
0001
0000
0100
0000
0000
0000
0020
0000
0000
0030
1000
0001
,
0100
1000
0100
0010
0100
1000
0010
0100
,
0001
1000
0010
1000
0010
0100
0010
1000
,
0100
1000
0010
1000
0100
0010
0100
1000
,
0001
0000
0100
0000
0001
0000
1000
0000
0010
0000
0100
0001
1000
0010
0001
0100
,
1000
0100
0010
0001
0000
0101
0000
0120
,
0000
1030
0001
0020
0000
0031
0100
1000
,
0100
0001
0010
0100
0000
1100
0000
0201
,
0000
0000
0310
0000
1000
0000
0002
0000
0000
0000
1003
0000
0001
0100
0001
0000
,
1000
0100
0010
0001
0000
0101
0000
0120
,
0000
0000
1030
0000
0001
0000
0200
0000
0000
0000
0310
0000
1000
0001
1000
0001
,
1000
0010
0001
0010
1000
0100
0010
1001
;
