#TITLE:Most Girls;
#SUBTITLE:;
#ARTIST:P!NK;
#TITLETRANSLIT:;
#SUBTITLETRANSLIT:;
#ARTISTTRANSLIT:;
#GENRE:;
#CREDIT:;
#MUSIC:Most Girls.ogg;
#BANNER:Most Girls.png;
#BACKGROUND:Most Girls-bg.png;
#CDTITLE:;
#SAMPLESTART:58.367;
#SAMPLELENGTH:15.000;
#SELECTABLE:YES;
#OFFSET:-0.305;
#BPMS:0.000=195.826;
#STOPS:;
#BGSTAGE:4;
#DISPLAYBPM:195;
#BGCHANGES:;
#FGCHANGES:;

//--------------- dance-single - XLev450X-bSP ----------------
#NOTES:
     dance-single:
     XLev450X:
     Beginner:
     3:
     0,0,0,0,0:
0000
0000
0000
0000
,
0000
0000
0000
0000
,
0000
0000
0000
0000
,
0000
0000
0000
0000
,
0000
0000
0000
0000
,
0000
0000
0000
0000
,
0000
0000
0000
0000
,
0000
0000
0000
0000
,
0000
0000
0000
0000
,
0000
0000
0000
0000
,
0000
0000
0000
0000
,
0000
0000
0000
0000
,
0000
0000
0000
0000
,
0000
0000
0000
0000
,
0000
0000
0000
0000
,
0000
0000
0000
0000
,
0010
0000
0000
0000
,
0000
0000
0000
0000
,
1000
0000
0000
0000
,
0000
0000
0000
0000
,
0001
0000
0000
0000
,
0000
0000
0000
0000
,
0100
0000
0000
0000
,
0000
0000
0000
0000
,
0010
0000
0000
0000
,
0000
0000
0000
0000
,
0100
0000
0000
0000
,
0000
0000
0000
0000
,
0001
0000
0000
0000
,
0000
0000
0000
0000
,
1000
0000
0000
0000
,
0000
0000
0000
0000
,
0100
0000
0000
0000
,
0001
0000
0000
0000
,
0100
0000
0000
0000
,
0000
0000
0000
0000
,
0010
0000
0000
0000
,
1000
0000
0000
0000
,
0010
0000
0000
0000
,
0000
0000
0000
0000
,
0001
0000
0000
0000
,
0100
0000
0000
0000
,
0010
0000
0000
0000
,
0000
0000
0000
0000
,
1000
0000
0000
0000
,
0010
0000
0000
0000
,
0100
0000
0000
0000
,
0000
0000
0000
0000
,
0010
0000
0010
0000
,
0010
0000
0000
0000
,
0001
0000
1000
0000
,
0001
0000
0000
0000
,
0100
0000
0100
0000
,
0100
0000
0000
0000
,
0010
0000
0100
0000
,
0010
0000
0000
0000
,
1000
0000
0001
0000
,
1000
0000
0000
0000
,
0010
0000
1000
0000
,
0100
0000
0000
0000
,
0010
0000
0001
0000
,
0100
0000
0000
0000
,
1000
0000
0001
0000
,
0100
0000
0000
0000
,
0010
0000
1000
0000
,
0010
0000
0000
0000
,
0001
0000
1000
0000
,
0001
0000
0000
0000
,
0010
0000
0001
0000
,
0010
0000
0000
0000
,
1001
0000
0110
0000
,
1001
0000
0000
0000
,
0100
0000
0000
0000
,
0010
0000
0000
0000
,
1000
0000
0000
0000
,
0001
0000
0000
0000
,
0010
0000
0010
0000
,
0010
0000
0000
0000
,
1000
0000
1000
0000
,
1000
0000
0000
0000
,
0100
0000
0001
0000
,
1000
0000
0000
0000
,
0010
0000
0100
0000
,
0001
0000
0000
0000
,
1000
0000
0010
0000
,
0100
0000
0000
0000
,
0001
0000
0100
0000
,
0010
0000
0000
0000
,
1001
0000
0000
0000
;

//--------------- dance-single - XLev450X-BSP ----------------
#NOTES:
     dance-single:
     XLev450X:
     Easy:
     5:
     0,0,0,0,0:
0000
0000
0000
0000
,
0000
0000
0000
0000
,
0000
0000
0000
0000
,
0000
0000
0000
0000
,
0000
0000
0000
0000
,
0000
0000
0000
0000
,
0000
0000
0000
0000
,
0000
0000
0000
0000
,
0000
0000
0000
0000
,
0000
0000
0000
0000
,
0000
0000
0000
0000
,
0000
0000
0000
0000
,
0000
0000
0000
0000
,
0000
0000
0000
0000
,
0000
0000
0000
0000
,
0000
0000
0000
0000
,
0010
0000
0100
0000
,
0010
0000
0000
0000
,
1000
0000
0001
0000
,
0100
0000
0000
0000
,
1000
0000
0010
0000
,
0100
0000
0000
0000
,
0010
0000
0100
0000
,
0001
0000
0000
0000
,
0001
0000
0010
0000
,
0100
0000
0000
0000
,
1000
0000
0010
0000
,
0100
0000
0000
0000
,
0010
0000
1000
0000
,
0100
0000
0000
0000
,
0010
0000
0100
0000
,
0001
0000
0000
0000
,
1100
0000
0000
0000
,
0011
0000
0000
0000
,
0110
0000
0000
0000
,
1001
0000
0000
0000
,
0011
0000
0000
0000
,
1100
0000
0000
0000
,
0101
0000
0000
0000
,
1010
0000
0000
0000
,
0010
0100
0001
0000
,
1000
0010
0100
0000
,
0010
0000
0100
0000
,
0001
1000
0010
0000
,
0100
0000
0001
0000
,
1000
0000
0010
0000
,
1100
0000
0011
0000
,
0110
0000
1001
0000
,
0110
0000
0000
0000
,
1000
0000
0001
0000
,
0100
0000
0000
0000
,
0010
0000
0100
0000
,
0001
1000
0010
0000
,
0100
0001
1000
0000
,
0010
0000
0100
0000
,
0001
0000
0000
0000
,
1000
0000
0010
0000
,
0100
0001
1000
0000
,
0010
0000
0100
0000
,
0001
1000
0010
0000
,
0100
0000
0001
0000
,
1000
0000
0010
0000
,
1100
0000
0011
0000
,
0110
0000
0000
0000
,
1000
0000
0001
0000
,
0100
0000
0000
0000
,
1000
0000
0010
0000
,
0100
0000
0000
0000
,
0001
0000
0100
0000
,
0001
0000
0000
0000
,
1100
0000
0011
0000
,
0110
0000
1001
0000
,
0010
0000
0100
0000
,
0001
0000
0000
0000
,
1000
0000
0010
0000
,
0100
0000
0000
0000
,
0001
0000
0000
0000
,
1000
0000
0000
0000
,
0010
0000
0100
0000
,
0010
0000
0000
0000
,
1000
0000
0010
0000
,
0100
0000
0001
0000
,
1000
0000
0100
0000
,
0001
0000
0000
0000
,
0010
0000
0100
0000
,
0001
0000
0100
0000
,
0010
0000
1000
0000
,
0001
0000
0100
0000
,
2002
3003
0000
0000
;

//--------------- dance-single - XLev450X-DSP ----------------
#NOTES:
     dance-single:
     XLev450X:
     Medium:
     8:
     0,0,0,0,0:
0000
0000
0000
0000
,
0000
0000
0000
0000
,
0000
0000
0000
0000
,
0000
0000
0000
0000
,
0000
0000
0000
0000
,
0000
0000
0000
0000
,
0000
0000
0000
0000
,
0000
0000
0000
0000
,
0000
0000
0000
0000
,
0000
0000
0000
0000
,
0000
0000
0000
0000
,
0000
0000
0000
0000
,
0000
0000
0000
0000
,
0000
0000
0000
0000
,
0000
0000
0000
0000
,
0000
0000
0000
0000
,
0020
0030
0000
0000
0000
0000
0001
0000
,
1000
0000
0010
0000
0100
0000
0001
1000
,
0020
0030
0000
0000
0000
0000
0100
0000
,
0001
0000
1000
0000
0010
0100
0001
0000
,
2000
3000
0000
0000
0020
0030
0000
0000
,
0100
0000
0001
0000
1000
0010
0100
0000
,
0022
0033
0000
0000
2200
3300
0000
0000
,
0220
0330
0000
0000
,
2002
3003
0000
0100
,
0001
1000
0010
0100
,
0002
0000
0003
0000
0000
0000
1000
0010
,
0100
0001
1000
0010
,
0200
0300
0000
0001
,
1000
0010
0100
0001
,
2200
3300
0000
0000
0022
0033
0000
0000
,
0220
0330
0000
0000
2002
3003
0000
0000
,
2020
3030
0000
0000
,
0010
0000
0100
0000
0001
0000
1000
0020
,
0030
0000
0000
0000
,
0001
1000
0010
0100
,
0002
0003
0000
0000
0000
0000
1000
0000
,
0010
0100
0001
0220
,
0000
0000
0000
0000
0000
0330
2002
3003
,
0000
0000
0000
0010
,
0100
0001
1000
0000
0020
0030
0000
0000
,
0100
0001
1000
0000
0200
0300
0000
0000
,
0010
0100
0001
0000
1000
0010
0100
0000
,
0002
0003
0000
0000
0000
1000
0010
0001
,
0100
0000
0002
0003
0000
0000
0010
0000
,
0100
0001
1000
0010
,
0220
0330
0000
0000
2002
3003
0000
0000
,
2020
3030
0000
0000
0202
0303
0000
0000
,
0010
0100
0001
0000
,
1000
0010
0100
0000
,
0000
0001
1000
0010
,
0100
0000
0001
1000
0010
0000
0100
0000
,
0002
0003
0000
0000
2000
3000
0000
0000
,
0020
0030
0000
0000
0200
0300
0000
0000
,
0022
0033
0000
0000
2200
3300
0000
0000
,
0220
0330
2002
3003
0000
0000
0000
0000
,
0010
0100
0001
1000
,
0010
0100
0001
0010
,
1000
0000
0010
0000
,
0100
0001
1000
0010
,
0100
0000
0000
0001
0000
0000
1000
0000
,
0010
0000
0100
0000
0002
0003
0000
0000
,
1000
0010
0100
0001
,
2020
3030
0000
0000
0220
0330
0000
0000
,
2002
3003
0010
0000
0100
0000
0001
0000
,
1000
0010
0100
0000
,
0001
0000
1000
0000
,
0010
0100
0001
0000
,
1000
0010
0100
0000
,
0001
1000
0010
0000
,
2000
3000
0000
0000
0020
0030
0000
0000
,
0100
0001
1000
0000
,
0010
0100
0001
0000
,
1000
0000
0010
0000
0100
0001
2000
3000
,
0000
0010
0100
0001
,
1000
0000
0010
0100
0001
0000
1000
0000
,
0010
0000
0000
0100
0000
0000
0001
0000
,
1000
0000
0010
0000
0200
0300
0000
0000
,
0001
1000
0010
0100
,
0022
0033
0000
0000
2200
3300
0000
0000
,
0220
0330
0000
0000
0001
0000
0000
0000
,
1000
0010
0100
0000
,
0001
0000
1000
0000
,
0010
0100
0001
0000
,
0010
0001
0010
0000
0100
0000
0000
0000
,
1000
0010
1000
0000
0220
0330
0000
0000
,
0001
1000
0010
0100
,
0001
0000
1000
0000
0010
0000
0000
0000
0100
0000
0000
0100
0000
0000
0100
0000
,
2002
3003
0000
0000
;

//--------------- dance-single - XLev450X-ESP ----------------
#NOTES:
     dance-single:
     XLev450X:
     Hard:
     13:
     0,0,0,0,0:
0000
0000
0000
0000
,
0000
0000
0000
0000
,
0000
0000
0000
0000
,
0000
0000
0000
0000
,
0000
0000
0000
0000
,
0000
0000
0000
0000
,
0000
0000
0000
0000
,
0000
0000
0000
0000
,
0000
0000
0000
0000
,
0000
0000
0000
0000
,
0000
0000
0000
0000
,
0000
0000
0000
0000
,
0000
0000
0000
0000
,
0000
0000
0000
0000
,
0000
0000
0000
0000
,
0000
0000
0000
0000
,
2002
0000
3003
0000
0000
0000
0100
0010
,
0001
1000
0010
1000
0001
0100
0010
1000
,
0001
0000
0000
1000
0000
0000
0001
0000
0010
0000
0000
0000
0100
0000
0010
0000
,
1000
0001
0100
0010
1000
0010
0100
0010
,
2002
3003
0000
0000
1000
0000
0010
0000
,
0100
0001
1000
0000
0100
0001
0010
0000
,
0010
0001
1000
0000
0100
0001
0100
0000
,
0100
0000
0001
0000
1000
0000
0100
0000
0010
0000
0000
0010
0000
0000
0010
0000
,
0220
0330
0000
0000
0000
0000
1000
0001
,
0100
0010
1000
0001
0100
0001
0100
0001
,
0010
0000
0000
0100
0000
0000
0010
0000
0000
0000
0000
0000
0010
0000
0001
0000
,
0010
0001
1000
0010
1000
0010
1000
0100
,
0010
0000
0000
0000
0000
0000
0010
0100
,
1000
0010
0100
0010
0100
0001
0010
0001
,
2000
3000
0000
0000
0200
0300
0000
0000
,
0002
0003
0000
0000
1000
0100
0010
0100
,
2002
3003
0000
0000
0000
0000
0000
0000
,
0100
0010
0001
1000
0001
0010
0100
0010
,
0000
0000
0000
0000
,
0001
1000
0100
0010
0001
1000
0010
0100
,
0010
0000
0000
0000
0000
0000
0001
1000
,
0010
1000
0100
1000
0010
0100
0010
0000
,
0000
0000
0000
0000
0000
0000
0010
1000
,
0000
0000
0000
0000
0000
0000
2000
3000
,
0010
0000
0100
0000
0010
0000
1000
0000
0202
0303
0000
0000
0000
0000
0000
0000
,
0001
1000
0001
0010
2020
3030
0000
0000
,
0010
1000
0001
0100
0010
1000
0100
1000
,
0220
0330
0000
0000
0000
0010
1000
0010
,
1000
0100
0010
0200
0300
0000
1000
0010
,
0100
0001
1000
0100
0010
0001
1000
0100
,
0010
1000
0100
0001
,
0010
0000
0000
0000
1000
0000
0000
0000
0001
1000
0100
0010
0100
0010
0001
1000
,
0010
0100
0010
0100
0001
0010
0100
1000
,
0100
0010
0001
0010
0100
1000
0200
0300
,
0000
0000
0001
0100
0010
1000
0001
0010
,
0100
1000
0001
1000
0100
0010
0100
1000
,
0001
0010
0001
0100
,
0001
0100
0010
1000
0100
1000
0010
0100
,
0010
0000
0000
0010
0000
0000
0010
0000
0001
0000
0000
0001
0000
0000
0001
0000
,
0100
0000
0010
0100
0000
0000
0100
0000
0010
0100
0001
0010
0100
1000
0010
0100
,
0001
1000
0001
0100
0010
0000
0000
0000
,
0010
0100
0001
1000
0010
0000
0000
0000
,
0100
1000
0010
1000
0001
0010
0100
1000
,
0001
0010
0001
1000
0100
0010
0100
1000
,
0010
0000
0000
0100
0000
0000
0010
0000
0000
0000
0000
0000
0010
0000
1000
0000
,
0001
0010
0100
1000
0101
0000
0000
0000
,
0100
0010
0001
1000
0010
0100
0010
1000
,
1001
0000
0110
0000
,
0001
0100
0010
0100
0001
1000
0010
0100
,
0001
0010
0001
0010
0001
1000
0010
0000
,
0000
0000
0100
0010
0100
1000
0001
0100
,
0010
0100
0001
1000
0100
0010
0001
0000
,
0100
0000
0010
0000
,
0001
0000
1000
0000
0001
0100
0010
0100
,
0001
0000
0000
0001
0000
0000
0001
0000
0010
0000
0000
0010
0000
0000
0010
0000
,
0100
0000
0010
0100
0000
0000
0100
0000
0001
0010
0100
1000
0010
1000
0001
0100
,
0001
0010
0100
1000
0100
0010
0001
0010
,
0100
1000
0100
1000
0001
0100
0010
0000
,
0000
0000
0010
0100
0001
0010
0100
1000
,
0100
0010
0001
1000
0100
1000
0001
0000
,
0100
0000
0000
0100
0000
0000
0100
0000
0000
0000
0000
0000
0100
0000
0010
0000
,
0100
1000
0010
1000
0100
1000
0000
0000
,
0001
0100
0010
1000
0001
0010
0100
1000
,
0010
0000
0000
0000
0001
0010
0100
1000
,
0001
0000
0100
1000
0001
1000
0001
0100
,
0001
0010
0100
1000
0010
0100
0001
0000
,
0000
0000
0001
0010
0100
1000
0001
0100
,
0001
1000
0001
0010
0100
0010
0001
0000
,
0010
0100
0001
1000
0100
0000
0000
0000
,
0100
1000
0001
0010
0100
0000
0000
0000
,
0010
1000
0100
1000
0001
0100
0001
1000
,
0010
0000
0100
0000
0001
0000
0100
0000
0001
0000
0000
0100
0000
0000
0001
0000
,
0220
0330
0000
0000
;
